#TITLE:Too Much Christmas;
#SUBTITLE:;
#ARTIST:ME & MY;
#TITLETRANSLIT:;
#SUBTITLETRANSLIT:;
#ARTISTTRANSLIT:;
#CREDIT:;
#BANNER:;
#BACKGROUND:;
#LYRICSPATH:;
#CDTITLE:;
#MUSIC:Too Much Christmas.ogg;
#OFFSET:-1.070;
#SAMPLESTART:48.502;
#SAMPLELENGTH:12.000;
#SELECTABLE:YES;
#BPMS:0.000=120.020;
#STOPS:;
#BGCHANGES:;

//---------------dance-single - ----------------
#NOTES:
     dance-single:
     :
     Hard:
     11:
     0.453,0.476,0.505,0.073,0.051:
0000
0000
0000
0000
,
0000
0000
0000
0000
,
0000
0000
0000
0000
,
0000
0000
0000
0000
,
1000
0000
0010
0000
0100
0001
0101
0000
,
0001
0000
0010
0000
0100
1000
1100
0000
,
1000
0010
1000
1001
0000
0001
0010
0001
,
1000
0100
1000
1001
0000
0001
0100
0010
,
1000
0010
0000
0100
0001
0100
0000
0010
,
1000
0010
0000
0100
0001
0100
0000
0010
,
1000
0100
0000
0010
0001
0100
0000
0100
,
0010
0000
1000
0010
0000
0100
0001
0100
0010
0000
1000
0000
1010
0000
1000
0000
,
1001
0001
0000
0001
0010
0100
0000
0100
,
1100
0001
0000
0001
0100
0010
0000
0010
,
1010
0000
0010
1000
0000
0100
0000
0010
,
0001
0000
0010
0001
0000
1000
0100
1000
0010
0000
0100
0000
1001
0000
0000
0000
,
0011
0000
0011
0000
0001
1001
1100
0000
,
1010
0000
1010
0000
1000
1001
1100
0000
,
1010
0001
0011
1000
,
1100
0001
1001
0000
0101
1000
1001
0000
,
1000
0000
1001
0000
0001
0110
1000
0000
,
1000
0000
1001
0000
0010
1001
0100
0000
,
0010
1000
1000
0000
0100
0001
0001
0000
,
0010
0001
0100
1000
0010
0001
0010
0000
,
1000
0010
1000
0100
0001
0100
1100
0000
,
0100
0001
0100
1000
0010
0001
0011
0000
,
0001
0010
0010
0000
1000
1100
0100
0000
,
0010
0001
0001
0000
0001
0101
0100
0000
,
0100
0001
0010
1000
0010
0001
0101
0000
,
0100
1000
0100
0001
0010
0001
0011
0000
,
0010
0100
0100
0000
1000
1010
0001
0000
,
0001
0100
0100
0000
0100
0101
1000
0000
,
0100
0000
0010
0000
1001
0000
0000
0000
0001
0000
0000
0100
0000
0000
1000
0000
,
0100
0001
1001
0000
1000
0100
0000
0001
,
0100
1000
1001
0001
0100
0000
0010
1000
,
0000
1000
0001
0000
0000
0000
0000
0000
0010
0000
0100
0000
1100
0000
0000
0000
,
1001
0001
0000
0001
0100
0010
1001
0000
,
2000
0000
3200
0000
,
0320
0000
0032
0000
,
0013
0001
0100
0010
1000
0100
0010
0001
,
0100
0010
1000
0100
0010
0001
0001
1000
,
0002
0000
0023
0000
,
0230
0000
2300
0000
,
3010
1000
1000
0010
0100
0001
0001
0100
,
0010
1000
1000
0010
0100
0001
0001
0010
,
0001
0000
0000
0000
0010
0001
0000
0000
1000
0000
0000
0000
0010
1000
0000
0000
,
0001
0000
0000
0000
0010
0001
0000
0000
0100
0000
0000
0000
0100
0010
0000
0000
,
1000
1000
1000
1000
0010
0010
0010
0010
,
0110
0000
0000
0000
,
1000
1000
0010
0100
0001
0001
0011
0000
,
0001
0001
0100
0010
1000
1000
1010
0000
,
1010
0001
1001
0000
0001
0010
0001
0000
,
0011
1000
1001
0000
1000
0010
1000
0000
,
0001
0001
0100
0010
1000
1000
1100
0000
,
1000
1000
0010
0100
0001
0001
0101
0000
,
0101
0010
1100
0000
1000
0001
1000
0000
,
1100
0010
0101
0000
0001
0100
0010
0000
,
1001
0000
0100
0000
1001
0000
0000
0000
1000
0000
0000
0010
0000
0000
0100
0000
,
0110
0001
1001
0000
1000
0001
0000
0010
,
0100
1000
0101
0100
0010
0000
1000
0010
,
0000
0010
0100
0000
0000
0000
0001
0000
0101
0000
0110
0000
1010
0000
0000
0000
,
1001
0001
0000
0001
0101
0001
1000
0000
,
1001
1000
0000
1000
1001
0110
1001
0000
,
0202
0000
0000
0000
,
0000
0000
0000
0000
,
0303
0000
0000
0000
;

//---------------dance-single - ----------------
#NOTES:
     dance-single:
     :
     Medium:
     9:
     0.339,0.381,0.176,0.081,0.007: // measure 1
0000
0000
0000
0000
,  // measure 2
0000
0000
0000
0000
,  // measure 3
0000
0000
0000
0000
,  // measure 4
0000
0000
0000
0000
,  // measure 5
1000
0000
0010
0000
0100
0001
0001
0000
,  // measure 6
0010
0000
0100
0000
1000
0100
0100
0000
,  // measure 7
0010
0001
0010
0002
0000
0000
0000
0000
,  // measure 8
1003
0100
0000
0100
0001
0100
0000
1000
,  // measure 9
0010
1000
0000
0100
0001
0100
0000
1000
,  // measure 10
0010
1000
0000
0100
0001
0100
0000
1000
,  // measure 11
0010
1010
0001
0101
,  // measure 12
0100
0000
0100
0000
0010
1000
0010
1000
,  // measure 13
0100
1000
0000
0100
0001
0100
0000
0100
,  // measure 14
1000
0100
0000
0100
0001
0100
0000
0100
,  // measure 15
1000
1010
0001
0011
,  // measure 16
0010
0000
0010
0000
0100
0001
0100
0000
,  // measure 17
1000
1000
0001
0001
,  // measure 18
1000
1000
0001
0001
,  // measure 19
1000
0100
0100
0000
0001
0100
0100
0000
,  // measure 20
1000
0100
0100
0000
0001
0100
0100
0000
,  // measure 21
1000
1000
0001
0001
,  // measure 22
1000
1000
0001
0001
,  // measure 23
1000
0010
0010
0000
0001
0010
0010
0000
,  // measure 24
1000
0010
0010
0000
0001
0010
0010
0000
,  // measure 25
0010
1000
0000
0001
0000
1000
0100
0000
,  // measure 26
0010
0001
0000
1000
0000
0001
0100
0000
,  // measure 27
0010
0000
0010
0000
0100
1000
0100
0000
,  // measure 28
0010
0000
0010
0000
0100
0001
0100
0000
,  // measure 29
0010
1000
0000
0100
0000
1000
0010
0000
,  // measure 30
0010
0001
0000
0100
0000
0001
0010
0000
,  // measure 31
0010
0000
0010
0000
0100
1000
0100
0000
,  // measure 32
0010
0000
0010
0000
0100
0001
0100
0000
,  // measure 33
1000
0000
0000
0000
1000
0000
0010
0000
0000
0000
0010
0000
1000
0000
0000
0100
,  // measure 34
0000
0100
0010
0000
0001
0100
0000
0010
,  // measure 35
0100
0000
1000
0100
1100
0000
0100
0010
,  // measure 36
2000
3100
0000
0010
,  // measure 37
0110
0000
0010
0000
0001
0100
0001
0000
,  // measure 38
1002
0000
0100
0000
,  // measure 39
1000
0000
0000
0000
0010
0000
0000
0003
,  // measure 40
0001
0100
1000
0000
1000
0100
0001
0000
,  // measure 41
0001
0100
1000
0000
1000
0100
0001
0000
,  // measure 42
1002
0000
0010
0000
,  // measure 43
1000
0000
0100
0003
,  // measure 44
0001
0010
1000
0000
1000
0010
0001
0000
,  // measure 45
0001
0010
1000
0000
1000
0010
0001
0000
,  // measure 46
0102
1003
2100
3001
,  // measure 47
0012
1003
2010
3001
,  // measure 48
2001
0100
0010
3001
,  // measure 49
1001
0000
0000
0000
,  // measure 50
0100
0000
0100
0000
0010
1000
1100
0000
,  // measure 51
0100
0000
0100
0000
0010
0001
0101
0000
,  // measure 52
0010
1000
0100
0000
0010
0001
0100
0000
,  // measure 53
0100
0001
0010
0000
0100
1000
0010
0000
,  // measure 54
0100
0000
0100
0000
0010
1000
1100
0000
,  // measure 55
0100
0000
0100
0000
0010
0001
0101
0000
,  // measure 56
0100
0001
1000
0000
0100
1000
0001
0000
,  // measure 57
0010
0001
1000
0000
0010
1000
0000
1000
,  // measure 58
0001
0000
0000
0000
0001
0000
0000
0000
0010
0000
0000
0010
0000
0000
0100
0000
,  // measure 59
1000
0000
1001
0000
1000
0010
0000
0100
,  // measure 60
0010
0000
1000
0010
1000
0000
0100
0010
,  // measure 61
0001
0000
1000
0000
0001
1000
1001
0000
,  // measure 62
1000
0000
0010
0000
0110
1001
0110
0000
,  // measure 63
0100
0000
0001
0000
0010
0100
1000
0000
,  // measure 64
2002
0000
0000
0000
,  // measure 65
0000
0000
0000
0000
,  // measure 66
3003
0000
0000
0000
;

//---------------dance-single - ----------------
#NOTES:
     dance-single:
     :
     Easy:
     6:
     0.259,0.381,0.212,0.124,0.000:
0000
0000
0000
0000
,
0000
0000
0000
0000
,
0000
0000
0000
0000
,
0000
0000
0000
0000
,
0010
0000
1000
0000
,
0100
0000
0001
0000
,
0010
0010
1000
0000
,
0100
0100
0001
0000
,
0100
0000
0100
0000
,
1000
0000
1000
0000
,
0010
0001
0100
0000
,
1000
0100
0010
0000
,
0001
0000
0001
0000
,
0010
0000
0010
0000
,
0001
0001
0100
0000
,
0010
0010
1000
0000
,
0010
0010
1000
1000
,
0100
0100
0010
1001
,
0010
0000
0100
0000
,
0010
0000
0100
0000
,
0001
0001
1000
1000
,
0001
1000
0100
1001
,
1000
1000
0100
1001
,
0001
0001
0100
1001
,
0010
0010
0100
0100
,
0010
0010
0100
0100
,
0010
1000
1000
0000
0100
0000
0100
0000
,
0010
0001
0001
0000
0100
0000
0100
0000
,
0101
0101
1100
1100
,
0011
1001
0101
0001
,
0100
0000
0010
0000
1000
0001
0001
0000
,
1000
0000
0100
0000
0010
0001
0001
0000
,
1000
0000
0010
0100
,
0110
0000
0110
0001
,
1001
1000
0100
0011
,
0001
0000
0001
0100
,
1000
0010
1000
0100
,
0002
0000
0203
0000
,
0320
0000
2030
0000
,
3001
0001
1000
1000
,
0001
0001
1000
1000
,
0020
0000
0230
0000
,
0302
0000
2003
0000
,
3100
0100
0010
0010
,
0100
0100
0010
0010
,
0002
0103
2000
3100
,
0002
0013
2000
3010
,
0001
0100
0101
0101
,
2002
0000
0000
3003
,
0010
0010
0100
0100
,
0010
0010
0100
0100
,
0001
0001
1000
0000
0100
0000
0100
0000
,
1000
1000
0001
0000
0010
0000
0010
0000
,
1001
1010
1010
1100
,
0011
1001
0101
1001
,
0001
0100
0100
0000
0010
0000
1000
0000
,
0100
0001
0001
0000
0100
0000
1000
0000
,
1001
0000
0001
0100
,
1000
0000
1000
0100
,
0001
0000
1000
0000
,
0200
0000
0300
0000
,
0010
1001
0001
1000
,
1000
0001
0100
0010
,
2002
0000
0000
0000
,
0000
0000
0000
0000
,
3003
0000
0000
0000
;

//---------------dance-single - ----------------
#NOTES:
     dance-single:
     :
     Beginner:
     3:
     0.110,0.184,0.124,0.000,0.000:
0000
0000
0000
0000
,
0000
0000
0000
0000
,
0000
0000
0000
0000
,
0000
0000
0000
0000
,
1000
0000
0000
0000
,
1000
0000
0000
0000
,
0001
0000
0000
0000
,
0001
0000
0000
0000
,
0100
0000
0000
0000
,
0100
0000
0000
0000
,
0010
0000
0010
0000
,
1000
0000
0000
0000
,
1000
0000
0000
0000
,
1000
0000
0000
0000
,
0100
0000
0100
0000
,
0001
0000
0000
0000
,
0001
0000
0100
0000
,
1000
0000
0100
0000
,
0010
0000
0010
0000
,
0001
0000
0000
0000
,
1000
0000
0010
0000
,
0001
0000
0010
0000
,
1000
0000
0000
0000
,
0001
0000
0000
0000
,
1001
0000
0000
1000
,
1001
0000
0000
0001
,
1001
0000
0000
0000
,
1001
0000
0000
0000
,
1000
0000
0000
0001
,
1001
0000
0000
1000
,
1001
0000
0000
0000
,
1001
0000
0000
0000
,
0001
0000
0000
0000
,
0010
0000
0100
0000
,
0100
0000
0010
0000
,
0100
0000
0000
0000
,
1001
0000
0000
0000
,
1000
0000
0100
0000
,
0010
0000
0001
0000
,
1000
0000
0000
0000
,
0000
0000
0000
0000
,
0001
0000
0010
0000
,
0100
0000
1000
0000
,
0001
0000
0000
0000
,
0000
0000
0000
0000
,
0001
0000
0100
0000
,
0010
0000
1000
0000
,
0001
0000
0000
0000
,
1001
0000
0000
0000
,
1000
0000
0000
0100
,
0110
0000
0000
0010
,
0110
0000
0000
0000
,
0110
0000
0000
0100
,
0110
0000
0010
0000
,
1001
0000
0100
0000
,
1001
0000
0000
0000
,
1001
0000
0000
0000
,
0001
0000
1000
0000
,
1000
0000
0001
0000
,
0001
0000
0100
0000
,
0010
0000
0000
0000
,
1000
1000
1000
0000
,
0001
0000
0010
0000
,
0110
0000
0000
0000
;
