#VERSION:0.83;
#TITLE:The First Step;
#SUBTITLE:;
#ARTIST:Yooh;
#TITLETRANSLIT:;
#SUBTITLETRANSLIT:;
#ARTISTTRANSLIT:;
#GENRE:EDM;
#ORIGIN:;
#CREDIT:;
#BANNER:banner.png;
#BACKGROUND:background.png;
#PREVIEWVID:;
#JACKET:jacket.png;
#CDIMAGE:;
#DISCIMAGE:;
#LYRICSPATH:;
#CDTITLE:;
#MUSIC:The First Step.ogg;
#OFFSET:-2.000000;
#SAMPLESTART:23.818182;
#SAMPLELENGTH:14.545454;
#SELECTABLE:YES;
#BPMS:0.000=132.000;
#STOPS:;
#DELAYS:;
#WARPS:;
#TIMESIGNATURES:0.000=4=4;
#TICKCOUNTS:0.000=4;
#COMBOS:0.000=1;
#SPEEDS:0.000=1.000=0.000=0;
#SCROLLS:0.000=1.000;
#FAKES:;
#LABELS:0.000=Song Start;
#BGCHANGES:;
#KEYSOUNDS:;
#ATTACKS:
;

//---------------dance-single - ----------------
#NOTEDATA:;
#CHARTNAME:;
#STEPSTYPE:dance-single;
#DESCRIPTION:;
#CHARTSTYLE:;
#DIFFICULTY:Hard;
#METER:13;
#RADARVALUES:0.550070,0.598387,0.242824,0.112740,0.446622,444.000000,416.000000,28.000000,13.000000,0.000000,0.000000,0.000000,0.000000,0.000000,0.550070,0.598387,0.242824,0.112740,0.446622,444.000000,416.000000,28.000000,13.000000,0.000000,0.000000,0.000000,0.000000,0.000000;
#CREDIT:Pandemonium X;
#NOTES:
// measure 0
0000
0000
0000
0000
,  // measure 1
0000
0000
0000
0000
,  // measure 2
0000
0000
0000
0000
,  // measure 3
0000
0000
0000
0000
,  // measure 4
0000
0000
0000
0000
0001
0000
0010
0000
0001
0000
0000
0000
0010
0000
0000
0100
,  // measure 5
0000
0010
0000
0000
0001
0000
1000
0000
0001
0000
0000
0000
0100
0010
0100
0000
,  // measure 6
0000
0000
0000
0000
1000
0000
0100
0000
1000
0000
0000
0000
0100
0000
0000
0010
,  // measure 7
0000
0100
0000
0000
1000
0000
0001
0000
1000
0000
0100
0000
0001
0000
0000
0000
,  // measure 8
1100
0000
0100
1000
0010
0000
0100
0000
,  // measure 9
0101
0000
0000
0000
0010
0000
0100
0000
1000
0000
0000
0000
0001
1000
0001
0000
,  // measure 10
0000
0000
0100
0010
1000
0000
0100
0000
,  // measure 11
1000
1000
0100
0100
0010
0001
0200
0000
,  // measure 12
0310
0000
0000
1000
0000
0000
0100
0000
0000
1000
0000
0000
0001
0000
0000
0100
0000
0001
0000
0000
0010
0001
0000
0000
,  // measure 13
1000
0000
0000
0001
0000
0010
0000
0000
0100
0010
0000
0000
0100
0000
0000
1000
0000
0010
0000
0000
0100
0001
0000
0000
,  // measure 14
1000
0000
0000
0001
0000
0000
0010
0000
0000
0100
0000
0000
1000
0000
0000
0100
0000
1000
0000
0000
0001
1000
0000
0000
,  // measure 15
0010
0000
0000
0100
0000
0001
0000
0000
1000
0100
0000
0000
0010
0000
0100
0010
0000
0000
0001
0000
0000
0100
0000
0000
,  // measure 16
0010
0000
0000
1000
0000
0000
0100
0000
0000
1000
0000
0000
0001
0000
0000
0100
0000
0001
0000
0000
0010
0001
0000
0000
,  // measure 17
1000
0000
0000
0001
0000
0100
0000
0000
0010
1000
0000
0000
0100
0000
0000
0010
0000
0001
0000
0000
0010
0100
0000
0000
,  // measure 18
0010
0000
0000
0001
0000
0000
0100
0000
0000
0010
0000
0000
1000
0000
0000
0010
0000
1000
0000
0000
0010
0100
0000
0000
,  // measure 19
0001
0000
0000
1000
0000
0010
0000
0000
0001
0010
0000
0010
0200
0000
0000
0000
0000
0000
0300
0000
0000
0000
0000
0000
,  // measure 20
1002
0000
0000
0000
0000
0000
0013
0000
0000
0100
0000
0000
1000
0000
0000
0000
0000
0001
0000
0000
1000
0010
0000
0000
,  // measure 21
0100
0001
0100
1000
0100
0001
2000
0000
,  // measure 22
3001
0000
0000
0000
0000
0000
0100
0000
0000
0010
0000
0000
0100
0000
0000
0000
0000
0001
0000
0000
1000
0001
0000
0000
,  // measure 23
0010
1000
0010
0001
0100
0010
2000
0000
,  // measure 24
3100
0000
0000
0000
0000
0000
0010
0000
0000
0100
0000
0000
1000
0000
0000
0000
0000
0001
0000
0000
0100
0001
0000
0000
,  // measure 25
0010
0000
0000
0000
0000
0100
0000
0000
1000
0100
0000
0000
1000
0000
0000
0000
0000
0001
0000
0000
0100
0001
0000
0000
,  // measure 26
0010
0000
0000
0100
0000
0000
0010
0000
0000
0001
0000
0000
1000
0000
0000
0000
0000
0010
0000
0000
0100
0001
0000
0000
,  // measure 27
1000
0000
0000
0001
0000
0100
0000
0000
0010
1000
0000
1000
0200
0000
0000
0000
0000
0000
0300
0000
0000
0000
0000
0000
,  // measure 28
1001
0001
0001
0000
1000
1000
1000
0000
,  // measure 29
0001
0001
1000
1000
0001
1000
0001
0000
,  // measure 30
0010
0010
0010
0000
0100
0100
0100
0000
,  // measure 31
0010
0010
0100
0100
0010
0100
0110
0000
,  // measure 32
1001
0001
0010
0000
1001
1000
0010
0000
,  // measure 33
1001
0001
0010
1000
0010
0001
1000
0000
,  // measure 34
1001
1000
0001
0000
1001
0001
1000
0000
,  // measure 35
0001
0010
0000
0000
0001
0000
0100
0000
0010
0000
1000
0000
1001
0000
0000
0000
,  // measure 36
1010
0000
1000
0010
0101
0000
1010
0000
,  // measure 37
1001
0000
0001
0001
1010
0000
0000
0000
,  // measure 38
1001
0000
1000
0100
1001
0000
0011
0000
,  // measure 39
1100
0000
0100
0100
0011
0000
0001
0000
,  // measure 40
1010
0000
1000
0100
0010
0000
0001
0000
,  // measure 41
1001
0000
0001
0010
0100
0000
1000
0000
,  // measure 42
1001
1000
0010
1000
1001
0001
0010
0001
,  // measure 43
1000
0010
0001
0100
2000
0000
0001
3001
,  // measure 44
1020
0000
0000
0000
0000
0000
0130
0000
0000
0001
0000
0000
1000
0000
0001
0000
0000
0010
0000
0000
0100
0010
0000
0010
,  // measure 45
0001
0000
1000
0000
0000
0001
0000
0000
0100
0001
0000
0001
1000
0000
0100
0000
0000
0010
0000
0000
0100
1000
0000
1000
,  // measure 46
0001
0000
0000
0000
0000
0000
0010
0000
0000
0001
0000
0000
0010
0000
0001
0000
0000
0100
0000
0000
0010
0100
0000
0100
,  // measure 47
0001
0000
1000
0000
0000
0100
0000
0000
0010
0100
0000
0100
1000
0000
0001
0100
0000
0010
1000
0000
0000
0001
0000
0000
,  // measure 48
0210
0000
0000
0000
0000
0000
0301
0000
0000
0010
0000
0000
0100
0000
1000
0000
0000
0100
0000
0000
1000
0001
0000
0001
,  // measure 49
0100
0000
0010
0000
0000
1000
0000
0000
0100
0010
0000
0010
0001
0000
1000
0000
0000
0100
0000
0000
0010
0200
0000
0000
,  // measure 50
1300
0000
0000
0000
0000
0000
0001
0000
0000
1000
0000
0000
0100
0000
0010
0000
0000
0100
0000
0000
0010
0001
0000
0001
,  // measure 51
1000
0000
0001
0000
0000
0100
0000
0000
0001
1000
0000
1000
0001
0000
0010
0100
0000
0100
1000
0000
1000
0100
0000
0000
,  // measure 52
0020
0000
0000
0000
0000
0000
0130
0000
0000
1000
0000
0000
0010
0000
0000
0000
0000
0100
0000
0000
0001
1000
0000
0000
,  // measure 53
0100
0001
0100
1000
0010
1000
0002
0000
,  // measure 54
0103
0000
0000
0000
0000
0000
0010
0000
0000
1000
0000
0000
0100
0000
0000
0000
0000
0010
0000
0000
0100
1000
0000
0000
,  // measure 55
0001
0100
0010
1000
0001
0010
0100
0000
,  // measure 56
0010
0000
0000
0000
0000
0000
0100
0000
0000
1000
0000
0000
0010
0000
0000
0000
0000
1000
0000
0000
0100
0010
0000
0000
,  // measure 57
0001
0000
0000
0000
0000
0010
0000
0000
0100
1000
0000
0000
0010
0000
0000
0000
0000
0100
0000
0000
0001
1000
0000
0000
,  // measure 58
0001
0000
0000
0000
0000
0000
0010
0000
0000
0001
0000
0000
1000
0000
0000
0000
0000
0010
0000
0000
0100
0001
0000
0000
,  // measure 59
1000
0000
0000
0001
0000
1000
0000
0000
1000
0001
0000
0001
0200
0000
0000
0000
0000
0000
0310
0000
0000
0000
0000
0000
,  // measure 60
1001
0000
0000
0000
;

//---------------dance-single - ----------------
#NOTEDATA:;
#CHARTNAME:;
#STEPSTYPE:dance-single;
#DESCRIPTION:;
#CHARTSTYLE:;
#DIFFICULTY:Medium;
#METER:8;
#RADARVALUES:0.413791,0.416269,0.199462,0.138756,0.112740,334.000000,311.000000,23.000000,16.000000,0.000000,0.000000,0.000000,0.000000,0.000000,0.413791,0.416269,0.199462,0.138756,0.112740,334.000000,311.000000,23.000000,16.000000,0.000000,0.000000,0.000000,0.000000,0.000000;
#CREDIT:Pandemonium X;
#NOTES:
0000
0000
0000
0000
,
0000
0000
0000
0000
,
0000
0000
0000
0000
,
0000
0000
0000
0000
,
1001
0000
0001
0010
0001
0000
1000
0000
,
0001
0000
0100
0010
0100
0000
0000
0000
,
0000
0000
0010
1000
0010
0000
1000
0000
,
0200
0000
0000
0300
,
1001
0000
0001
1000
0010
0000
0100
0000
,
0001
0000
0010
0100
0010
0000
0000
0000
,
0100
0000
0010
0001
0100
0000
0010
0000
,
1000
0100
0010
0001
1000
0001
0100
0000
,
1001
0000
0000
0000
0001
0000
1000
0000
0010
0000
0000
0010
0000
0000
0010
0000
,
0100
0000
0000
0100
0000
0000
0100
0000
0001
0000
0000
0001
0000
0000
0001
0000
,
1000
0000
0000
0000
0010
0000
0100
0000
0001
0000
0000
0001
0000
0000
0001
0000
,
1000
0000
0000
0010
0000
0000
0100
0000
0001
0000
0010
0000
0100
0000
1000
0000
,
0001
0000
1000
0000
0001
0000
0010
0000
0001
0000
0000
0001
0000
0000
0001
0000
,
0100
0000
0000
0100
0000
0000
0100
0000
0010
0000
0000
0010
0000
0000
0010
0000
,
0100
0000
0001
0000
0010
0000
0100
0000
1000
0000
0000
1000
0000
0000
0001
0000
,
2000
0000
0000
3020
0000
0000
0230
0000
0002
0000
0000
0000
0303
0000
0000
0000
,
0020
0000
0130
0001
1000
0000
0100
0000
,
0010
0001
0010
0100
0010
0001
0010
0000
,
1001
0000
0001
1000
0010
0000
0100
0000
,
1000
0100
0001
0100
1000
0100
0010
0000
,
1000
0000
0000
0000
0010
0000
1000
0000
0100
0000
0000
0100
0000
0000
0100
0000
,
0010
0000
0000
0010
0000
0000
0010
0000
0001
0000
0000
0001
0000
0000
1000
0000
,
0001
0000
0100
0000
0010
0000
1000
0000
0100
0000
0000
0100
0000
0000
0100
0000
,
0020
0000
0000
0230
0000
0000
2300
0000
0002
0000
0000
0000
3003
0000
0000
0000
,
1000
0001
0010
0000
0001
1000
0010
0000
,
1000
0001
0010
0001
1000
0010
0100
0000
,
0001
1000
0100
0000
1000
0001
0100
0000
,
0001
1000
0100
1000
0001
0100
0110
0000
,
1001
0001
0001
0000
1000
1000
1000
0000
,
0001
0001
1000
1000
0001
0001
1000
0000
,
0010
0010
0010
0000
0100
0100
0100
0000
,
0020
0000
0000
0030
,
1001
0000
0001
1000
0001
0000
0100
0000
,
0101
1010
0101
0000
,
1001
0000
1000
0100
0010
0000
0001
0000
,
0011
0000
1100
0000
0011
0000
0001
1000
,
0001
0000
0100
0001
0010
0000
0100
0000
,
1100
0000
0100
0010
0001
0000
1000
0000
,
0102
0013
2100
3010
,
1001
0110
2002
3003
,
0101
0000
0000
0000
0001
0000
1000
0000
0100
0000
0000
0100
0000
0000
1000
0000
,
0010
0000
0000
0010
0000
0000
0100
0000
0001
0000
0000
0001
0000
0000
0100
0000
,
0001
0000
0000
0000
0100
0000
0010
0000
1000
0000
0000
1000
0000
0000
0001
0000
,
1000
0000
0000
1000
0000
0000
0001
0000
0100
0000
0010
0000
1000
0000
0100
0000
,
0010
0000
0000
0000
0100
0000
1000
0000
0001
0000
0000
0001
0000
0000
0100
0000
,
0010
0000
0000
0010
0000
0000
0100
0000
0001
0000
0000
1000
0000
0000
0100
0000
,
0010
0000
0000
0000
0100
0000
1000
0000
0001
0000
0000
1000
0000
0000
0010
0000
,
1000
0000
0000
1000
0000
0000
1000
0000
0001
0000
0010
0000
0100
0000
1000
0000
,
0020
0000
1030
0001
0100
0000
0001
1000
,
0100
0000
0010
0100
1000
0000
0100
1000
,
0010
0000
0100
0001
0010
0000
0100
0010
,
0001
1000
0001
1000
0001
1000
0010
0000
,
1000
0001
0100
0000
0001
0010
0100
0000
,
0010
0001
1000
0000
0100
1000
0010
0000
,
0100
0010
1000
0000
0001
0010
0100
0000
,
0010
0000
0000
0001
0000
0000
0100
0000
0010
0000
0000
0000
1001
0000
0000
0000
,
0110
0000
0000
0000
;

//---------------dance-single - ----------------
#NOTEDATA:;
#CHARTNAME:;
#STEPSTYPE:dance-single;
#DESCRIPTION:;
#CHARTSTYLE:;
#DIFFICULTY:Easy;
#METER:6;
#RADARVALUES:0.287424,0.364236,0.147429,0.078050,0.000000,232.000000,215.000000,17.000000,9.000000,0.000000,0.000000,0.000000,0.000000,0.000000,0.287424,0.364236,0.147429,0.078050,0.000000,232.000000,215.000000,17.000000,9.000000,0.000000,0.000000,0.000000,0.000000,0.000000;
#CREDIT:Pandemonium X;
#NOTES:
0000
0000
0000
0000
,
0000
0000
0000
0000
,
0000
0000
0000
0000
,
0000
0000
0000
0000
,
1001
0000
1000
0000
,
0001
1000
0001
0000
,
0110
0000
0010
0000
,
0200
0000
0000
0300
,
1001
0001
1000
0100
,
1000
0001
0100
0000
,
0010
1000
0010
0100
,
0002
0000
0000
0003
,
1001
0001
0010
0001
,
0100
0001
1000
0100
,
1000
0010
0100
0001
,
0010
0000
0100
0000
0010
0001
0010
0000
,
0001
1000
0100
1000
,
0010
0100
0010
1000
,
0001
0100
0001
0010
,
0200
0000
0000
0300
,
0010
0001
1000
0001
,
0100
0001
0100
0010
,
1000
0100
1000
0001
,
0100
0010
1000
0100
,
1000
0001
0010
0001
,
1000
0100
0010
0100
,
1000
0001
0100
0010
,
2000
0000
0000
3000
,
0001
1000
0001
0000
1000
0001
1000
0000
,
0001
1000
0001
1000
0001
1000
0001
0000
,
0100
0010
0100
0000
0010
0100
0010
0000
,
0100
0010
0100
0010
0100
0010
0100
0000
,
1000
0010
1000
0000
0010
1000
0010
0000
,
1000
0010
1000
0010
1000
0010
1000
0000
,
0001
0100
0001
0000
0100
0001
0100
0000
,
0020
0000
0000
0030
,
1001
0000
1000
0001
1000
0000
0001
0000
,
0010
0100
0100
0000
,
0010
0000
0001
0100
0001
0000
1000
0000
,
0100
0000
0010
0100
0010
0000
0100
0000
,
1100
0100
1000
0010
,
0110
0100
0001
0010
,
0011
0001
1001
1000
,
1001
0110
2002
3003
,
0110
0000
0010
1000
0010
0000
0000
0000
,
1000
0000
0100
0000
,
0110
0000
0010
0001
0010
0000
0000
0000
,
0001
0000
1000
0001
,
0110
0000
0010
1000
0100
0000
0000
0000
,
0010
0000
0001
0000
,
1001
0000
0001
1000
0010
0000
0100
0000
,
0002
0000
0000
0003
,
1000
0001
0010
0001
,
0100
0010
1000
0100
,
1000
0001
0100
0001
,
0010
0100
0010
0001
,
1000
0001
0100
0001
,
0010
0100
0010
0001
,
1000
0100
0010
0100
,
1000
0001
0200
0300
,
1001
0000
0000
0000
;

//---------------dance-single - ----------------
#NOTEDATA:;
#CHARTNAME:;
#STEPSTYPE:dance-single;
#DESCRIPTION:;
#CHARTSTYLE:;
#DIFFICULTY:Beginner;
#METER:2;
#RADARVALUES:0.110262,0.182118,0.095395,0.000000,0.000000,89.000000,78.000000,11.000000,0.000000,0.000000,0.000000,0.000000,0.000000,0.000000,0.110262,0.182118,0.095395,0.000000,0.000000,89.000000,78.000000,11.000000,0.000000,0.000000,0.000000,0.000000,0.000000,0.000000;
#CREDIT:;
#NOTES:
0000
0000
0000
0000
,
0000
0000
0000
0000
,
0000
0000
0000
0000
,
0000
0000
0000
0000
,
0010
0000
0000
0000
,
1000
0000
0000
0000
,
0010
0000
0000
0000
,
0100
0000
0000
0000
,
1001
0000
0000
0000
,
0001
0000
0000
0000
,
1000
0000
0000
0000
,
0010
0000
0000
0000
,
1001
0000
0000
0000
,
1000
0000
1000
0000
,
0001
0000
0000
0000
,
0100
0000
0100
0000
,
0010
0000
0000
0000
,
1000
0000
1000
0000
,
0100
0000
0000
0000
,
0010
0000
0000
0000
,
1001
0001
0000
0000
,
0100
0000
0100
0000
,
0010
0000
0000
0000
,
1000
0000
1000
0000
,
0001
0000
0000
0000
,
0100
0000
0100
0000
,
0010
0000
0000
0000
,
1000
0000
0001
0000
,
0110
0000
0000
0000
,
0010
0000
0000
0000
,
1000
0000
0000
0000
,
0100
0000
0000
0000
,
1001
0000
0000
0000
,
0001
0000
0000
0000
,
1000
0000
0000
0000
,
0010
0000
0000
0000
,
0110
0000
0000
0000
,
0010
0000
0010
0000
,
1000
0000
0000
0000
,
0001
0000
0001
0000
,
1000
0000
0000
0000
,
0001
0000
0000
0000
,
0100
0000
0010
0000
,
1000
0001
1000
0000
,
0110
0000
0100
0000
,
0100
0000
0100
0000
,
1001
0000
0010
0000
,
0010
0000
0010
0000
,
1001
0000
1000
0000
,
1000
0000
1000
0000
,
1001
0000
0001
0000
,
0001
0000
0000
0000
,
0100
0000
0000
0000
,
0010
0000
0000
0000
,
1000
0000
0000
0000
,
0100
0000
1000
0000
,
0001
0000
0000
0000
,
0100
0000
0000
0000
,
0010
0000
0000
0000
,
1000
0000
0000
0000
,
1001
0000
0000
0000
;
