#VERSION:0.83;
#TITLE:Put 'Em High (JJ's Radio Edit);
#SUBTITLE:;
#ARTIST:StoneBridge feat. Therese;
#TITLETRANSLIT:;
#SUBTITLETRANSLIT:;
#ARTISTTRANSLIT:;
#GENRE:;
#ORIGIN:;
#CREDIT:;
#BANNER:[Week 1] - Put 'Em High (JJ's Radio Edit).png;
#BACKGROUND:[Week 1] - Put 'Em High (JJ's Radio Edit)-bg.png;
#PREVIEWVID:;
#JACKET:[Week 1] - Put 'Em High (JJ's Radio Edit)-jacket.png;
#CDIMAGE:;
#DISCIMAGE:;
#LYRICSPATH:;
#CDTITLE:;
#MUSIC:[Week 1] - Put 'Em High (JJ's Radio Edit).ogg;
#OFFSET:0.000000;
#SAMPLESTART:54.375000;
#SAMPLELENGTH:14.994000;
#SELECTABLE:YES;
#DISPLAYBPM:128.000000;
#BPMS:0.000=128.000;
#STOPS:;
#DELAYS:;
#WARPS:;
#TIMESIGNATURES:0.000=4=4;
#TICKCOUNTS:0.000=4;
#COMBOS:0.000=1;
#SPEEDS:0.000=1.000=0.000=0;
#SCROLLS:0.000=1.000;
#FAKES:;
#LABELS:0.000=Song Start;
#BGCHANGES:0.000=[Week 1] - Put 'Em High (JJ's Radio Edit).avi=1.000=0=0=0=StretchNoLoop====,
99999=-nosongbg-=1.000=0=0=0 // don't automatically add -songbackground-
;
#KEYSOUNDS:;
#ATTACKS:
;

//---------------dance-single - ----------------
#NOTEDATA:;
#CHARTNAME:;
#STEPSTYPE:dance-single;
#DESCRIPTION:;
#CHARTSTYLE:;
#DIFFICULTY:Hard;
#METER:12;
#RADARVALUES:0.510185,0.572686,0.337949,0.091338,0.132439,391.000000,354.000000,37.000000,10.000000,0.000000,0.000000,0.000000,0.000000,0.000000,0.510185,0.572686,0.337949,0.091338,0.132439,391.000000,354.000000,37.000000,10.000000,0.000000,0.000000,0.000000,0.000000,0.000000;
#CREDIT:;
#DISPLAYBPM:128.000000;
#NOTES:
0000
0000
0000
0000
,
0000
0000
0000
0000
,
0000
0000
0000
0000
0000
0000
0000
0001
,
1001
0000
0000
0001
1001
0000
0000
0001
,
1000
0001
0001
0001
0001
0001
0001
0100
,
1010
0000
0000
0010
1000
0000
0100
0000
1000
0000
0000
0010
1000
0000
0100
0000
,
1000
0000
0000
0010
1000
0000
0100
0000
1000
0000
0000
0010
1000
0000
0100
0000
,
0101
0000
0100
0011
0000
0010
0011
0000
,
0101
0000
0100
0011
0000
0010
0011
0000
,
0001
0000
0000
0100
0001
0000
0010
0000
0001
0000
0000
0100
0001
0000
0010
0000
,
0001
0000
0000
0100
0001
0000
0010
0000
0001
0000
0000
0100
0001
0000
0010
0000
,
1100
0000
0010
0110
0000
0100
0110
0000
,
2000
0001
0010
3010
,
0100
0000
0000
0001
0000
0000
0010
0000
0002
0000
0000
0000
1003
0000
0000
0000
,
0001
0000
0000
0100
0000
0000
0010
0000
2000
0000
0000
0000
3100
0000
0000
0000
,
1000
0000
0001
0010
0000
0000
0010
0000
,
0001
0000
1000
0010
0000
0000
0010
0000
,
0010
0000
0000
1000
0000
0000
0100
0000
2000
0000
0000
0000
3001
0000
0000
0000
,
1000
0000
0000
0010
0000
0000
0100
0000
0002
0000
0000
0000
0013
0000
0000
0000
,
0001
0000
1000
0010
0000
1000
0010
0000
,
1000
0000
0001
0010
0000
0001
0010
0000
,
0100
1000
0010
0000
0100
1000
0010
0000
,
0100
0001
0010
0000
0100
0001
0010
0000
,
0011
0000
0001
0010
0000
0000
0011
0000
,
1100
0000
1000
0010
0000
0000
0110
0000
,
0100
0010
1000
0100
1000
1000
0001
0000
,
0001
0100
0010
1000
0100
0010
0001
0000
,
0101
0000
0100
0110
0000
0010
0110
0000
,
1000
1000
0001
0001
0010
0010
0100
0100
,
0010
0001
0010
1000
0010
0001
0010
1000
,
0100
0001
0100
1000
0100
0001
0100
1000
,
0100
0001
0001
0100
0001
0001
0011
0000
,
1000
0100
1000
0010
0100
0100
0110
0000
,
0100
1000
0100
0001
0100
1000
0100
0001
,
0010
1000
0010
0001
0010
1000
0010
0001
,
1000
0010
1000
0010
1000
1000
1100
0000
,
0001
0010
0001
0100
0010
0010
0110
0000
,
0100
0000
0001
0000
0010
0000
0001
0010
0001
0000
0010
0000
0100
0000
1000
0100
,
1000
0000
0010
0000
0100
0000
0001
0100
0010
0000
0100
0000
0001
0000
0010
0001
,
0100
0001
0010
0101
0000
0010
0101
0000
,
0010
1000
0100
1010
0000
0100
1010
0000
,
0010
0000
1000
0000
0100
0000
1000
0100
1000
0000
0100
0000
0010
0000
0001
0010
,
0001
0000
0100
0000
0010
0000
1000
0010
0100
0000
0010
0000
1000
0000
0100
1000
,
0010
1000
0100
1010
0000
0100
1010
0000
,
0101
0001
0010
0101
0000
0010
0101
0000
,
0010
0000
1000
0000
0100
0000
1000
0010
0100
0000
0001
0000
0010
0000
0001
0100
,
0001
0000
0100
0000
0010
0000
0100
0010
1000
0000
0100
0000
1000
0000
0001
0000
,
0101
0000
0100
1000
0000
0100
0001
0000
,
0011
0000
0010
1000
0000
0001
0100
0100
,
0001
0000
0010
0001
0100
0000
0010
0000
1000
0000
0100
1000
0010
0000
0100
0000
,
0001
0000
0010
0100
1000
0000
0001
0000
1000
0000
0001
0100
0010
0000
0100
0000
,
0020
0000
1030
1010
0000
1000
1010
0000
,
0100
0001
0010
0001
1000
0010
0100
0001
,
0020
0000
0000
0000
0000
0000
0100
0000
0100
0000
0000
1000
0000
0000
0031
0000
,
0000
0000
0000
0000
0000
0000
0200
0000
0010
0000
0000
0001
0000
0000
1300
0000
,
0002
0000
0000
0010
0000
0000
0013
0001
,
2000
0000
0000
0010
0000
0000
3010
0100
,
1001
0000
0000
0000
;

//---------------dance-double - ----------------
#NOTEDATA:;
#CHARTNAME:;
#STEPSTYPE:dance-double;
#DESCRIPTION:;
#CHARTSTYLE:;
#DIFFICULTY:Hard;
#METER:12;
#RADARVALUES:0.464517,0.546655,0.456688,0.082204,0.073070,356.000000,306.000000,50.000000,9.000000,0.000000,0.000000,0.000000,0.000000,0.000000,0.464517,0.546655,0.456688,0.082204,0.073070,356.000000,306.000000,50.000000,9.000000,0.000000,0.000000,0.000000,0.000000,0.000000;
#CREDIT:;
#DISPLAYBPM:128.000000;
#NOTES:
00000000
00000000
00000000
00000000
,
00000000
00000000
00000000
00000000
,
00000000
00000000
00000000
00000000
00000000
00000000
00000000
00010000
,
00011000
00000000
00000000
00001000
00011000
00000000
00000000
00010000
,
00000000
00001000
00001000
00001000
00001000
00001000
00001000
00000010
,
00000100
00000000
00000100
00000010
00000001
00000000
00000100
00000010
,
00001000
00000000
00001000
00000100
00010000
00000000
00001000
01000000
,
00100000
00000000
00100000
10100000
00000000
01000000
10100000
00000000
,
01000000
00000000
00010000
00110000
00000000
01000000
00110000
00000000
,
00100000
00000000
00100000
01000000
10000000
00000000
00100000
01000000
,
00010000
00000000
00010000
00100000
00001000
00000000
00010000
00000010
,
00000100
00000000
00000100
00000011
00000000
00000001
00000011
00000000
,
00000010
00000000
00000001
00001010
00000000
00000100
00001010
00000000
,
00000010
00000000
00000100
00010000
00100000
00000000
00001000
00100000
,
01000000
00000000
01000000
00100000
00010000
00000000
10000000
01000000
,
00110000
00000000
00000000
00011000
00000000
00000000
00011000
00000000
,
00001010
00000000
00000000
00011000
00000000
00000000
00011000
00000000
,
01000000
00000000
00100000
00010000
00001000
00000000
00010000
00000100
,
00000010
00000000
00000010
00000100
00000001
00000000
00000001
00000100
,
00001100
00000000
00000000
00011000
00000000
00000000
00011000
00000000
,
01010000
00000000
00000000
00011000
00000000
00000000
00011000
00000000
,
00001000
00010000
00000100
00000010
00000200
00000000
00000301
00000000
,
00000100
00001000
00010000
00100000
02000000
00000000
13000000
00000000
,
02000000
00000000
00000000
00100000
00000000
00000000
03100000
00000000
,
02000000
00000000
00000000
00001000
00000000
00000000
03001000
00000000
,
00010000
00000000
00000010
00000001
00002000
00000000
00003001
00000000
,
00001000
00010000
00100000
00010000
00002000
00000000
00003100
00000000
,
00000020
00000000
00000000
00000001
00000000
00000000
00000031
00000000
,
00000100
00000010
00000100
00001000
00100000
00010000
01000000
00001000
,
00011000
00000000
00001000
00001000
00100000
00000000
00010000
00010000
,
10000000
00000000
00100000
00100000
01000000
00000000
00001000
00001000
,
00110000
00000000
00010000
00001010
00000000
00000000
00001010
00000000
,
00010000
00000000
00000000
00001010
00000000
00000000
00001010
00000000
,
00011000
00000000
00010000
00010000
00000100
00000000
00001000
00001000
,
00000001
00000000
00000100
00000100
00000010
00000000
00010000
00010000
,
00001010
00000000
00000010
00110000
00000000
00000000
00110000
00000000
,
00001000
00000000
00000000
00110000
00000000
00000000
00110000
00000000
,
00010000
00000000
00001000
00000000
00000010
00000000
00000100
00000001
00000100
00000000
00000001
00000000
00000010
00000000
00000100
00001000
,
00000100
00000000
00001000
00000000
00000010
00000000
00010000
00001000
00010000
00000000
01000000
00000000
00100000
00000000
00010000
10000000
,
00100000
00000000
01000000
00110000
00000000
00000000
00110000
00000000
,
01000000
00100000
10000000
00110000
00000000
00010000
00110000
00000000
,
00001000
00000000
01000000
00000000
00100000
00000000
00100000
10000000
00100000
00000000
10000000
00000000
01000000
00000000
00100000
00010000
,
00100000
00000000
00010000
00000000
01000000
00000000
00001000
00010000
00001000
00000000
00000010
00000000
00000100
00000000
00001000
00000001
,
00000100
00000000
00000010
00001010
00000000
00000000
00001010
00000000
,
00000010
00000100
00000001
00000011
00000000
00001000
00000011
00000000
,
00000001
00000100
00000010
00001000
00000100
00001000
00001000
00000000
,
00000100
00010000
00100000
00010000
00100000
10000000
01000000
00000000
,
10000000
01000000
00100000
00110000
00000000
01000000
00110000
00000000
,
10000000
01000000
00100000
00110000
00000000
01000000
00110000
00000000
,
00010000
00000000
00010000
00100000
01000000
00000000
00000000
00000000
01000000
00000000
00100000
00010000
01000000
00000000
00000000
00000000
,
00001000
00000000
00010000
00001000
00000010
00000000
00000000
00000000
00000001
00000000
00000100
00000010
00001000
00000000
00000100
00000000
,
00000001
00000000
00000100
00000010
00000001
00000000
00001010
00000000
00000000
00000000
00000010
00000000
00001010
00000000
00000000
00000000
,
00010000
00000000
00100000
10000000
01000000
00000000
00110000
00000000
00000000
00000000
00010000
00000000
00100000
00000000
00100000
00000000
,
00002000
00000000
00000000
00000000
00000000
00000000
00100000
00000000
00010000
00000000
00000000
01000000
00000000
00000000
00023000
00000000
,
00000000
00000000
00000000
00000000
00000000
00000000
00000010
00000000
00000100
00000000
00000000
00000010
00000000
00000000
00031000
00000000
,
00010000
00000000
00000000
00000010
00000000
00000000
00000010
00010000
,
00001000
00000000
00000000
00100000
00000000
00000000
00100000
00001000
,
00011000
00000000
00000000
00000000
;

//---------------dance-single - ----------------
#NOTEDATA:;
#CHARTNAME:;
#STEPSTYPE:dance-single;
#DESCRIPTION:;
#CHARTSTYLE:;
#DIFFICULTY:Medium;
#METER:10;
#RADARVALUES:0.353607,0.390468,0.328815,0.255745,0.031968,271.000000,235.000000,36.000000,28.000000,0.000000,0.000000,0.000000,0.000000,0.000000,0.353607,0.390468,0.328815,0.255745,0.031968,271.000000,235.000000,36.000000,28.000000,0.000000,0.000000,0.000000,0.000000,0.000000;
#CREDIT:;
#DISPLAYBPM:128.000000;
#NOTES:
0000
0000
0000
0000
,
0000
0000
0000
0000
,
0000
0000
0000
0000
0000
0000
0000
1000
,
1001
0000
0000
1000
1001
0000
0000
1000
,
0000
0001
0001
0001
0001
0001
0001
0100
,
0020
0000
1030
0010
0200
0000
0310
0000
,
0100
0000
0001
0010
0200
0000
0310
0000
,
0002
0000
0000
0010
0000
0000
0013
0000
,
2000
0000
0000
0010
0000
0000
3010
0000
,
0100
0010
1000
0100
2000
0000
3001
0000
,
0001
0100
0010
0100
0002
0000
0013
0000
,
0200
0000
0000
0010
0000
0000
0310
0000
,
0002
0000
0000
0010
0000
0000
0013
0000
,
0001
0000
0000
1000
0000
0000
0000
0000
0020
0000
0000
0000
0030
0000
0000
0000
,
0100
0000
0000
0001
0000
0000
0000
0000
0020
0000
0000
0000
0030
0000
0000
0000
,
0001
0000
0000
1000
0000
0000
0200
0000
0000
0000
0000
0000
0310
0000
0000
0000
,
0200
0000
0000
0010
0000
0000
0310
0000
,
0100
0000
0000
0010
0000
0000
0000
0000
0002
0000
0000
0000
0003
0000
0000
0000
,
1000
0000
0000
0001
0000
0000
0000
0000
0200
0000
0000
0000
0300
0000
0000
0000
,
0010
1000
0011
0011
,
0001
0100
1010
1010
,
0010
0000
0100
0001
0020
0000
0031
0000
,
1000
0000
0100
0010
0002
0000
0103
0000
,
0020
0000
0000
1000
0000
0000
1030
0000
,
2000
0000
0000
0001
0000
0000
3001
0000
,
0001
0010
0001
0000
1000
0000
1000
0000
,
1000
0010
0100
0000
0010
0000
0010
0000
,
2000
0000
0000
0100
0000
0000
3100
0000
,
0010
0001
0010
0001
0100
1000
0100
0001
,
0010
0001
0100
0001
0010
0000
0010
0000
,
0010
0100
1000
0010
0100
0000
0100
0000
,
1001
0000
0000
1010
0000
0000
1010
0000
,
1001
0000
0000
1010
0000
0000
1010
0000
,
0010
1000
0100
1000
0001
0000
0001
0000
,
0100
0010
1000
0100
1000
0000
1000
0000
,
0101
0000
0000
1010
0000
0000
1010
0000
,
1100
0000
0000
0011
0000
0000
0011
0000
,
0100
1000
0010
1000
0100
0000
0100
0000
,
0100
0010
0001
0100
0010
0000
0010
0000
,
1001
0000
0000
0011
0000
0000
0011
0000
,
1001
0000
0000
0011
0000
0000
0011
0000
,
0100
0001
0010
0001
1000
0000
1000
0000
,
0010
0100
0001
0010
0001
0000
0001
0000
,
1010
0000
0000
0011
0000
0000
0011
0000
,
0101
0000
0000
1010
0000
0000
1010
0000
,
0010
1000
0100
0010
0002
0000
1003
0000
,
1000
0010
0100
0001
2000
0000
3001
0000
,
0101
0000
0000
0011
0000
0000
0011
0000
,
0101
0000
0000
0011
0000
0000
0010
0001
,
0010
0000
0010
0100
1000
0000
0001
0000
,
1000
0000
0010
0100
0001
0000
0001
0000
,
2000
0000
0000
0010
0000
0000
3010
0000
,
0200
0000
0000
0010
0000
0000
0310
0010
,
2000
0000
0000
0000
0000
0000
0000
0000
0010
0000
0000
0100
0000
0000
3002
0000
,
0000
0000
0000
0000
0000
0000
0010
0000
1000
0000
0000
0010
0000
0000
0103
0000
,
0200
0000
0000
0010
0000
0000
0310
1000
,
0200
0000
0000
1000
0000
0300
1000
0001
,
1001
0000
0000
0000
;

//---------------dance-single - ----------------
#NOTEDATA:;
#CHARTNAME:;
#STEPSTYPE:dance-single;
#DESCRIPTION:;
#CHARTSTYLE:;
#DIFFICULTY:Easy;
#METER:5;
#RADARVALUES:0.249221,0.286343,0.109605,0.301414,0.000000,191.000000,179.000000,12.000000,33.000000,0.000000,0.000000,0.000000,0.000000,0.000000,0.249221,0.286343,0.109605,0.301414,0.000000,191.000000,179.000000,12.000000,33.000000,0.000000,0.000000,0.000000,0.000000,0.000000;
#CREDIT:;
#DISPLAYBPM:128.000000;
#NOTES:
0000
0000
0000
0000
,
0000
0000
0000
0000
,
0000
0000
0000
0000
,
1000
0000
0001
0000
,
1000
0001
1000
0001
,
0100
0010
1000
1000
,
0100
0010
0001
0001
,
2000
0000
0000
3010
0000
0000
0000
0000
,
2000
0000
0000
3001
0000
0000
0000
0000
,
0001
0010
0100
0100
,
0010
1000
0010
0100
,
0002
0000
0000
0013
0000
0000
0000
0000
,
0002
0000
0000
1003
0000
0000
0000
0000
,
1000
0010
0200
0310
,
0100
0001
0020
0031
,
2000
0000
0000
3001
0000
0000
0000
0000
,
2000
0000
0000
3001
0000
0000
0000
0000
,
0100
0010
2000
3100
,
1000
0010
0200
0301
,
0200
0000
0000
0310
0000
0000
0000
0000
,
0200
0000
0000
0310
0000
0000
0000
0000
,
0010
1000
0100
0100
,
1000
0001
0100
0100
,
0002
0000
0000
0013
0000
0000
0000
0000
,
0002
0000
0000
0013
0000
0000
0000
0000
,
0001
1000
0010
0010
,
1000
0100
1000
1000
,
0002
0000
0000
0103
0000
0000
0000
0000
,
0100
0100
0100
0000
0010
0010
0010
0000
,
1000
0100
1000
1000
,
0010
0100
0001
0010
,
0220
0030
0010
0310
,
2002
3000
1000
1003
,
1000
0010
0100
0100
,
0001
0010
0100
0100
,
2200
0300
0100
3100
,
0202
0300
0100
0103
,
0001
0100
1000
0100
,
0001
0010
1000
0010
,
0022
0030
0010
0013
,
2020
0030
0010
3010
,
0010
0100
0001
0001
,
0010
0100
1000
0001
,
2200
3000
1000
1300
,
0202
0003
0001
0301
,
0001
0100
0001
0001
,
1000
0100
1000
1000
,
0020
0100
0100
0130
,
0200
0010
0010
0310
,
0010
1000
0100
1000
,
0001
0001
1000
1000
,
1001
0000
1010
0000
,
0100
0001
0010
0001
,
1100
0000
1000
0000
,
0001
0000
1000
0000
,
0100
0000
0000
0010
0000
0000
0010
0000
,
0001
0000
0000
0010
0000
0000
0010
0000
,
1001
0000
0000
0000
;

//---------------dance-single - ----------------
#NOTEDATA:;
#CHARTNAME:;
#STEPSTYPE:dance-single;
#DESCRIPTION:;
#CHARTSTYLE:;
#DIFFICULTY:Beginner;
#METER:3;
#RADARVALUES:0.165712,0.182218,0.082204,0.036535,0.000000,127.000000,118.000000,9.000000,4.000000,0.000000,0.000000,0.000000,0.000000,0.000000,0.165712,0.182218,0.082204,0.036535,0.000000,127.000000,118.000000,9.000000,4.000000,0.000000,0.000000,0.000000,0.000000,0.000000;
#CREDIT:;
#DISPLAYBPM:128.000000;
#NOTES:
0000
0000
0000
0000
,
0000
0000
0000
0000
,
0000
0000
0000
0000
,
1000
0000
0001
0000
,
0000
1000
1000
1000
,
1000
0000
0001
0000
,
1000
0000
0001
0000
,
1000
0000
0010
0010
,
1000
0000
0010
0010
,
0100
0000
0001
0000
,
0010
0000
0001
0000
,
1000
0000
0010
0010
,
1000
0000
0001
0001
,
0010
0000
0001
0000
,
1000
0000
0010
0000
,
0100
0000
0001
0001
,
0100
0000
0001
0001
,
0001
0000
0010
0000
,
0100
0000
1000
0000
,
0010
0000
1000
1000
,
0010
0000
1000
1000
,
0010
0000
1000
0000
,
0100
0000
1000
0000
,
0001
0001
0001
0000
,
1000
1000
1000
0000
,
0010
0000
0010
0000
,
0100
0000
0100
0000
,
0001
0000
0010
0000
,
0100
0100
0100
0100
,
0100
0000
1000
0000
,
0010
0000
1000
0000
,
0001
0000
1010
0000
,
0000
0000
0101
0000
,
0001
0000
0010
0000
,
0100
0000
1000
0000
,
0001
0000
0011
0000
,
0000
0000
1100
0000
,
0010
0000
0100
0000
,
0001
0000
0010
0000
,
1000
0000
1100
0000
,
0000
0000
1010
0000
,
0100
0000
0001
0000
,
0010
0000
0001
0000
,
0100
0000
0101
0000
,
0000
0000
1010
0000
,
0010
0000
1000
0000
,
0100
0000
1000
0000
,
0001
0001
0001
0000
,
1000
1000
1000
0000
,
0100
0000
1000
0000
,
0010
0010
0010
0000
,
0100
0000
0010
0000
,
0100
0100
0100
0000
,
0002
0000
0000
0003
,
2000
0000
0000
3000
,
0200
0000
0000
0300
,
0020
0000
0000
0030
,
1001
0000
0000
0000
;

//---------------dance-double - ----------------
#NOTEDATA:;
#CHARTNAME:;
#STEPSTYPE:dance-double;
#DESCRIPTION:;
#CHARTSTYLE:;
#DIFFICULTY:Medium;
#METER:9;
#RADARVALUES:0.357521,0.390468,0.429286,0.082204,0.022834,274.000000,227.000000,47.000000,9.000000,0.000000,0.000000,0.000000,0.000000,0.000000,0.357521,0.390468,0.429286,0.082204,0.022834,274.000000,227.000000,47.000000,9.000000,0.000000,0.000000,0.000000,0.000000,0.000000;
#CREDIT:;
#DISPLAYBPM:128.000000;
#NOTES:
00000000
00000000
00000000
00000000
,
00000000
00000000
00000000
00000000
,
00000000
00000000
00000000
00000000
00000000
00000000
00000000
00010000
,
00011000
00000000
00011000
00000000
,
00000000
00001000
00010000
00001000
00010000
00001000
00010000
00001000
,
00000100
00000000
00000000
00000001
00000010
00000000
00000000
00000001
,
00000100
00000000
00000000
00000001
00000010
00000000
00000000
00000001
,
00001000
00000000
00000000
00001010
00000000
00000000
00001010
00000000
,
00011000
00000000
00000000
00110000
00000000
00000000
00110000
00000000
,
01100000
00000000
00000000
00100000
10000000
00000000
00000000
10000000
,
01000000
00000000
00000000
10000000
00010000
00000000
00000000
01000000
,
00010000
00000000
00000000
00110000
00000000
00000000
00110000
00000000
,
00001010
00000000
00000000
00000011
00000000
00000000
00000011
00000000
,
00000001
00000000
00000000
00001000
00000000
00000000
00000000
00000000
00000020
00000000
00000000
00000000
00000130
00000000
00000000
00000000
,
00000010
00000000
00000000
00001000
00000000
00000000
00000000
00000000
00020000
00000000
00000000
00000000
00031000
00000000
00000000
00000000
,
00000010
00000000
00000000
00010000
00000000
00000000
00001000
00000000
00000000
00000000
00000000
00000000
00001000
00000000
00000000
00000000
,
00100000
00000000
00000000
00010000
00000000
00000000
00010000
00000000
,
10000000
00000000
00000000
00010000
00000000
00000000
00000000
00000000
02000000
00000000
00000000
00000000
03100000
00000000
00000000
00000000
,
01000000
00000000
00000000
00010000
00000000
00000000
00000000
00000000
00002000
00000000
00000000
00000000
00013000
00000000
00000000
00000000
,
01000000
00000000
00001000
00010000
00000000
00000000
00010000
00000000
,
00000100
00000000
00000000
00001000
00000000
00000000
00001000
00000000
,
00000010
00000100
00000001
00000000
00000010
00000000
00000001
00000000
,
00000010
00000100
00001000
00000000
00010000
00000000
00000100
00000000
,
00000010
00000000
00000000
00001010
00000000
00000000
00001010
00000000
,
00010000
00000000
00000000
00010100
00000000
00000000
00010100
00000000
,
00001000
01000000
00010000
00000000
00010000
01000000
00100000
00000000
,
00100000
10000000
01000000
00000000
01000000
10000000
00010000
00000000
,
02000000
00000000
00000000
00001000
00000000
00000000
03010000
00000000
,
00010000
00010000
01000000
01000000
00000100
00000100
00000010
00000010
,
00000001
00000100
00000010
00000000
00000010
00000100
00001000
00000000
,
00010000
00100000
01000000
00000000
10000000
01000000
00010000
00000000
,
00001100
00000000
00000000
00010100
00000000
00000000
00010100
00000000
,
00011000
00000000
00000000
01001000
00000000
00000000
01001000
00000000
,
00100000
00001000
00010000
00000000
00010000
00000010
00000100
00000000
,
00000001
00000010
00000100
00000000
00000100
00000010
00010000
00000000
,
00000011
00000000
00000000
00010010
00000000
00000000
00010010
00000000
,
00011000
00000000
00000000
00101000
00000000
00000000
00101000
00000000
,
00010000
10000000
00100000
00000000
01000000
00100000
00010000
00000000
,
00001000
00010000
00000010
00000000
00001000
00000001
00000100
00000000
,
00110000
00000000
00000000
00101000
00000000
00000000
00101000
00000000
,
00011000
00000000
00000000
00010010
00000000
00000000
00010010
00000000
,
00000100
00010000
00001000
00000000
00001000
01000000
00100000
00000000
,
10000000
01000000
00100000
00000000
00100000
01000000
00001000
00000000
,
01010000
00000000
00000000
01001000
00000000
00000000
01001000
00000000
,
00011000
00000000
00000000
00010100
00000000
00000000
00010100
00000000
,
00001000
00000100
00010000
00000000
00010000
00000010
00000100
00000000
,
00000001
00000010
00000100
00000000
00000100
00010000
00001000
00001000
,
00020000
00000000
00000000
00000010
00000000
00000000
00030010
00000000
,
00020000
00000000
00000000
00100000
00000000
00000000
00130000
00010000
,
00001000
00000000
00010000
00000000
00100000
01000000
00100000
00000000
,
10000000
00000000
01000000
00000000
00010000
01000000
00100000
00000000
,
01010000
00000000
00000000
00010100
00000000
00000000
00010100
00000000
,
00001010
00000000
00000000
00101000
00000000
00000000
00100000
00001000
,
00020000
00000000
00000000
00000000
00000100
00030000
00000000
00010000
,
00000020
00000000
00000000
00000000
00000100
00000000
00000030
00000010
,
00001000
00000000
00000000
00100000
00000000
00000000
00000000
00000000
,
01000000
00000000
00000000
00100000
00000000
00000000
00000000
00000000
,
00101000
00000000
00000000
00000000
;

//---------------dance-double - ----------------
#NOTEDATA:;
#CHARTNAME:;
#STEPSTYPE:dance-double;
#DESCRIPTION:;
#CHARTSTYLE:;
#DIFFICULTY:Easy;
#METER:5;
#RADARVALUES:0.250526,0.260312,0.137006,0.045669,0.000000,192.000000,177.000000,15.000000,5.000000,0.000000,0.000000,0.000000,0.000000,0.000000,0.250526,0.260312,0.137006,0.045669,0.000000,192.000000,177.000000,15.000000,5.000000,0.000000,0.000000,0.000000,0.000000,0.000000;
#CREDIT:;
#DISPLAYBPM:128.000000;
#NOTES:
00000000
00000000
00000000
00000000
,
00000000
00000000
00000000
00000000
,
00000000
00000000
00000000
00000000
,
00011000
00000000
00101000
00000000
,
00001000
00010000
00001000
00010000
,
00001000
00000100
00000010
00000001
,
00000010
00000100
00001000
00010000
,
00100000
01000000
01000000
00000000
,
00100000
01000000
01000000
00000000
,
00010000
00100000
01000000
10000000
,
01000000
00100000
00010000
00001000
,
00000100
00000010
00000010
00000000
,
00000100
00000010
00000010
00000000
,
00000001
00001000
00000010
00000010
,
00000100
00001000
00010000
00010000
,
00001000
00100000
00100000
00000000
,
00010000
10000000
10000000
00000000
,
10000000
00010000
01000000
01000000
,
00100000
00010000
00001000
00001000
,
00010000
00000100
00000100
00000000
,
00001000
00000010
00000010
00000000
,
00000010
00000100
00000001
00000000
,
00000010
00000100
00010000
00000000
,
00001000
00100000
00010000
00000000
,
00010000
01000000
00100000
00000000
,
00100000
10000000
01000000
01000000
,
10000000
00100000
00001000
00000100
,
00000020
00000030
00000020
00000030
,
00002000
00010000
00000010
00013000
,
00001000
01000000
00100000
01000000
,
00010000
00001000
00000001
00000100
,
00011000
00000000
00000000
00000011
00000000
00000000
00000000
00000000
,
00011000
00000000
00000000
10100000
00000000
00000000
00000000
00000000
,
01000000
00010000
00001000
00010000
,
01000000
00100000
01000000
00001000
,
00011000
00000000
00000000
11000000
00000000
00000000
00000000
00000000
,
00011000
00000000
00000000
00000101
00000000
00000000
00000000
00000000
,
00000010
00000100
00000001
00000001
,
00000010
00000100
00001000
00001000
,
00000010
00000010
00010000
00010000
,
00000010
00000010
00001000
00001000
,
00010000
10000000
00010000
00010000
,
00100000
10000000
00100000
00010000
,
01000000
01000000
00001000
00001000
,
01000000
01000000
00010000
00010000
,
01000000
00010000
00001000
00010000
,
01000000
01000000
00010000
00001000
,
00000100
00000000
00000000
00000110
00000000
00000000
00000000
00000000
,
01000000
00000000
00000000
01100000
00000000
00000000
00000000
00000000
,
00010000
00001000
00000100
00000010
,
00000001
00000010
00000100
00001000
,
00010000
00000000
00001000
00000000
,
00000100
00000000
00100000
00000000
,
02000000
00000000
03100000
00000000
,
00020000
00000000
00031000
00000000
,
00000010
00000000
00000000
00000011
00000000
00000000
00000000
00000000
,
00000001
00000000
00000000
00000101
00000000
00000000
00000000
00000000
,
00010100
00000000
00000000
00000000
;

//---------------dance-double - ----------------
#NOTEDATA:;
#CHARTNAME:;
#STEPSTYPE:dance-double;
#DESCRIPTION:;
#CHARTSTYLE:;
#DIFFICULTY:Beginner;
#METER:2;
#RADARVALUES:0.139616,0.208250,0.018268,0.073070,0.000000,107.000000,105.000000,2.000000,8.000000,0.000000,0.000000,0.000000,0.000000,0.000000,0.139616,0.208250,0.018268,0.073070,0.000000,107.000000,105.000000,2.000000,8.000000,0.000000,0.000000,0.000000,0.000000,0.000000;
#CREDIT:;
#DISPLAYBPM:128.000000;
#NOTES:
// measure 0
00000000
00000000
00000000
00000000
,  // measure 1
00000000
00000000
00000000
00000000
,  // measure 2
00000000
00000000
00000000
00000000
,  // measure 3
01000000
00000000
00000000
00000000
,  // measure 4
01000000
00000000
01000000
00000000
,  // measure 5
01000000
00000000
00010000
00000000
,  // measure 6
01000000
00000000
00010000
00000000
,  // measure 7
00100000
00000000
00000000
00000000
,  // measure 8
00100000
00000000
00000000
00000000
,  // measure 9
00001000
00000000
00000100
00000000
,  // measure 10
00001000
00000000
00000100
00000000
,  // measure 11
00001000
00000000
00000010
00000000
,  // measure 12
00001000
00000000
00000010
00000000
,  // measure 13
00000100
00000000
00001000
00000000
,  // measure 14
00000100
00000000
00010000
00000000
,  // measure 15
00000100
00000000
00000001
00000000
,  // measure 16
00000010
00000000
00000001
00000000
,  // measure 17
00010000
00000000
00100000
00000000
,  // measure 18
01000000
00000000
10000000
00000000
,  // measure 19
00010000
00000000
00010000
00000000
,  // measure 20
10000000
00000000
10000000
00000000
,  // measure 21
01000000
00000000
00100000
00000000
,  // measure 22
00001000
00001000
00001000
00000000
,  // measure 23
00010000
00010000
00010000
00000000
,  // measure 24
00022000
00000000
00000000
00033000
,  // measure 25
00000100
00000000
00000001
00000000
,  // measure 26
00000010
00000000
00000100
00000000
,  // measure 27
00002000
00000000
00000000
00003000
,  // measure 28
00000020
00000000
00000000
00000030
,  // measure 29
00010000
00010000
00010000
00000000
,  // measure 30
00001000
00001000
00001000
00000000
,  // measure 31
00100000
00000000
00000000
00000000
,  // measure 32
00000010
00000000
00000000
00000000
,  // measure 33
00100000
00000000
00010000
00000000
,  // measure 34
10000000
00000000
00010000
00000000
,  // measure 35
01000000
00000000
00010000
00000000
,  // measure 36
00000100
00000000
00000001
00000000
,  // measure 37
00000010
00000010
00000010
00000000
,  // measure 38
00010000
00010000
00010000
00000000
,  // measure 39
00100000
00000000
00000000
00000000
,  // measure 40
01000000
00000000
00000000
00000000
,  // measure 41
00100000
00000000
00001000
00000000
,  // measure 42
00000100
00000000
00000010
00000000
,  // measure 43
00000100
00000000
00000001
00000000
,  // measure 44
00001000
00000000
00010000
00000000
,  // measure 45
00001000
00001000
00001000
00000000
,  // measure 46
00100000
00100000
00100000
00000000
,  // measure 47
10000000
00000000
00010000
00000000
,  // measure 48
10000000
00000000
00010000
00000000
,  // measure 49
01000000
01000000
01000000
00000000
,  // measure 50
00000010
00000010
00000010
00000000
,  // measure 51
00000100
00000000
00000001
00000000
,  // measure 52
00000010
00000000
00000100
00000000
,  // measure 53
00020000
00000000
00000000
00030000
,  // measure 54
00000020
00000000
00000000
00000030
,  // measure 55
02000000
00000000
00000000
03000000
,  // measure 56
00002000
00000000
00000000
00003000
,  // measure 57
00011000
00000000
00000000
00000000
;
