#TITLE:Shakunetsu Pt.2 Long Train Running;
#SUBTITLE:;
#ARTIST:DJ Mass MAD Izm*;
#TITLETRANSLIT:;
#SUBTITLETRANSLIT:;
#ARTISTTRANSLIT:;
#GENRE:;
#CREDIT:;
#BANNER:Pt.2 Long Train Running.png;
#BACKGROUND:Pt.2 Long Train Running-bg.png;
#LYRICSPATH:;
#CDTITLE:;
#MUSIC:Pt.2 Long Train Running.ogg;
#OFFSET:0.000000;
#SAMPLESTART:72.760025;
#SAMPLELENGTH:11.739994;
#SELECTABLE:YES;
#BPMS:0.000000=165.000000
,199.250000=82.500000
,215.250000=165.000000
;
#STOPS:194.000000=0.045000,
194.375000=0.045000,
196.250000=0.045000,
196.625000=0.045000,
197.000000=0.045000,
197.375000=0.045000
;
#BGCHANGES:0.000=Pt.2 Long Train Running.avi=1.000=0=0=0=StretchNoLoop====,
99999=-nosongbg-=1.000=0=0=0 // don't automatically add -songbackground-
;
#KEYSOUNDS:;
#ATTACKS:;

//---------------dance-single - ----------------
#NOTES:
     dance-single:
     :
     Challenge:
     18:
     1.040802,1.370386,0.336385,0.484067,1.550655,888.000000,847.000000,41.000000,59.000000,0.000000,0.000000,1.040802,1.370386,0.336385,0.484067,1.550655,888.000000,847.000000,41.000000,59.000000,0.000000,0.000000:
0000
0000
0000
0000
,
0000
0000
0000
0000
,
0000
0000
0000
0000
,
0000
0000
0000
0000
,
1000
0001
0100
0000
0010
0000
0100
0000
0001
0000
1000
0001
0000
1000
0001
0000
,
1000
0010
1000
0000
1010
0000
0010
0000
0110
0000
0001
0100
1000
0100
0001
0000
,
0020
0000
0000
0001
0000
0000
0100
0000
0000
1000
0000
0000
0130
0000
1000
0000
,
1020
0000
0000
1030
0000
0000
1010
0000
0000
1000
0010
0100
0001
0010
0001
0100
,
2000
3100
0200
0310
,
0020
0130
0200
0301
,
0001
0000
0010
0001
0010
0000
0010
0000
0001
0000
0001
1000
0000
0000
1000
0000
,
0010
0000
0000
0000
0000
0000
0100
0000
0000
0010
0000
0000
0100
0000
0010
0000
0100
0000
0001
0000
0000
0000
0000
0000
0100
0000
0000
0000
0000
0000
0010
0000
0000
0100
0000
0000
0000
0000
0000
0000
0000
0000
0010
0000
0000
0000
0000
0000
,
0100
0110
0010
1010
0010
0110
0100
0101
,
1000
0100
0010
0001
1000
0100
0010
0100
,
0001
0010
0100
0110
0000
0000
0010
0100
1000
1100
0000
0000
,
1000
0000
0000
0000
0100
0000
0000
0000
0010
0000
0000
0000
0001
0000
0000
0000
0100
0000
0000
0000
0010
0000
0000
0000
1000
0000
0000
0001
0000
0000
1000
0000
0000
0001
0000
0000
1000
0000
0000
0001
0000
0000
0010
0000
0000
0100
0000
0000
,
0010
0000
0000
0000
0001
0000
0010
0000
0001
0000
0100
1000
0100
1000
0100
1000
,
0100
0001
0000
0001
0100
0000
0010
0000
1000
0100
0001
0000
0100
0000
0000
0000
,
1000
0000
0001
0100
1000
0000
0100
0000
0012
0003
0021
0030
0001
0010
0100
1000
,
2001
0000
3002
0000
1003
0100
0010
0100
0010
0001
2000
0000
3020
0000
0030
0000
,
1010
0000
0010
1000
0010
0000
1000
0000
0001
0010
0001
0010
0100
0010
0100
1000
,
0100
1000
0100
1000
0001
0000
0100
0000
0110
0000
0010
0100
0020
0000
1030
0000
,
2000
0000
3010
0000
1000
0100
0010
0001
0010
0200
0000
0000
2300
0000
3100
0000
,
0100
0000
1000
0010
0001
0010
1000
0010
0001
1000
0000
0010
1000
0000
0100
0000
,
2000
0000
3100
0000
0020
0000
0031
0000
0001
0010
0001
0010
0100
1000
0100
0000
,
0020
0000
0130
0000
2000
0000
3001
0000
0100
0010
0100
0010
0100
0010
0100
0000
,
2000
0000
3100
0000
0020
0000
0031
0000
0001
0010
0100
0010
0100
1000
0100
0000
,
2000
0000
3010
0000
0200
0000
0301
0000
0010
0001
0010
0100
1000
0100
1000
0000
,
2100
0000
3010
0000
0210
0000
0301
0000
0001
0010
0100
1000
0010
0100
1000
0000
,
1200
0000
0301
0000
0201
0000
1300
0000
1000
0100
1000
0100
0001
0100
1000
0000
,
0200
0000
0310
0000
2000
0000
3001
0000
0001
0010
0001
0010
0100
1000
0100
0000
,
0100
0100
0100
0100
0100
0100
1001
0000
,
0010
0100
0010
0000
1000
0010
0100
0001
0010
0000
0010
0001
0020
0000
0130
0000
,
1000
0000
0100
1000
0000
0100
1000
0010
0100
0000
0001
0000
0010
0000
0100
0000
,
1000
0000
0001
0100
0000
0010
1000
1000
0001
0010
0000
0010
0100
0000
0000
0000
,
1000
0100
1000
0100
0010
0000
0001
0010
0000
1000
0100
0010
0001
0000
0010
0000
,
0011
0000
0110
0000
1100
0000
0010
1000
0010
0000
1000
0010
1000
0000
0100
0000
,
0010
0100
1000
0100
0010
0000
0100
1000
0100
1000
0100
0000
1000
0000
0100
0000
,
1000
0100
0010
0100
1000
0100
0010
0100
1000
0100
0010
1000
0001
0100
0010
0100
,
1000
0100
0010
0100
1000
0100
0010
1000
0010
1000
0100
0010
0001
0010
0100
1000
,
2200
0000
0000
0000
0000
0000
3300
0000
0001
0010
0001
0000
1000
0000
0010
0100
,
0001
0000
1000
0000
0001
0000
1000
0000
0001
0000
1000
0000
0010
0000
0000
0000
0000
0000
0100
0000
0000
0000
0000
0000
0001
0000
0000
0100
0000
0000
0001
0000
0000
0100
0000
0000
0010
0000
0000
0000
0000
0000
1000
0000
0000
0000
0000
0000
,
2200
0000
0000
0000
0000
0000
3300
0000
0000
0000
0001
0000
0010
0000
0100
1000
,
0100
0000
0000
1000
0000
0000
0100
0000
1000
0000
0100
0000
1000
0000
0000
0000
0000
0000
0100
0000
0000
0000
0000
0000
0010
0000
0000
0001
0000
0000
0010
0000
0000
0100
0000
0000
0010
0000
0000
0000
0000
0000
0100
0000
0000
0000
0000
0000
,
2200
0000
0000
0000
0000
0000
0000
0000
0000
3300
0000
0000
0000
0000
0000
0001
0000
0000
0010
0001
0010
0001
0010
0000
,
0001
0010
0100
1000
0001
1000
0100
0010
0001
0010
0001
0010
0100
0010
0100
1000
,
2200
0000
0000
0000
0000
0000
0000
0000
0000
0000
0000
0000
0000
0000
0000
0000
0000
0000
3300
0000
0000
0000
0000
0000
0010
0000
0000
0000
0000
0000
1000
0000
0000
0000
0000
0000
0100
0000
0000
0010
0000
0000
0100
0000
0010
0000
0100
0000
,
0001
0000
0001
0010
0001
0100
0001
1000
0001
0100
0001
0010
0001
0010
0100
1000
,
0001
0000
0000
0000
0000
0000
0000
0000
0000
0000
0000
0000
0000
0000
0000
0000
0000
0000
0000
0000
0000
0000
0000
0000
0010
0000
0000
0000
0000
0000
0000
0000
0000
0000
0000
0000
0001
0000
0000
0000
0000
0000
0000
0000
0000
0000
0000
0000
0010
0000
0000
0000
0000
0000
0000
0000
0000
0000
0000
0000
0100
0000
0000
0000
0000
0000
0000
0000
0000
0000
0000
0000
1000
0000
0000
0000
0000
0000
0000
0000
0000
0000
0000
0000
0000
0000
0000
0000
0000
0000
0000
0000
0000
0000
0000
0000
2002
3003
0000
0000
0000
0000
0000
0000
0000
0000
0000
0000
0000
0000
0000
0000
0000
0000
2002
3003
0000
0000
0000
0000
0000
0000
0000
0000
0000
0000
0000
0000
0000
0000
0000
0000
1000
0000
0000
0000
0000
0000
0000
0000
0000
0000
0000
0000
0010
0000
0000
0000
0000
0000
0000
0000
0000
0000
0000
0000
1000
0000
0000
0000
0000
0000
0000
0000
0000
0000
0000
0000
0001
0000
0000
0000
0000
0000
0000
0000
0000
0000
0000
0000
0000
0000
0000
0000
0000
0000
0000
0000
0000
0000
0000
0000
,
0000
0000
0000
0000
0000
0000
0000
0000
0000
0000
0000
0000
0022
0033
0000
0000
0000
0000
0000
0000
0000
0000
0000
0000
0000
0000
0000
0000
0000
0000
0220
0330
0000
0000
0000
0000
0000
0000
0000
0000
0000
0000
0000
0000
0000
0000
0000
0000
2020
3030
0000
0000
0000
0000
0000
0000
0000
0000
0000
0000
0000
0000
0000
0000
0000
0000
2002
3003
0000
0000
0000
0000
0000
0000
0000
0000
0000
0000
0000
0000
0000
0000
0000
0000
2200
0000
0000
0000
0000
0000
0000
0000
0000
0000
0000
0000
0000
0000
0000
0000
0000
0000
0000
0000
0000
0000
0000
0000
0000
0000
0000
0000
0000
0000
0000
0000
0000
0000
0000
0000
3300
0000
0000
0000
0000
0000
0000
0000
0000
0000
0000
0000
0000
0000
0000
0000
0000
0000
0000
0000
0000
0000
0000
0000
0000
0000
0000
0000
0000
0000
0000
0000
0000
0000
0000
0000
1000
0000
0000
0000
0000
0000
0000
0000
0000
0000
0000
0000
0010
0000
0000
0000
0000
0000
0000
0000
0000
0000
0000
0000
0100
0000
0000
0000
0000
0000
0000
0000
0000
0000
0000
0000
,
0001
0000
0010
0000
0001
0010
0002
0000
0003
0000
1010
0000
1010
0000
1010
0000
0000
0000
0100
0000
0010
0000
0100
0000
0010
0000
1000
0010
1000
0010
0100
0000
,
1000
0000
0000
0000
0000
0000
0000
0000
0000
0000
0000
0000
0010
0000
0000
0000
0000
0000
0000
0000
0000
0000
0000
0000
0100
0000
0000
0000
0001
0000
0000
0000
0100
0000
0000
0000
0010
0000
0000
0000
0000
0000
0000
0000
0000
0000
0000
0000
1000
0000
0000
0000
0000
0000
0000
0000
0000
0000
0000
0000
0200
0000
0000
0000
0000
0000
0000
0000
0000
0000
0000
0000
1300
0000
0000
0000
0000
0000
0000
0000
0000
0000
0000
0000
0200
0000
0000
0000
0000
0000
0000
0000
0000
0000
0000
0000
0301
0000
0000
0000
0000
0000
0000
0000
0000
0000
0000
0000
0100
0000
0000
0000
0000
0000
0000
0000
0000
0000
0000
0000
0000
0000
0000
0000
0000
0000
0000
0000
0000
0000
0000
0000
0001
0000
0000
0000
0000
0000
0000
0000
0000
0000
0000
0000
1000
0000
0000
0000
0000
0000
0000
0000
0000
0000
0000
0000
0010
0000
0000
0000
0000
0000
0100
0000
0000
0000
0000
0000
0010
0000
0000
0000
0100
0000
0000
0000
0010
0000
0000
0000
0100
0000
0000
0000
0000
0000
0000
0000
0000
0000
0000
0000
,
0001
0010
0100
1000
0100
0000
0010
0000
0100
0000
1000
0000
0001
0000
0001
0000
0001
0000
0100
0000
0000
0000
0010
0000
0100
0000
0001
0010
0001
0000
0010
0100
,
0010
0000
0100
1000
0100
0000
1000
0000
0100
0000
0020
0000
0031
0000
0001
0000
0000
0000
2002
0000
0000
0000
0000
0000
3003
0000
0010
0000
0000
0000
0100
0000
,
0010
0000
0100
0010
0000
0100
0010
0000
0100
0010
0100
0010
0000
1000
0000
0001
,
1000
0000
0001
1000
0000
0001
1000
0000
0001
1000
0001
1000
0000
0001
0000
0001
,
0010
0000
0010
0100
0000
0100
1000
0000
0010
1000
0010
1000
0000
0010
0000
1000
,
0010
0000
0010
0100
0000
0100
0001
0000
0010
0001
0100
0010
0000
0100
0000
0010
,
1000
0000
0001
0010
0000
0100
1000
0000
1000
0100
1000
0100
1000
0100
0000
1000
,
0010
0000
0100
0001
0000
0010
0001
0000
0010
0001
0010
0001
0010
0001
0010
0001
,
0010
0100
1000
0100
1000
0001
0010
0100
0010
0100
1000
0100
1000
0100
0010
0100
,
1000
0010
0001
0010
1000
0100
0010
0001
0010
0100
0010
0100
1000
0100
0000
0100
,
0010
0001
0000
1000
0000
0010
0000
0100
0010
0000
0100
0010
0000
1000
0010
0100
,
0001
0000
0000
0010
0000
0000
0000
0000
0000
0100
0000
0000
0000
0000
0000
0010
0000
0000
0000
0000
0000
0100
0000
0000
0010
0000
0000
0000
0000
0000
0100
0000
0000
0010
0000
0000
0000
0000
0000
0001
0000
0000
1000
0000
0000
0010
0100
0000
,
0010
1000
0000
0010
0100
1000
0000
0100
1000
0000
0100
1000
0000
0100
0001
0010
,
0100
0000
0000
1000
0000
0000
0000
0000
0000
0100
0000
0000
1000
0000
0000
0010
0000
0000
0000
0000
0000
0100
0000
0000
0010
0000
0000
0000
0000
0000
0100
0000
0000
0010
0000
0000
0000
0000
0000
0100
0000
0000
0010
0000
0100
0000
1000
0000
,
0100
0010
0000
0100
0001
0010
0000
0100
1000
0000
0100
1000
0000
0010
0000
1000
,
0010
0100
0000
0001
0010
0001
0000
0100
0010
0000
0100
1000
0000
0001
0100
0010
,
1000
0001
0000
0100
0001
0100
0000
0001
0100
0000
0010
1000
0000
0100
1000
0100
,
0010
0100
0010
0100
1000
0010
1000
0100
1000
0010
0100
0001
1000
0010
0000
1000
,
0010
0000
0000
1000
0000
0000
0010
0000
0000
0100
0000
0000
0000
0000
0000
0001
0000
0000
0000
0000
0000
0010
0000
0000
0100
0000
0000
0000
0000
0000
1000
0000
0000
0100
0000
0000
0000
0000
0000
1000
0000
0000
0100
0000
0010
0000
0001
0000
,
0010
0100
0010
0001
0010
0100
1000
0100
1000
0100
1000
0100
0010
0001
0010
0001
,
0010
0001
0010
0100
0010
0100
0010
1000
0010
0100
0010
0001
0010
0100
0000
0010
,
0100
0000
0100
0010
0000
0100
0000
1000
0100
0000
0100
0010
0000
0001
0010
0001
,
0010
0001
0010
0001
0000
0100
1000
0100
1000
0100
0000
1000
0000
0100
1000
0010
,
0000
0010
1000
0100
0000
0010
0100
0010
0100
0010
0100
1000
0100
0010
0001
0010
,
0001
0100
0001
1000
0001
0100
0001
0010
0100
1000
0100
1000
0100
1000
0100
0010
,
0100
0010
0001
0010
0000
0011
0000
0000
0110
0000
0000
1001
0000
0000
0000
0000
;

//---------------dance-single - ----------------
#NOTES:
     dance-single:
     :
     Hard:
     17:
     0.882572,1.150992,0.516885,0.508680,1.292212,753.000000,690.000000,63.000000,62.000000,0.000000,0.000000,0.882572,1.150992,0.516885,0.508680,1.292212,753.000000,690.000000,63.000000,62.000000,0.000000,0.000000:
0000
0000
0000
0000
,
0000
0000
0000
0000
,
0000
0000
0000
0000
,
0000
0000
0000
0000
,
1000
0000
0000
0100
0000
0000
0010
0000
0000
0100
0000
0000
1000
0001
1000
0000
,
0100
0000
0000
0010
0000
0000
0001
0000
0000
0010
0000
0000
0100
1000
0100
0000
,
0010
0000
0000
0001
0000
0000
0010
0000
0000
0100
0000
0000
1000
0100
1000
0000
,
0010
0000
0000
1000
0000
0000
0100
0000
0000
0010
0000
0000
0001
0010
0001
0010
,
0200
0000
2300
0000
,
3020
0000
0230
0000
,
0302
0000
2003
0000
,
3020
0000
0230
0000
,
0301
0000
0001
0000
0010
0000
0010
0000
0100
0000
0100
0000
1000
0100
1000
0000
,
0100
0000
0100
0000
0010
0000
0010
0000
0001
0000
0001
0000
1000
0001
1000
0000
,
0010
0100
0010
0100
0000
0000
0001
1000
0001
1000
0000
0000
,
0001
0010
0001
0100
0010
1000
0100
1000
0010
0100
0000
0000
,
0001
0000
0010
0000
0001
0000
0010
0000
0100
1000
0000
0100
1000
0000
0100
0000
,
1000
0100
0000
0100
0010
0000
0001
0000
0000
0000
0110
0000
0110
0000
0000
0000
,
1000
0000
0100
0010
0001
0000
0000
0000
0010
0001
0100
0000
0100
0001
0010
0000
,
0100
0000
1000
0000
0010
1000
0001
1000
0010
0100
0001
0000
1000
0000
0000
0000
,
1001
0000
0000
0000
1001
0000
0000
0000
0010
0100
0010
0100
0010
0100
0010
0000
,
1000
0000
0001
1000
0100
0000
0010
0000
0100
0000
1000
0100
1000
0000
0100
0000
,
0010
0000
0001
0000
1000
0001
1000
0010
1000
0010
0100
0000
0001
0000
0010
0000
,
0200
0000
0000
0000
1300
0100
1000
0100
0010
0100
0000
0010
0100
0000
1000
0000
,
0011
0000
0000
0000
0011
0000
0000
0000
0010
0001
0010
0001
0010
0001
0010
0000
,
1100
0000
0000
0000
1100
0000
0000
0000
1000
0100
1000
0100
1000
0100
1000
0000
,
1010
0000
0000
0000
1010
0000
0000
0000
1000
0010
1000
0010
1000
0010
1000
0000
,
0101
0000
0000
0000
0101
0000
0000
0000
0100
0001
0100
0001
0100
0001
0100
0000
,
0011
0000
0001
0000
1100
0000
1000
0000
1000
0100
1000
0100
0010
0100
0010
0000
,
0011
0000
0010
0000
1100
0000
0100
0000
0010
0001
0010
0100
0010
0100
1000
0000
,
0101
0000
0001
0000
1010
0000
0010
0000
1000
0010
1000
0100
1000
0100
0010
0000
,
0001
0010
0100
1000
0100
0010
0001
0000
,
0010
0000
0001
0000
0010
0001
0010
0100
1000
0000
1000
0000
1000
0000
0000
0000
,
0100
0000
0100
0010
0000
0010
0001
0000
0010
0000
0001
0000
0110
0000
0000
0000
,
1000
0000
0010
0100
0000
0001
0010
0001
1000
0000
1000
0100
2000
0000
3010
0000
,
0100
0010
0100
0001
0020
0130
2000
3100
0000
0001
0010
0001
0200
0000
1000
0300
,
1100
0000
0110
0000
0101
0000
0001
0010
0100
0000
1100
0000
0110
0000
0000
0000
,
0001
0100
1000
0100
0000
1000
0100
0001
0010
0000
0100
0000
1100
0000
0000
0000
,
1000
0010
1000
0000
0010
1000
0010
0000
0100
0010
0100
0000
0010
0100
0010
0000
,
0110
0000
0110
0000
0101
0000
0101
0000
0100
0010
1000
0001
0100
0010
1000
0001
,
0200
0000
0000
0000
0000
0000
0000
0000
0310
0000
0100
0000
0010
0000
0100
0001
,
0010
0000
0000
0000
0001
0000
0000
0000
0010
0000
0000
0000
0001
0000
0000
0000
0000
0000
2000
0000
0000
3000
0000
0000
0010
0000
0000
0100
0000
0000
0010
0000
0000
0100
0000
0000
0020
0000
0000
0030
0000
0000
1000
0000
0000
0000
0000
0000
,
0200
0000
0000
0000
0000
0000
0000
0000
0300
0000
0010
0000
0001
0000
0010
0001
,
0010
0000
0000
0000
0001
0000
0000
0000
0010
0000
0001
0000
0020
0000
0000
0030
0000
0000
0100
0000
0000
0000
0000
0000
1000
0000
0000
0010
0000
0000
1000
0000
0000
0010
0000
0000
0100
0000
0000
0000
0000
0000
0010
0000
0000
0000
0000
0000
,
2000
0000
0000
0000
0000
0000
0000
0000
3000
0000
0001
0000
0010
0001
0010
0000
,
0100
1000
0100
0000
0010
0001
0010
0100
1000
0100
0010
0001
0100
0010
1000
0100
,
0020
0000
0000
0000
0000
0000
0000
0000
0031
0000
0010
0000
0100
1000
0010
0000
,
0200
0300
0010
0100
0010
0100
0010
1000
0010
1000
0010
0100
0001
0100
0001
0010
,
0001
0000
0000
0000
0011
0000
0000
0000
0101
0000
0000
0000
1001
0000
0000
0000
1010
0000
0000
0110
0000
0000
0010
0000
0000
0000
0100
0000
0000
0000
0010
0000
,
0000
0000
0110
0000
0000
0110
0000
0000
0110
0000
0000
0110
0000
0000
1000
0000
0000
0000
0002
0000
0000
0000
0000
0000
0000
0000
0013
0000
0000
0000
0010
0000
,
0100
0000
0110
0000
1000
0000
0001
0000
0000
0000
0100
0000
0001
0000
0100
0000
0000
0000
0101
0000
0001
0000
0000
0000
1000
0000
1000
0000
0010
0000
0100
0010
,
0100
0000
0001
0000
0010
0000
0100
0000
0000
0000
1100
0000
0000
0000
1100
0000
0000
0000
1010
0000
0000
0000
0100
0000
0010
0000
1000
0010
1000
0010
0100
0000
,
0001
0100
0000
0001
0100
0000
0010
0000
1000
0000
0200
0000
0310
0000
0010
0000
0010
0000
0010
0000
0000
0000
0100
0000
1000
0000
0001
0000
1000
0000
0200
0000
,
0000
0020
0000
0000
0000
0000
0000
0000
0000
0000
0000
0000
0330
0001
0000
0000
,
0010
0000
0000
0100
0000
0000
1000
0000
0000
0010
1000
0010
0000
1000
0000
0000
,
0010
0000
0000
0100
0000
0000
0001
0000
0000
0010
0001
0100
0000
0010
0000
0010
,
1000
0000
1000
0100
0000
0100
0010
0000
0010
0001
0010
0001
0000
0010
0000
0100
,
0010
0000
0001
0010
0000
0010
0001
0000
1000
0001
1000
0001
0000
1002
0000
0000
,
1000
0000
0000
1000
0000
0000
0100
0000
0000
0010
0000
0010
0003
2001
0000
0000
,
0010
0000
0000
0001
0000
0000
0100
0000
0000
0010
0000
0100
3000
1000
0000
0001
,
0010
0100
1000
0010
0000
0100
0010
0000
0010
1000
0000
0100
0000
1000
0100
0010
,
0000
0100
0010
0001
0000
0001
0010
0100
0001
1000
0001
0100
0010
2000
3000
1000
,
0010
2000
3000
0010
0000
0200
0310
0000
2000
3100
0000
0020
0130
2000
0000
3001
,
0010
0002
0003
0010
0100
0020
0030
0010
0002
0003
0001
0020
0000
0230
1300
0100
,
1000
0200
0000
0310
0100
0020
0030
0100
0020
0030
0020
0002
0030
0103
0000
0010
,
0100
1000
0000
1000
0100
0020
0000
1030
0020
0000
0130
0020
0000
1030
0100
1000
,
0100
0020
0030
0001
0010
0002
0003
0010
0020
0030
0100
0200
0300
2000
3100
0010
,
0100
1000
0000
0010
0100
0020
0030
0100
0020
0030
0100
0020
0030
1000
0010
0100
,
0001
0020
0030
0001
0010
0200
0300
0100
2000
3000
0100
2000
3000
0010
0100
0010
,
0100
0001
1000
0001
1000
0001
0010
0100
1000
0001
1000
0010
0100
0110
0000
0100
,
0000
0110
0000
0010
0000
0110
0000
1000
0001
0000
1000
0001
0000
0011
0000
0010
,
0000
0110
0000
0100
0000
1100
0000
1000
0100
0010
0100
1000
0100
0110
0000
0001
,
0000
1001
0000
0010
0000
0110
0000
1000
0000
1001
0000
0100
0000
0110
0000
0000
,
0000
0110
0000
0000
0000
0010
0000
0000
0000
0100
0000
0000
0000
0001
0000
0010
,
0000
0001
0000
0010
0000
0001
0000
1000
0010
0100
0000
0100
0010
1000
0000
0010
,
0000
0100
0000
0001
0000
0010
0001
0010
0001
0000
0001
0010
0100
1000
0100
0001
,
0100
1000
0100
1000
0100
0010
0120
0030
0200
0300
1000
0001
0000
0100
0010
0100
,
0010
0110
0000
0110
0000
1001
0000
0000
0110
0000
0000
2002
0000
0000
0000
3003
;

//---------------dance-single - ----------------
#NOTES:
     dance-single:
     :
     Medium:
     15:
     0.780602,0.896652,0.221522,0.820452,1.115815,666.000000,639.000000,27.000000,100.000000,0.000000,0.000000,0.780602,0.896652,0.221522,0.820452,1.115815,666.000000,639.000000,27.000000,100.000000,0.000000,0.000000:
0000
0000
0000
0000
,
0000
0000
0000
0000
,
0000
0000
0000
0000
,
0000
0000
0000
0000
,
1001
0000
1000
0001
0000
0001
1000
0000
0010
1000
0000
0010
1000
0000
1000
0000
,
1001
0000
1000
0100
0000
0100
0010
0000
0100
0010
0000
0000
0011
0000
0001
0000
,
0011
0000
0000
0001
0000
0000
0010
0000
0000
0100
0000
0000
1100
0000
1000
0000
,
1100
0000
0000
1000
0000
0000
0100
0000
0000
0010
0000
0000
0001
1000
0010
0000
,
0210
0000
0000
0000
0310
0000
0000
0000
0010
0000
0000
0100
0000
0000
0010
0000
,
2001
0000
0000
0000
3001
0000
0000
0000
0010
0000
0000
0100
0000
0000
0010
0000
,
0200
0320
0032
0203
,
0310
0000
0100
0010
0100
0000
0010
0000
1001
0000
0000
1001
0000
0000
1001
0000
,
0001
0000
0010
0000
0001
0000
0010
0000
0001
0000
0010
0000
0001
0100
0010
0000
,
1000
0000
0100
0000
1000
0000
0100
0000
1000
0010
0100
0000
0001
0000
0010
0000
,
0001
0010
0100
1000
0000
0000
0001
0010
0100
1000
0000
0000
,
0001
0000
0010
0000
0010
0000
0100
0000
0010
0000
0100
0010
,
0100
0000
0010
0000
0100
0000
0010
0000
0001
0000
0000
0010
0000
0100
1000
0000
,
0010
1000
0010
0200
0300
0001
0002
0003
,
0200
0000
0300
0000
0200
0000
0300
0000
0001
0000
0100
0000
1000
0100
1000
0000
,
0100
0000
0100
0000
0010
0000
0010
0100
0000
0010
0100
0000
0020
0000
0030
0000
,
2002
3003
0000
0000
1001
0000
0000
0000
0001
0000
0010
0000
0100
0000
1000
0000
,
0100
0000
0010
0000
0100
0000
0020
0000
0000
0130
0000
0000
0100
0000
0000
0100
0000
0000
0100
0000
0000
0010
0000
0000
,
0200
0300
2000
3000
1000
0000
1000
0100
0000
0100
0010
0000
0001
0000
1000
0000
,
2002
0000
3003
0000
0001
0100
0001
0000
0110
0000
0000
0110
0000
0000
0110
0000
,
0002
0000
0023
0000
0230
0000
1300
0000
0001
0000
0100
0001
0100
0000
0001
0000
,
2000
0000
3200
0000
0320
0000
0031
0000
1000
0000
1000
0001
1000
0000
0001
0000
,
0002
0000
0013
0000
0020
0000
0031
0000
0010
0100
0010
0000
0100
0010
0100
0000
,
2000
0000
3100
0000
0200
0000
1300
0000
0100
0010
0100
0010
0100
0000
0010
0000
,
0002
0000
0013
0000
0200
0000
1300
0000
0100
1000
0100
0000
0100
1000
0100
0000
,
2000
0000
3100
0000
0020
0000
0031
0000
0010
0001
0010
0000
0010
0001
0010
0000
,
0001
0000
0010
0000
0100
0000
1000
0000
0001
1000
0001
1000
0001
1000
0001
0000
,
1000
0000
0100
0000
0010
0000
0001
0000
1000
0001
1000
0001
1000
0000
0000
0000
,
0001
0000
0001
0000
0010
0000
0001
0010
0001
0000
0010
0000
1100
0000
0000
0000
,
0010
0000
0000
0010
0000
0100
0010
0000
1000
0000
0001
0000
0020
0000
0030
0000
,
0100
0000
0000
0100
0000
1000
0100
0000
1000
0100
0000
0010
0001
0000
0000
0000
,
0002
0000
0013
0000
0001
1000
0000
0001
0000
1000
0001
1000
0010
0000
0000
0000
,
0100
0000
0100
0000
0100
0000
0100
0010
0100
0000
0100
0001
0100
0000
0000
0000
,
0001
0000
0001
0010
0000
0000
0001
0010
0100
1000
0000
1000
0100
0000
1000
0000
,
0010
0100
0010
0000
0010
0100
0010
0000
0010
0100
0010
0000
1000
0001
1000
0000
,
1000
0000
1000
0000
1000
0000
1000
0000
1000
0100
0010
0000
0002
0000
0013
0000
,
2200
0000
0000
0000
0000
0000
0000
3300
0100
0000
0010
0000
0100
0000
0010
0000
,
0101
0000
0000
0000
0000
0000
0000
0000
1000
0000
0000
0000
0000
0000
0000
0000
0001
0000
0000
0000
0000
0000
0000
0000
0001
0000
0000
0000
0000
0000
0010
0000
0000
0000
0000
0000
0001
0000
0000
0010
0000
0000
0001
0000
0000
0000
0000
0000
,
2002
0000
0000
0000
0000
0000
0000
0000
0000
0000
0000
0000
0000
0000
0000
0000
0000
0000
0000
0000
0000
3003
0000
0000
0000
0000
0000
0000
0000
0000
0020
0000
0000
0030
0000
0000
0200
0000
0000
0300
0000
0000
0000
0000
0010
0000
0000
0000
,
0100
0000
0000
0000
0010
0000
0000
0000
0100
0000
0000
0000
0010
0000
0000
0000
0000
0000
2000
0000
0000
3000
0000
0000
0010
0000
0000
0100
0000
0000
0010
0000
0000
0000
0000
0000
0010
0000
0000
0000
0000
0000
0100
0000
0000
0000
0000
0000
,
2002
0000
0000
0000
0000
0000
0000
3003
0000
0000
0010
0000
0010
0100
0010
0000
,
0001
0010
0001
0000
0010
0100
0010
0000
0100
1000
0100
1000
0100
1000
0100
0000
,
0220
0000
0000
0000
0000
0000
0000
0330
0002
0003
0020
0030
0200
0300
1000
0100
,
2000
3000
1000
0100
0010
0000
0100
0010
0001
0000
0001
0000
0010
0000
0100
0000
,
1000
0000
0000
0000
0100
0000
0000
0000
1000
0000
0000
0000
0100
0000
0000
0000
0010
0000
0000
0000
0100
0000
0000
0000
2002
0000
0000
0000
3003
0000
0000
0000
0000
0010
0000
0000
0000
0000
0000
0010
0000
0000
0000
0000
0000
0000
0000
0000
,
0000
0000
2000
0000
0000
0002
0000
0000
0000
0000
0000
3003
0000
0000
0010
0000
0000
0000
0200
0000
0000
0000
0310
0000
0000
0000
1000
0000
0000
0000
1000
0000
,
0010
0000
0010
1000
0000
0001
0010
0001
0010
2200
3300
0000
0000
0001
0010
0001
,
1000
0010
0100
0001
0000
0020
0030
0020
0030
0200
0300
1000
0100
1000
0100
1000
,
0010
0000
0100
0001
0010
0100
1000
0100
0010
0001
0000
1000
0001
0020
0000
0000
,
0100
0000
0000
0001
0000
0000
0001
0000
0000
0200
0000
0000
0330
1000
0000
0000
,
0100
0000
0000
0010
0000
0000
0001
0000
0000
1000
0001
1000
0000
0001
0000
0000
,
0010
0000
0000
0100
0000
0000
1000
0000
0000
0010
1000
0010
0000
0100
0000
0000
,
0001
0000
0000
0010
0000
0000
0100
0000
0000
1000
0100
1000
0000
0010
0000
0000
,
0100
0000
0000
0001
0000
0000
0010
0000
0000
0100
1000
0100
0000
2000
3000
0000
,
0200
0300
0000
2000
3000
0000
0200
0300
0000
0010
0001
0010
0000
0002
0003
0000
,
0020
0030
0000
0002
0003
0000
0020
0030
0000
0100
1000
0100
0000
1000
0000
0100
,
0000
0010
0000
0100
0000
0010
0000
0001
0000
0010
0000
0100
0000
1000
0100
1000
,
0000
0100
0010
0001
0000
1000
0001
1000
0001
1000
0001
1000
0001
0200
0300
0000
,
0000
0200
0300
0000
0000
0020
0030
0000
0020
0030
0000
0020
0030
2000
3000
0100
,
0010
0002
0003
0000
0000
0200
0300
0000
0200
0300
0000
0200
0300
0020
0030
0100
,
0010
1000
0000
1000
0010
0200
0300
0000
0200
0300
0000
0200
0000
0302
0000
0013
,
0000
0100
0000
1000
0000
0020
0030
0000
0020
0030
0000
0020
0030
0100
0010
0100
,
0010
0100
0000
0001
0000
2000
3000
0000
0200
0300
0000
0020
0030
0001
0000
1000
,
0000
0100
0000
0010
0000
0002
0003
0010
0002
0003
0010
0002
0003
0100
0000
0010
,
0100
0010
0000
1000
0000
0020
0030
0100
0020
0030
0100
0020
0030
0200
0300
0001
,
0010
0001
0010
0001
0010
0001
0010
0100
1000
0100
1000
0100
1000
0100
0000
0100
,
0010
0100
0000
1000
0000
0100
0000
0010
0000
0100
1000
0001
0010
0100
0000
0100
,
1000
0100
0000
0010
0100
0000
0010
0100
0000
1000
0100
1000
0000
0100
0010
0100
,
0010
0100
0010
0100
0010
0100
0000
0010
0100
0000
0010
0001
0000
1000
0001
1000
,
0001
1000
0001
1000
0001
1000
0000
0001
1000
0000
0010
0100
0010
0100
0000
0001
,
0000
0010
0000
0100
0000
1000
0000
0001
0000
0010
0000
0100
1000
0010
0000
0100
,
0000
0001
0000
1000
0000
0010
0000
0100
0000
0001
1000
0010
0100
0001
0010
0001
,
0010
0100
1000
0100
1000
0001
0000
0000
1001
0000
0000
1001
0000
0010
0100
0010
,
0100
0001
1000
0001
1000
0100
0000
0000
0100
0000
0200
2000
0000
0000
0000
0000
,
0000
3300
0000
0000
0000
0000
0000
0000
0000
0000
0000
0000
0000
0000
0000
0000
;

//---------------dance-single - ----------------
#NOTES:
     dance-single:
     :
     Easy:
     11:
     0.447732,0.541781,0.229727,0.319976,0.537396,382.000000,354.000000,28.000000,39.000000,0.000000,0.000000,0.447732,0.541781,0.229727,0.319976,0.537396,382.000000,354.000000,28.000000,39.000000,0.000000,0.000000:
// measure 0
0000
0000
0000
0000
,  // measure 1
0000
0000
0000
0000
,  // measure 2
0000
0000
0000
0000
,  // measure 3
0000
0000
0000
0000
,  // measure 4
0001
0000
0000
0001
0000
0000
0001
0000
,  // measure 5
1000
0000
0000
1000
0000
0000
1000
0000
,  // measure 6
0001
0000
0000
0010
0000
0000
0100
0000
,  // measure 7
1000
0000
0000
0100
0000
0000
0010
0000
,  // measure 8
0002
0000
0000
0003
0002
0000
0000
0003
,  // measure 9
2000
0000
0000
3000
0200
0000
0000
0300
,  // measure 10
2000
0000
0000
3000
0200
0000
0000
0300
,  // measure 11
0020
0000
0000
0030
0200
0000
0000
0300
,  // measure 12
1000
1000
0100
0100
,  // measure 13
0010
0010
0001
0010
,  // measure 14
1001
1001
0110
0110
,  // measure 15
1001
0110
1001
0110
,  // measure 16
0001
0010
0001
0000
1000
0000
1000
0000
,  // measure 17
0010
0000
0010
1000
0010
1000
0010
0000
,  // measure 18
0200
0300
0200
0300
0010
0010
0010
0000
,  // measure 19
1000
0001
1000
0000
1001
0000
0110
0000
,  // measure 20
0020
0030
0020
0030
0100
0010
0100
0000
,  // measure 21
0001
0010
0001
0000
1000
0100
1000
0000
,  // measure 22
0010
0100
0010
0000
0010
0010
0100
0000
,  // measure 23
0001
0000
0010
0000
0001
0010
0100
1000
,  // measure 24
0002
0003
0020
0030
0100
0100
0100
0000
,  // measure 25
2000
3000
0200
0300
0010
0010
0010
0000
,  // measure 26
2002
3003
2002
3003
0010
0010
0010
0000
,  // measure 27
2002
3003
2002
3003
0100
0100
0100
0000
,  // measure 28
0001
0010
0001
0000
1000
1000
1000
0000
,  // measure 29
1000
0100
1000
0000
0001
0001
0001
0000
,  // measure 30
0010
0100
0010
0000
0001
1000
0001
0000
,  // measure 31
0001
0010
0100
1000
0100
0010
0001
0000
,  // measure 32
1100
1100
0010
0010
,  // measure 33
0001
0000
0000
0010
0000
0000
0000
0000
0001
0000
0000
0000
0001
0000
0000
0000
,  // measure 34
1000
0000
0000
0100
0000
0000
0000
0000
1000
0000
0000
0000
1000
0000
0000
0000
,  // measure 35
0001
0010
0100
1000
0001
0001
0001
0000
,  // measure 36
1000
0100
0010
0000
0001
0001
0001
0000
,  // measure 37
0001
0010
0100
0000
1000
1000
1000
0000
,  // measure 38
1000
1000
0100
0100
,  // measure 39
0010
0001
0010
0001
1000
0100
0010
0001
,  // measure 40
2002
0000
0000
3003
0010
0000
0010
0000
,  // measure 41
0100
0000
0000
0100
0010
0000
0100
0000
,  // measure 42
2002
0000
0000
3003
0000
0010
0100
0000
,  // measure 43
0001
0000
0001
0010
0000
0010
0100
0000
,  // measure 44
2002
0000
0000
3003
0000
0100
0010
0100
,  // measure 45
1000
1000
0100
0100
0010
0010
0001
0001
,  // measure 46
2002
0000
0000
3003
0001
0010
0100
0000
,  // measure 47
0001
0010
0100
0000
1000
0100
0010
0000
,  // measure 48
1001
0000
1001
0000
2002
3003
0000
0000
,  // measure 49
0000
0000
2000
0000
0000
0002
0000
0000
0000
0000
0000
0000
0000
0000
0000
0000
0000
0000
0000
0000
0000
0000
0000
0000
0000
0000
3003
0000
0000
0000
0000
0000
,  // measure 50
0000
1001
0000
0000
0000
0010
0000
0010
0000
0100
0000
0000
0000
1000
0000
1000
,  // measure 51
0000
0100
0000
0000
0000
0010
0000
0010
0000
0001
0000
0000
0000
0010
0000
0010
,  // measure 52
0000
0100
0000
0100
0000
1000
0000
0010
0000
0100
0000
0001
0000
1000
0000
0002
,  // measure 53
0000
0000
0000
0000
0000
0000
0000
0000
0000
0000
0000
0000
0000
1003
0000
0000
,  // measure 54
0000
1000
0000
0000
0000
1000
0000
0001
0000
0100
0000
0000
0000
0010
0000
0000
,  // measure 55
0000
0010
0000
0000
0000
0010
0000
0100
0000
0001
0000
0000
0000
0010
0000
0000
,  // measure 56
0000
0010
0000
0000
0000
0010
0000
0100
0000
1000
0000
0000
0000
1000
0000
0000
,  // measure 57
0000
1000
0000
0000
0000
1000
0000
0100
0000
0010
0000
0000
0000
0001
0000
0000
,  // measure 58
0000
0000
0000
0001
0000
0000
0000
0010
0000
0100
0000
0000
0000
1000
0000
0000
,  // measure 59
0000
0000
0000
1000
0000
0000
0000
0100
0000
0010
0000
0000
0000
0001
0000
0010
,  // measure 60
0000
0100
0000
1000
0000
0100
0000
0010
0000
0001
0000
0010
0000
0100
0000
0000
,  // measure 61
0000
1000
0000
0000
0000
2002
0000
0000
0000
0000
0000
0000
3003
0010
0000
0000
,  // measure 62
0000
0010
0000
0000
0000
0010
0000
0000
0100
0000
0000
0000
0000
0001
0000
0000
,  // measure 63
0000
0001
0000
0000
0000
0001
0000
0000
1000
0000
0000
0000
0000
0010
0000
0100
,  // measure 64
0000
0010
0000
0000
0000
0010
0000
0000
0100
0000
0000
0000
0000
1000
0000
0001
,  // measure 65
0000
1000
0000
0000
0000
1000
0000
0000
0001
0000
0000
0000
0000
0001
0000
0010
,  // measure 66
0000
0001
0000
0000
0000
1000
0000
0000
1000
0000
0000
0000
0000
1000
0000
0100
,  // measure 67
0000
1000
0000
0000
0000
0001
0000
0000
0001
0000
0000
0000
0000
0010
0000
0100
,  // measure 68
0000
0010
0000
0000
0000
0100
0000
0000
0100
0000
0000
0000
0000
0100
0000
0010
,  // measure 69
0000
0100
0000
0000
0000
0010
0000
0000
0010
0000
0000
0010
0000
0001
0000
0000
,  // measure 70
0001
0000
0000
0000
0000
1000
0000
0000
1000
0000
0000
0000
0000
0010
0000
0000
,  // measure 71
0010
0000
0000
0100
0000
0010
0000
0000
0100
0000
0000
0000
0000
0010
0000
0000
,  // measure 72
0010
0000
0000
0000
0000
0100
0000
0000
0100
0000
0000
0000
0000
0010
0000
0000
,  // measure 73
0010
0000
0000
0100
0000
0010
0000
0100
0000
0010
0000
0000
0000
1000
0000
0001
,  // measure 74
0000
1000
0000
0001
0000
1000
0000
0001
0000
1000
0000
0000
0000
0100
0000
0010
,  // measure 75
0000
0100
0000
0010
0000
0100
0000
0010
0000
0100
0000
0000
0000
1000
0000
0001
,  // measure 76
0000
1000
0000
0001
0000
1000
0000
0000
1001
0000
0000
1001
0000
0000
0000
1000
,  // measure 77
0000
0100
0000
1000
0000
0100
0000
0000
0100
0000
0000
1001
0000
0000
0000
0000
;
