#TITLE:Perverse Weapon;
#SUBTITLE:;
#ARTIST:河村 知之;
#TITLETRANSLIT:;
#SUBTITLETRANSLIT:;
#ARTISTTRANSLIT:Tomoyuki Kawamura;
#GENRE:;
#CREDIT:;
#BANNER:Perverse Weapon.png;
#BACKGROUND:Perverse Weapon-bg.png;
#LYRICSPATH:;
#CDTITLE:;
#MUSIC:Perverse Weapon.ogg;
#OFFSET:-0.055000;
#SAMPLESTART:10.714847;
#SAMPLELENGTH:21.333332;
#SELECTABLE:YES;
#BPMS:0.000000=180.000000
;
#STOPS:
;
#BGCHANGES:;
#KEYSOUNDS:;
#ATTACKS:;

//---------------dance-single - ----------------
#NOTES:
     dance-single:
     :
     Challenge:
     16:
     0.803683,1.037722,0.299775,0.099925,0.624532,563.000000,533.000000,30.000000,10.000000,5.000000,0.000000,0.803683,1.037722,0.299775,0.099925,0.624532,563.000000,533.000000,30.000000,10.000000,5.000000,0.000000:
// measure 0
0000
0000
0000
0000
,  // measure 1
0000
0000
0000
0000
,  // measure 2
0000
0000
0000
0000
,  // measure 3
0000
0000
0000
0000
,  // measure 4
0000
0000
0000
0000
,  // measure 5
0000
0000
0000
0000
,  // measure 6
0000
0000
0000
0000
,  // measure 7
0000
0000
0000
0000
,  // measure 8
1000
0100
0010
1000
0000
1000
0010
0100
,  // measure 9
0000
0000
1000
0000
0100
0000
0010
0000
0001
0000
1000
0001
1000
0000
0000
0000
,  // measure 10
0001
1000
0100
0001
0100
1000
0001
1000
,  // measure 11
0100
0000
0001
0000
0100
0000
0010
0000
0001
0000
0010
0001
0010
0000
0010
0000
,  // measure 12
0001
0100
0010
0001
0000
0001
0010
0100
,  // measure 13
0000
0000
0001
0000
0100
0000
0010
0000
1000
0000
0001
1000
0001
0000
0000
0000
,  // measure 14
1000
0001
0100
1000
0100
0001
1000
0001
,  // measure 15
0100
0000
1000
0000
0100
0000
0010
0000
1000
0000
0010
1000
0010
0000
0010
0000
,  // measure 16
1010
1000
0100
0110
0000
0100
0010
0011
,  // measure 17
0000
0000
0010
0000
0001
0000
1001
0000
0000
0000
0001
0100
0001
0000
1000
0000
,  // measure 18
1100
0100
0010
0011
0001
1000
1010
0010
,  // measure 19
0100
0101
0001
1000
0100
0010
0001
0100
,  // measure 20
0101
0001
0010
0110
0000
0010
0100
1100
,  // measure 21
0000
0000
0100
0000
1000
0000
1001
0000
0000
0000
1000
0010
1000
0000
0001
0000
,  // measure 22
1000
0100
0010
0001
1000
0000
0001
0010
0100
1000
0001
0000
0010
0001
0010
0000
,  // measure 23
0001
1000
0001
0000
0100
0001
0100
0000
0001
1000
0001
0010
0100
0000
0000
0000
,  // measure 24
1100
0000
0000
0000
0000
0000
0100
0000
0010
0000
0001
0000
2000
0000
0000
0000
0000
0000
0010
0000
0000
0010
0000
0000
,  // measure 25
0000
0001
3001
0010
0001
0010
0100
1000
,  // measure 26
0001
0000
0100
0010
0200
0000
0000
0000
0001
0000
0001
0000
0000
0000
0310
0000
,  // measure 27
0100
0000
0000
0000
0000
0000
0001
0000
0000
0000
0000
0000
0001
0000
0000
0000
0000
0000
1000
0000
0000
0100
0000
0000
0010
0000
0000
0000
0000
0000
0000
0000
0110
0000
0000
0000
0000
0000
0000
0000
0011
0000
0000
0000
0000
0000
0000
0000
,  // measure 28
1001
0000
1001
0000
0011
0000
0010
0100
,  // measure 29
1000
0000
0000
0000
0000
0000
0000
1000
0000
0000
0000
0000
0000
0000
0010
0000
0000
0000
0000
0000
0000
0100
0000
0000
0000
0000
0000
0000
0100
0000
0000
0000
0000
0000
0000
0010
0000
0000
0000
0000
0000
0000
1000
0000
0000
0000
0000
0000
0000
1000
0000
0000
0000
0000
0000
0000
0100
0000
0000
0000
0000
0000
0000
0000
,  // measure 30
1000
0100
0010
0000
0100
0010
0001
0000
0010
0001
1000
0010
1000
0001
0010
0000
,  // measure 31
0100
0000
0000
0000
0000
0000
0010
0000
0000
0001
0000
0000
1000
0000
0000
0001
0000
0000
0010
0000
0000
0100
0000
0000
1000
0000
0000
0000
0001
0000
0000
0000
0010
0000
0000
0000
1000
0000
0000
0000
0010
0000
0000
0000
0100
0000
0000
0000
,  // measure 32
1000
0000
0010
1000
0100
0000
0010
0000
0001
0000
1000
0010
0100
0000
0000
0000
,  // measure 33
0001
0000
0100
0001
0010
0000
0100
0000
1000
0000
0001
0100
0010
0000
0000
0000
,  // measure 34
0100
0000
0001
0010
0100
0000
0010
0000
0001
0000
1000
0010
0100
0000
0010
1000
,  // measure 35
0001
0000
1000
0100
0010
0000
0100
1000
0001
0000
1000
0010
0100
0000
0010
0000
,  // measure 36
1000
0000
0001
0000
0010
0100
1000
0000
0010
0000
0100
0000
0001
0000
0010
0000
,  // measure 37
0100
1000
0010
0001
1000
0100
0010
1000
,  // measure 38
0001
0010
1000
0010
0001
0100
1000
0100
,  // measure 39
0110
0000
0010
1000
0001
0000
1000
0100
0010
0001
1000
0001
0010
0100
1000
0001
,  // measure 40
1000
0010
1000
0010
0100
0000
0001
0000
0100
0001
0100
0001
1000
0000
0001
0000
,  // measure 41
1000
0100
1000
0100
0010
0000
0001
0000
0010
0001
0010
0001
1000
0000
0001
0000
,  // measure 42
0100
0001
1000
0000
0010
1000
0010
1000
0001
0000
0010
0000
0100
1000
0001
0000
,  // measure 43
0100
0000
0010
1000
0001
0000
1000
0100
0010
0001
1000
0000
0001
0000
0100
0001
,  // measure 44
0100
0010
1000
0010
0100
0010
1000
0100
0010
0001
0100
0010
0100
0001
1000
0100
,  // measure 45
0010
0100
1000
0001
0100
0010
1000
0100
0010
0001
2000
0000
0001
0000
0000
0000
,  // measure 46
3001
0100
0110
0100
0001
0010
0110
0010
,  // measure 47
0001
0010
0001
1000
0010
1000
0001
0010
0100
1000
0010
0100
0010
0100
0010
0100
,  // measure 48
0010
0100
0001
0010
0000
0010
0100
1000
,  // measure 49
0010
0100
0000
0100
0010
0100
1000
0100
,  // measure 50
0010
0001
0010
0100
0001
0010
0100
0001
,  // measure 51
0000
0001
0100
0010
1000
0010
0100
1000
,  // measure 52
0001
0100
0010
0002
0000
1003
0100
0010
,  // measure 53
1000
0002
0000
0103
0010
0001
0010
1000
,  // measure 54
0001
0010
1000
1MMM
1001
0010
0100
0110
,  // measure 55
0010
0000
1000
0000
1001
0000
0001
0000
0010
0000
0110
0000
0010
0100
0010
0100
,  // measure 56
1000
0000
0010
M000
0010
0000
0011
0000
0000
0000
0010
0000
0001
0000
010M
0000
,  // measure 57
0100
0000
1100
0000
0000
0000
0100
0000
1000
0000
0010
0100
0010
0100
0010
0000
,  // measure 58
0100
0001
1000
0010
0100
0001
0010
0100
0010
0001
0010
0100
1000
0001
1000
0001
,  // measure 59
2000
0000
0000
3020
0000
0000
0230
0000
,  // measure 60
0000
0000
0302
0000
0000
0000
0000
0000
2003
0000
0000
0000
0000
0000
3001
0010
,  // measure 61
0100
0000
0000
0000
0000
0000
1000
0000
0000
0001
0000
0000
0100
0000
0000
0000
0000
0000
0000
0000
0001
0000
0000
0000
0010
0000
0000
0000
0100
0000
0000
0000
0001
0000
0000
0000
1000
0000
0000
0000
0010
0000
0000
0000
0001
0000
0000
0000
,  // measure 62
1000
0000
0000
0000
0001
0000
0000
0000
0100
0000
0000
0000
0010
0000
0000
0100
0000
0000
0001
0000
0000
0010
0000
0000
1000
0000
0000
0010
0000
0000
0100
0000
0000
1000
0000
0000
0001
0000
0000
0100
0000
0000
0010
0000
0000
0000
0000
0000
,  // measure 63
0100
0001
0010
0100
0001
1000
0010
0100
,  // measure 64
1000
0010
0100
1000
1100
0000
0100
0000
,  // measure 65
0101
0000
0001
0000
0010
0010
0100
0100
,  // measure 66
1000
0100
0010
0001
0100
0010
1000
0001
0010
0000
0000
0000
0000
0000
0000
0000
,  // measure 67
1100
0000
0000
0000
;

//---------------dance-single - ----------------
#NOTES:
     dance-single:
     :
     Hard:
     13:
     0.582420,0.669498,0.159880,0.069948,0.139895,408.000000,392.000000,16.000000,7.000000,0.000000,0.000000,0.582420,0.669498,0.159880,0.069948,0.139895,408.000000,392.000000,16.000000,7.000000,0.000000,0.000000:
0000
0000
0000
0000
,
0000
0000
0000
0000
,
0000
0000
0000
0000
,
0000
0000
0000
0000
,
0000
0000
0000
0000
,
0000
0000
0000
0000
,
0000
0000
0000
0000
,
0000
0000
0000
0000
,
0001
1000
0100
0010
0000
0100
1000
0010
,
0000
1000
0100
0010
0001
0000
0110
0000
,
0001
0000
0010
0100
0000
0010
1000
0000
,
0010
0100
1000
0001
0100
0010
1000
0001
,
1000
0001
0010
0100
0000
0010
0001
0100
,
0000
0001
0010
0100
1000
0000
0110
0000
,
1000
0000
0100
0010
0000
0100
0001
0000
,
0100
0010
0001
1000
0010
0100
0001
1000
,
0001
0100
0010
0200
1000
0000
0010
0000
,
0001
0010
1000
1000
,
1300
0000
0100
0010
0000
1000
0001
0000
,
0010
0100
0010
0001
1000
0100
0010
0001
,
1000
0010
0100
0020
0001
0000
0100
0000
,
1000
0100
0001
0001
,
0031
0010
1000
0001
0100
1000
0100
0001
,
1000
0010
0001
1000
0001
0010
1000
0000
,
1010
0000
1001
0000
0011
0000
0010
0100
,
0000
0010
0001
1000
0001
0010
0100
0010
,
0001
1000
0010
0000
0010
1000
0001
0010
,
0100
0000
0000
1000
0000
0000
1000
0000
0000
0010
0000
0000
0100
0000
0000
0000
0100
0000
0000
0000
0100
0000
0000
0000
,
0110
0000
0101
0000
1001
0000
0001
0010
,
0100
0000
0000
0000
0000
0000
0000
0010
0000
0000
0000
0000
0000
0000
0000
0000
0000
0000
0000
0000
0000
0100
0000
0000
0000
0000
0000
0000
0010
0000
0000
0000
0000
0000
0000
0000
0000
0000
0000
0000
0000
0000
0100
0000
0000
0000
0000
0000
0000
0010
0000
0000
0000
0000
0000
0000
0000
0000
0000
0000
0000
0000
0000
0000
,
0011
0000
0110
0000
1100
0100
1000
0001
,
0100
1000
0100
0010
0001
0010
1000
0100
,
0010
0000
0000
0010
0001
0000
0000
0001
0100
0000
0000
0100
0010
0000
0000
0010
,
1000
0000
0000
1000
0001
0000
0000
0001
0010
0000
0000
0010
0100
0000
0000
0000
,
0110
0000
0000
0100
1000
0000
0000
1000
0010
0000
0000
0010
0100
0000
0000
0100
,
0001
0000
0000
0001
1000
0000
0000
1000
0100
0000
0000
0100
0010
0000
0000
0000
,
0010
0001
1000
0020
0100
0000
1000
0000
,
0130
0000
0010
1000
0001
0000
1000
0001
,
0010
0100
1000
0010
0200
0000
0001
0000
,
0010
0000
0310
0000
0100
0001
0010
0100
,
1000
0001
0100
1000
0100
0001
0010
0100
,
0001
1000
0010
0100
1000
0010
0001
0010
,
1000
0010
0100
0001
0010
0100
1000
0010
,
0100
1000
0100
0001
0010
0100
1000
0001
,
0100
1000
0100
0001
0100
1000
0100
0010
,
1000
0001
0100
0010
0100
0002
0000
0000
,
1003
0100
0010
0100
0001
0100
0010
0001
,
1000
0100
0001
0100
0010
1000
0001
1000
,
0010
0100
1000
0001
0000
0001
1000
0100
,
0010
1000
0000
1000
0010
0100
1000
0010
,
0001
1000
0100
0010
0001
0010
0100
0001
,
0000
0001
1000
0010
0100
0001
1000
0000
,
0001
0010
1000
0001
0000
0001
1000
0010
,
0001
1000
0000
1000
0001
0010
0100
0010
,
1000
0010
0100
0100
0010
0010
0001
0100
,
0010
0100
0001
0010
0100
1000
0010
0001
,
0010
0100
0001
1000
0000
1000
0010
0100
,
0001
1000
0100
0001
0100
0010
1000
0010
,
0100
1000
0001
0010
1000
0001
0100
0010
,
0120
0000
0000
1000
0000
0000
0100
0000
,
0000
0001
0000
0000
0200
0000
0330
0000
,
0110
0000
0000
0110
0000
0000
0010
0001
1000
0001
1000
0001
,
1000
0000
0010
0000
0100
0000
0010
0000
1000
0100
0010
0000
0001
0000
0100
0000
,
0010
0000
0010
1000
0000
1000
0001
0000
,
0001
0010
0000
0010
0100
0000
1000
0000
,
0001
0000
0100
0000
0010
0100
0010
1000
,
0010
1000
0010
0000
1000
0001
1000
0000
0100
0000
0000
0000
0000
0000
0000
0000
,
0110
0000
0000
0000
;
