#TITLE:オープニング;
#SUBTITLE:~新・光神話 パルテナの鏡~;
#ARTIST:光田 康典;
#TITLETRANSLIT:Opening;
#SUBTITLETRANSLIT:-Kid Icarus Uprising-;
#ARTISTTRANSLIT:Yasunori Mitsuda;
#GENRE:;
#CREDIT:BadWolf;
#BANNER:[Week 1] - Opening.png;
#BACKGROUND:[Week 1] - Opening-bg.png;
#LYRICSPATH:;
#CDTITLE:cdtitle.png;
#MUSIC:[Week 1] - Opening.ogg;
#OFFSET:-0.030000;
#SAMPLESTART:4.269731;
#SAMPLELENGTH:11.428572;
#SELECTABLE:YES;
#DISPLAYBPM:168.000000;
#BPMS:0.000000=168.000000
,200.000000=166.500000
;
#STOPS:
;
#BGCHANGES:;
#KEYSOUNDS:;
#ATTACKS:;

//---------------dance-single - ----------------
#NOTES:
     dance-single:
     :
     Hard:
     13:
     0.563634,0.758370,0.180363,0.428362,0.371999,350.000000,334.000000,16.000000,38.000000,0.000000,0.000000,0.563634,0.758370,0.180363,0.428362,0.371999,350.000000,334.000000,16.000000,38.000000,0.000000,0.000000:
0000
0000
0000
0000
,
0000
0000
0000
0000
,
0000
0000
0000
0000
,
1000
0001
1000
0001
0000
0010
0100
0000
0000
1000
0010
1000
,
0002
0103
2000
3010
,
0001
1000
0001
1000
0000
0100
0010
0000
0000
0001
0100
0001
,
2000
3200
0320
0032
,
1003
0010
1000
0010
0000
0100
0001
0000
0000
0010
0100
1000
,
0002
0103
2000
3010
,
1000
0100
1000
0100
0000
0010
0001
0000
0000
0100
0010
1000
,
0002
0013
2000
3100
,
0001
0000
0010
0100
0000
1000
0010
1000
,
0002
0023
0230
2300
,
3001
0000
1000
0010
0000
1000
0100
0010
,
0001
0000
1000
0000
0010
0100
0001
1000
,
0001
0000
0010
0100
0000
1000
0010
1000
,
0001
0000
1000
0100
0000
0100
0010
0000
,
0002
0103
2000
3010
,
0001
0000
0100
0000
1000
0000
0100
0000
0001
0000
0010
0000
0100
0000
1000
0001
,
1000
0000
0010
0000
1000
0100
0010
0002
,
0000
0000
0203
0000
0000
0000
0320
0000
0000
0000
1030
0001
1000
0000
0001
0000
,
0010
0000
0000
0000
0100
0000
0000
0000
1000
0000
0000
0010
0000
0000
1000
0000
,
0001
0000
0000
0000
0010
0000
0001
1000
0001
0000
0000
0000
1000
0000
0100
0000
,
0010
0000
0001
0000
0100
0010
1000
0002
,
0000
0000
0023
0000
0000
0000
0230
0000
0000
0000
1300
0001
1000
0000
0001
0000
,
0100
0000
0000
0000
0010
0000
0000
0000
1000
0000
0000
0100
0000
0000
0010
0000
,
0001
0000
0000
0000
0100
0000
0000
0000
0010
0000
1000
0001
1000
0001
1000
0001
,
1000
0000
0000
0010
0000
1000
0100
1000
0100
1000
0001
1000
,
0001
0100
0001
0100
0010
0100
0010
1000
0000
0000
0001
1000
,
0001
0000
0010
0100
0000
0100
1000
0010
,
1000
0100
0001
0100
0000
1000
0010
0100
,
0001
0000
1000
0000
0001
0000
1000
0000
0000
0100
0000
0000
0010
0000
0001
0000
0010
0000
0001
0000
0000
1000
0000
0000
,
0001
0000
0100
0010
0100
0000
0001
1000
0001
0000
0000
0000
0010
0000
0001
0000
,
1000
0100
0010
0001
0000
1000
0001
0001
,
1000
0010
1000
0001
0100
0001
1000
0100
0010
0001
0010
0100
,
1000
0000
0010
0000
1000
0100
0010
0001
,
0000
0100
0010
0000
1000
0001
1000
0000
,
0001
0000
0010
0000
0001
0100
0010
1000
,
0000
0000
0100
0000
0010
0000
0000
0000
0001
0000
1000
0001
1000
0000
0001
0000
,
0101
0000
0101
0000
0100
0010
1000
0100
,
0000
0110
0000
0011
0000
0001
1000
0000
,
1010
0000
1010
0000
0010
0100
0001
0010
,
0000
0000
0110
0000
0000
0000
0100
0000
1000
0010
1000
0000
0001
1000
0001
0000
,
0011
0000
0011
0000
0010
0100
1000
0010
,
0000
0110
0000
0101
0000
0001
1000
0000
,
1100
0000
1100
0000
0100
0010
0001
0100
,
0000
0110
0000
0010
1000
0100
0001
0100
,
1000
0000
0001
0000
1000
0000
0001
0000
0000
0000
0000
0000
0010
0000
0000
0100
0000
0000
1000
0000
0000
0001
0000
0000
,
0000
1000
0001
0000
0100
0010
1000
0000
,
0001
0000
1000
0000
0000
0000
1001
0000
0000
0000
0001
0000
1000
0001
1000
0001
,
2000
0000
0000
0000
,
0000
0000
3200
0320
,
0031
1000
0002
0000
0000
0000
0000
0000
,
0000
0000
0203
0320
,
1030
0001
2000
0000
0000
0000
0000
0000
,
3200
0000
0320
0230
,
2300
0000
0000
0000
3000
0000
0001
1000
0002
0000
0000
0000
0003
0000
0100
0010
,
0200
0000
0000
0000
0300
0000
0001
1000
0002
0000
0000
0000
0003
0000
0000
0000
,
0000
2002
0000
0000
0000
0000
0000
0000
0000
0000
0000
0000
0000
0000
0000
0000
3003
0000
0000
0000
0000
0000
0000
0000
0000
0000
0000
0000
0000
0000
0000
0000
;

//---------------dance-single - ----------------
#NOTES:
     dance-single:
     :
     Medium:
     8:
     0.331739,0.428644,0.011273,0.450907,0.028182,206.000000,205.000000,1.000000,40.000000,0.000000,0.000000,0.331739,0.428644,0.011273,0.450907,0.028182,206.000000,205.000000,1.000000,40.000000,0.000000,0.000000:
0000
0000
0000
0000
,
0000
0000
0000
0000
,
0000
0000
0000
0000
,
1000
0000
0001
1000
0000
0000
0100
0000
0000
0010
0000
0000
,
0002
0000
2000
3003
,
0001
0000
1000
0001
0000
0000
0100
0000
0000
0010
0000
0000
,
2000
3200
0320
0032
,
1003
0000
0001
1000
0000
0000
0010
0000
0000
0100
0000
0000
,
0002
0000
2000
3003
,
0001
0000
1000
0001
0000
0000
0010
0000
0000
0100
0000
0000
,
2000
0000
0000
3000
,
0001
0000
0100
0001
0000
1000
0000
0001
,
1000
0100
0010
0001
,
2000
0000
0000
3020
0000
0000
0230
0000
,
0000
0000
0300
0000
0000
0001
1000
0001
,
1000
0000
0100
1000
0000
0001
1000
0001
,
1000
0000
0100
0010
0000
0001
1000
0000
,
0020
0000
0000
0030
,
1000
0100
1000
0000
0010
0000
0100
0000
,
0002
0000
0000
0000
0013
0200
0000
2300
,
0000
3002
0000
2003
0000
3010
0100
0010
,
0200
0000
0301
1000
,
0002
0000
2000
3003
,
0002
0000
0000
0000
0013
0200
0000
2300
,
0000
3020
0000
0230
0000
0301
1000
0001
,
2000
0000
3100
0010
,
0002
0000
0000
1003
,
0020
0000
1030
0100
,
0010
0100
1000
0001
,
1000
0000
0010
0100
0000
0100
0001
0000
,
0010
0100
0010
0100
0000
1000
0001
1000
,
0001
0100
0010
0100
,
0001
1000
0100
0010
,
0001
1000
0001
0001
,
1000
0000
1000
0000
0001
0100
0001
0000
,
1000
1000
0010
0100
,
0001
0001
0010
0100
,
1000
1000
0010
1000
,
0001
0000
1000
0000
0001
1000
0001
0000
,
1000
0000
1000
0000
0010
0100
0000
0001
,
0000
0010
0000
0100
0000
1000
0001
0000
,
0100
0000
0100
0000
0010
1000
0000
0100
,
0000
0010
0000
0000
0001
1000
0001
1000
,
0001
0000
0001
0000
0100
0010
0000
1000
,
0000
0100
0000
0010
0000
0001
1000
0000
,
0010
0000
0010
0000
0100
0001
0000
0010
,
0000
0100
0000
0000
1000
0001
1000
0001
,
1000
0000
0010
0000
0100
0000
0001
2000
,
0000
3002
0000
0003
,
1000
0100
0000
0010
0000
0001
1000
0000
,
0002
0000
0000
0000
,
0000
0003
1000
0010
,
2000
0000
0000
0000
,
0000
3000
0001
0100
,
0002
0000
0000
0000
,
2003
0000
3100
0010
,
0002
0000
0000
0000
0000
0000
0000
2003
,
0000
0000
3000
0002
0000
0000
0003
0000
,
0000
2002
0000
0000
0000
0000
0000
0000
0000
0000
0000
0000
0000
0000
0000
0000
3003
0000
0000
0000
0000
0000
0000
0000
0000
0000
0000
0000
0000
0000
0000
0000
;

//---------------dance-single - ----------------
#NOTES:
     dance-single:
     :
     Easy:
     2:
     0.088571,0.163454,0.011273,0.045091,0.000000,55.000000,54.000000,1.000000,4.000000,0.000000,0.000000,0.088571,0.163454,0.011273,0.045091,0.000000,55.000000,54.000000,1.000000,4.000000,0.000000,0.000000:
// measure 0
0000
0000
0000
0000
,  // measure 1
0000
0000
0000
0000
,  // measure 2
0000
0000
0000
0000
,  // measure 3
1000
0000
0000
0000
,  // measure 4
0001
0000
0000
0000
,  // measure 5
1000
0000
0000
0000
,  // measure 6
0001
0000
0000
0000
,  // measure 7
0100
0000
0000
0000
,  // measure 8
0010
0000
0000
0000
,  // measure 9
0100
0000
0000
0000
,  // measure 10
0010
0000
0000
0000
,  // measure 11
1000
0000
0000
0000
,  // measure 12
0100
0000
0000
0000
,  // measure 13
0010
0000
0000
0000
,  // measure 14
0001
0000
0000
0000
,  // measure 15
1000
0000
0000
0000
,  // measure 16
0010
0000
0000
0000
,  // measure 17
0100
0000
0000
0000
,  // measure 18
0001
0000
0000
0000
,  // measure 19
1000
0000
0000
0000
,  // measure 20
0001
0000
0000
0000
,  // measure 21
0010
0000
0000
0000
,  // measure 22
0100
0000
0000
0000
,  // measure 23
1000
0000
0000
0000
,  // measure 24
0001
0000
0000
0000
,  // measure 25
0100
0000
0000
0000
,  // measure 26
0010
0000
0000
0000
,  // measure 27
1000
0000
0000
0000
,  // measure 28
0001
0000
0000
0000
,  // measure 29
1000
0000
0000
0000
,  // measure 30
0001
0000
0000
0000
,  // measure 31
0010
0000
0000
0000
,  // measure 32
0100
0000
0000
0000
,  // measure 33
0010
0000
0000
0000
,  // measure 34
0100
0000
0000
0000
,  // measure 35
1000
0000
1000
0000
,  // measure 36
0000
0000
0000
0000
,  // measure 37
0001
0000
0001
0000
,  // measure 38
0000
0000
1000
0001
,  // measure 39
1000
0000
0000
0000
,  // measure 40
0001
0000
0000
0000
,  // measure 41
1000
0000
0000
0000
,  // measure 42
0001
0000
0000
0000
,  // measure 43
0010
0000
0000
0000
,  // measure 44
0100
0000
0000
0000
,  // measure 45
0010
0000
0000
0000
,  // measure 46
0100
0000
0000
0000
,  // measure 47
1000
0000
0000
0000
,  // measure 48
0010
0000
0000
0000
,  // measure 49
0100
0000
0000
0000
,  // measure 50
0002
0000
0000
0000
,  // measure 51
0000
0000
0003
0000
,  // measure 52
2000
0000
0000
0000
,  // measure 53
0000
0000
3000
0000
,  // measure 54
0200
0000
0000
0000
,  // measure 55
0000
0000
0300
0000
,  // measure 56
0020
0000
0000
0000
,  // measure 57
0000
0000
0030
0000
,  // measure 58
1001
0000
0000
0000
;
