#VERSION:0.83;
#TITLE:Milky Way Galaxy (SIHanatsuka Remix);
#SUBTITLE:;
#ARTIST:3R2;
#TITLETRANSLIT:;
#SUBTITLETRANSLIT:;
#ARTISTTRANSLIT:;
#GENRE:;
#CREDIT:;
#MUSIC:Milky Way Galaxy (SIHanatsuka Remix).ogg;
#BANNER:Milky Way Galaxy (SIHanatsuka Remix).png;
#BACKGROUND:Milky Way Galaxy (SIHanatsuka Remix)-bg.png;
#CDTITLE:;
#SAMPLESTART:87.769;
#SAMPLELENGTH:15.000;
#SELECTABLE:YES;
#OFFSET:2.746;
#BPMS:0.000=87.500
,18.000=175.000
,54.000=87.500
,68.000=175.000
,132.000=87.500
,133.000=350.000
,136.000=175.000
,136.500=87.500
,140.000=350.000
,141.000=175.000
,141.500=87.500
,145.000=350.000
,146.000=175.000
,146.500=87.500
,154.000=350.000
,155.000=175.000
,155.500=87.500
,159.000=350.000
,160.000=175.000
,160.500=87.500
,164.000=350.000
,165.000=175.000
,165.500=87.500
,173.000=175.000
,201.000=87.500
,202.000=175.000
,264.000=87.500
,266.000=175.000
;
#STOPS:133.000=0.043
,133.250=0.043
,133.500=0.043
,133.750=0.043
,134.000=0.043
,134.250=0.043
,134.500=0.043
,134.750=0.043
;
#BGCHANGES:;
#FGCHANGES:;

//--------------- dance-single - Talkion ----------------
#NOTEDATA:;
#STEPSTYPE:dance-single;
#DESCRIPTION:Talkion;
#DIFFICULTY:Beginner;
#METER:4;
#RADARVALUES:0,0,0,0,0;
#NOTES:
0000
0000
0000
0000
,
0000
0000
0000
0000
,
0000
0000
0000
0000
,
0000
0000
0000
0000
,
0000
0000
0000
0000
,
0000
0000
0000
0000
1000
0000
0000
1000
,
0000
0000
0000
0000
,
0000
0000
0000
0000
0001
0000
0000
0001
,
0000
0000
0000
0000
,
0000
0000
0000
0000
0100
0000
0000
0100
,
0000
0000
0000
0000
,
0000
0000
0000
0000
0010
0000
0000
0010
,
0000
0000
0000
0000
,
0000
0000
2000
3000
,
0200
0300
0020
0030
,
0002
0003
0200
0300
,
0020
0030
2000
3000
,
0000
0000
0000
0000
,
0001
0000
0000
0001
0000
0000
0000
0000
,
0000
0000
0000
0000
,
1000
0000
0000
1000
0000
0000
0000
0000
,
0000
0000
0000
0000
,
0100
0000
0000
0100
0000
0000
0000
0000
,
0000
0000
0000
0000
,
0010
0000
0000
0010
0000
0000
0000
0000
,
0000
0000
0000
0000
,
0001
0000
0001
0000
,
0001
0000
0001
0000
,
1000
0000
1000
0000
,
1000
0000
1000
0000
,
0000
0110
0000
0110
,
0000
0110
0000
0010
,
0010
0000
0000
0010
0000
0000
0020
0000
,
0030
0000
0000
1001
,
0000
0001
0001
0000
,
1001
0000
1000
1000
,
0000
1001
0000
0001
,
0001
0000
2000
3000
,
0002
0003
0110
0000
,
0100
0100
0000
0110
,
0000
0010
0010
0000
,
0110
0000
0100
0100
,
0000
0002
0003
2000
,
3000
0001
0000
0001
,
0000
0001
0000
0001
,
0000
1000
0000
1000
,
0000
1000
0000
1000
,
0000
0000
0110
0000
,
0110
0000
0110
0000
,
0100
0000
0100
0000
0000
0100
0000
0000
,
0200
0300
0000
0000
,
0001
0000
0001
0000
,
0010
0000
0010
0000
,
0100
0000
0100
0000
,
1000
0000
1000
0000
,
0010
0000
0010
0000
,
1000
0000
1000
0000
,
0100
0000
0100
0000
,
0010
0000
0010
0000
,
0001
0000
0001
0000
,
0100
0000
1000
0000
,
0100
0000
0100
0000
,
0001
0000
1000
0000
,
0100
0000
0100
0000
,
0001
0000
0100
0000
,
1000
0000
1000
0000
,
0020
0030
0200
0000
,
0300
0020
0000
0000
,
0000
0030
2000
0000
,
3000
0002
0000
0000
,
0000
0003
0020
0000
,
0030
0200
0000
0000
,
0000
0000
0300
0000
1000
0000
0000
1000
,
0000
1000
0002
0000
,
0000
0000
0003
0000
;

//--------------- dance-single - Talkion ----------------
#NOTEDATA:;
#STEPSTYPE:dance-single;
#DESCRIPTION:Talkion;
#DIFFICULTY:Easy;
#METER:7;
#RADARVALUES:0,0,0,0,0;
#NOTES:
0000
0000
0000
0000
,
0000
0000
0000
0000
,
0000
0000
0000
0000
,
0000
0000
0000
0000
,
0000
0000
0000
0000
,
0000
0000
0000
0000
1001
0000
0000
0201
,
0000
0000
0000
0000
,
0010
0000
0310
0000
1001
0000
0000
1200
,
0000
0000
0000
0000
,
0010
0000
0310
0000
1001
0000
0000
0210
,
0000
0000
0000
0000
,
0010
0000
0310
0000
1001
0000
0000
0120
,
0000
0000
0100
0130
,
1001
0000
0001
0010
,
0100
0010
0001
0000
2000
0000
0000
0000
,
0010
0000
0000
3010
0000
0000
0000
0000
1000
0000
0000
0000
0100
0000
0000
0000
,
0010
0000
0000
0000
0001
0000
1000
0000
0020
0000
0000
0100
0000
0000
0000
0000
,
0130
0000
0010
0010
,
1001
0000
0000
0021
0000
0000
0000
0000
,
0000
0000
0100
0130
,
1001
0000
0000
1020
0000
0000
0000
0000
,
0000
0000
0100
0130
,
0110
0000
0000
1002
0000
0000
0000
0000
,
0000
0000
0010
0013
,
0110
0000
0000
2001
0000
0000
3020
0000
,
0230
0000
0302
0000
,
2003
0000
0100
0000
,
0100
0000
0100
0000
,
3001
0001
0100
0100
,
0010
0010
1000
1000
,
0000
0110
0000
0101
,
0000
1100
0000
0010
,
0110
0000
0000
0101
0000
0000
1100
0000
,
1001
0000
0000
0101
,
0000
0000
0100
0010
0000
0010
0100
0000
,
1001
0000
0000
0000
1000
0100
0000
0100
,
0010
0000
0011
0000
0000
0000
0001
1000
,
0000
1000
0001
0000
0200
0000
0310
0000
,
1000
1000
0001
0000
1100
0000
0000
0000
,
0100
0010
0000
0010
0100
0000
1001
0000
,
0000
0000
0001
0100
0000
0100
0010
0000
,
1010
0000
0000
0000
1000
0001
0000
0001
,
1000
0000
0200
0000
0310
0000
0001
0001
,
1000
0020
0000
0100
,
0000
0100
0000
0100
,
0000
1030
1000
0100
,
0100
0010
0010
0001
,
0001
0000
1100
0000
,
0101
0000
0110
0000
,
0001
0000
1001
0000
0000
1010
0000
0000
,
0011
0220
0330
0000
,
1000
0100
0020
0032
,
0103
1000
0200
0320
,
1030
0001
0020
0230
,
1300
0001
0200
0320
,
0130
0001
2000
3200
,
0301
0100
2000
3020
,
0031
0010
2000
3002
,
0013
0100
2000
3002
,
0103
0000
0010
0000
0100
0010
0100
0000
,
0001
0000
1000
0000
0001
1000
0001
0000
,
0010
0000
0100
0000
1000
0100
1000
0000
,
0010
0000
0100
0000
0001
0100
0001
0000
,
1000
0000
0100
0000
0001
0100
1000
0000
,
0001
0000
0100
0000
1000
0100
0001
0000
,
1000
0000
0100
0000
0010
0001
0100
0000
,
0020
0030
2001
0100
,
0000
0010
0000
0100
,
0000
3010
1002
0100
,
0000
0010
0000
0100
,
0000
0013
1200
0010
,
0000
0001
0000
1000
,
0000
0000
0301
0000
0110
0000
0000
0101
,
0000
1100
2002
0000
,
0000
0000
3003
0000
;

//--------------- dance-single - Talkion ----------------
#NOTEDATA:;
#STEPSTYPE:dance-single;
#DESCRIPTION:Talkion;
#DIFFICULTY:Medium;
#METER:11;
#RADARVALUES:0,0,0,0,0;
#NOTES:
0000
0000
0000
0000
,
0000
0000
0000
0000
,
0000
0000
0000
0000
,
0000
0000
0000
0000
,
0000
0000
0100
0100
,
0010
0100
0010
0000
2200
0000
3300
0022
,
0000
0030
1000
0000
,
0100
0000
0103
0000
0202
0000
0303
2020
,
0000
0030
0100
0000
,
0100
0000
3100
0000
0220
0000
0330
2002
,
0000
3000
0100
0000
,
0100
0000
0103
0000
0220
0000
0330
2001
,
0000
0000
0000
0000
0000
0000
0000
0000
3100
0000
0000
0010
0000
0000
0001
0000
,
1000
0001
1000
0000
0020
0000
0230
0000
,
0302
2003
3200
0320
0032
0000
0000
2003
,
3010
0100
0000
0010
0000
0100
0000
0000
0020
0000
0000
0000
2030
0000
0000
0000
,
3200
0000
0000
0000
0320
0000
0032
0000
2003
0000
0000
3010
0000
0000
0000
0000
,
0100
0000
0100
0000
0010
0100
0010
0000
,
2002
0000
3003
0021
0000
0000
0000
0000
,
0100
0000
0001
0031
,
2002
0000
3003
1020
0000
0000
0000
0000
,
0100
0000
1000
1030
,
2200
0000
3300
0202
0000
0000
0300
0000
,
1000
0000
0010
0013
,
0022
0000
0033
2010
0000
0000
3002
0000
,
0000
0023
0000
0000
0100
0000
0130
0000
,
1000
1000
0001
0001
,
0100
0100
0010
0010
,
1000
1000
0100
0100
,
0010
0010
0001
0001
,
1000
0110
0001
0110
,
1000
0110
0001
0110
,
1000
0100
0010
0001
0100
0010
1000
0001
,
2002
3003
0000
1100
,
0000
0000
1000
0100
0001
0100
1000
0010
,
0110
0000
0000
0000
0000
0000
0000
0000
0001
0000
0010
0000
0100
0010
0100
0000
,
0010
0001
0101
0000
0000
0000
0001
0100
,
1000
0100
0001
0010
0110
0000
1000
0001
,
1000
0001
1000
0000
0100
0000
0010
0000
0011
0000
0000
0000
0000
0000
0000
0000
,
0001
1000
0010
0001
0010
0100
0110
0000
,
0000
0000
0000
0000
0010
0000
1000
0000
0100
0010
0100
0000
1000
0000
0010
0000
,
1010
0000
0000
0000
1000
0001
0010
1000
,
0010
0000
0100
0000
0110
0000
0000
0000
0001
0000
1000
0000
0001
1000
0001
0000
,
0200
0310
0010
1000
,
1000
0100
0100
0010
,
0010
0001
0001
0100
,
0100
0010
0010
1000
,
1000
0001
0110
1000
,
0110
0001
0110
1000
,
0110
0000
0001
0010
1000
0010
0001
0010
,
0100
1000
1001
0000
1001
0000
0000
0000
,
0002
0000
0000
0203
0000
0000
0010
0000
0310
0000
1000
0000
0100
0000
0000
0000
,
2000
0000
0000
3002
0000
0000
0100
0000
0103
0000
0010
0000
1000
0000
0000
0000
,
0200
0000
0000
0320
0000
0000
0001
0000
0031
0000
1000
0000
0010
0000
0000
0000
,
0200
0000
0000
0320
0000
0000
1000
0000
1030
0000
0001
0000
0010
0000
0000
0000
,
0200
0000
0000
2300
0000
0000
0010
0000
3010
0000
0100
0000
0010
0000
0000
0000
,
0002
0000
0000
0023
0000
0000
0100
0000
0130
0000
0010
0000
1000
0000
0000
0000
,
0002
0000
0000
0023
0000
0000
0100
0000
0130
0000
1000
0000
0001
0000
0000
0000
,
2000
0000
0000
3200
0000
0000
0010
0000
0310
0000
0001
0000
1000
0000
0000
0000
,
0010
0000
0000
0010
0000
0000
0010
0000
1000
0000
0100
0000
0010
0000
0001
0000
,
0100
0000
0000
0100
0000
0000
0100
0000
0010
0000
1000
0000
0100
0000
0010
0000
,
0001
0000
0000
0001
0000
0000
0001
0000
0010
0000
0100
0000
1000
0000
0010
0000
,
0100
0000
0000
0100
0000
0000
0100
0000
0001
0000
1000
0000
0100
0000
0010
0000
,
0001
0000
0000
0001
0000
0000
0001
0000
0100
0000
1000
0000
0100
0000
0001
0000
,
0100
0000
0000
0100
0000
0000
0100
0000
0010
0000
1000
0000
0010
0000
0001
0000
,
0010
0000
0000
0010
0000
0000
0010
0000
1000
0000
0100
0000
0010
0000
0001
0000
,
0100
0010
0110
0000
2000
0000
0100
0000
,
3010
0100
0010
0100
0002
0000
0010
0000
,
0103
0010
0100
0010
2000
0000
0100
0000
,
3001
0010
0100
1000
0002
0000
0100
0000
,
1003
0100
0010
0001
0200
0000
1000
0000
,
0310
1000
0100
1000
0020
0000
0001
0000
,
0130
0001
0010
0001
0100
0010
1000
0100
,
0010
0001
1000
0001
2002
0000
0000
0000
,
0000
0000
3003
0000
;

//--------------- dance-single - Talkion ----------------
#NOTEDATA:;
#STEPSTYPE:dance-single;
#DESCRIPTION:Talkion;
#DIFFICULTY:Hard;
#METER:15;
#RADARVALUES:0,0,0,0,0;
#NOTES:
0000
0000
0000
0000
,
0000
0000
0000
0000
,
0000
0000
0000
0000
,
0000
0000
0000
0000
,
0000
0000
0000
0000
0000
0000
0000
0000
0010
0000
0000
0000
0010
0000
1000
0001
,
1000
0000
0100
0010
0100
0000
0010
0000
1002
0000
0000
0000
0103
0000
0210
0000
,
0000
0000
1000
0000
,
0310
0000
1000
0001
1000
0000
0100
0000
0210
0000
0000
0000
1300
0000
2001
0000
,
0000
0000
0000
0000
0000
0000
0000
0000
0010
0000
0000
0000
3000
0000
0100
0010
,
0001
0000
0100
0001
0100
0000
0010
0000
1002
0000
0000
0000
0013
0000
0120
0000
,
0000
0000
1000
0000
,
0130
0000
1000
0001
1000
0000
0010
0000
0120
0000
0000
0000
1030
0000
2001
0000
,
0000
0000
0000
0000
0000
0000
0000
0000
3100
0000
0000
0110
0000
0000
0001
0100
,
0010
0100
0100
0000
0020
0000
2030
0000
,
3200
0302
0203
0320
0032
0000
0000
0203
,
0320
1000
0000
0100
0000
0032
0000
0000
0023
0000
0000
0000
2030
0000
0000
0000
,
3002
0000
0000
0000
0023
0000
2030
0000
3020
0000
0000
0032
0000
0000
0000
0000
,
0103
0000
0000
0000
0100
0000
0001
1000
0001
0000
0010
0100
0010
0000
0100
0000
,
2001
0000
3010
0210
0000
0000
0000
0000
,
1000
0000
0000
0000
0000
0000
0000
0000
0301
0000
1000
0100
1000
0000
0010
0000
,
0120
0000
1030
1200
0000
0000
0000
0000
,
0001
0000
0000
0000
0300
0000
0010
0001
0100
0000
0010
0100
0010
0000
1000
0000
,
1002
0000
0013
0210
0000
0000
0000
0000
,
0001
0000
0000
0000
0000
0000
0000
0000
1300
0000
0001
0010
0001
0000
0100
0000
,
0210
0000
0301
0021
0000
0000
0230
0000
,
1000
0000
0000
0000
0300
0000
0010
0001
0010
0001
1000
0000
0010
0000
0100
0000
,
0100
0001
0010
1000
,
0100
0001
0010
1000
,
0100
0001
0010
0100
,
1000
0000
0000
0000
0001
0000
1000
0001
1000
0001
1000
0010
0100
0000
0010
0000
,
0110
0000
1001
0001
0010
0100
1100
1000
,
0010
0100
0101
0001
0010
0100
1100
1000
,
0110
0001
0010
0110
1000
0010
0110
0100
,
2002
3003
0000
0022
,
0000
0000
0033
0000
1001
0000
1000
0000
1010
0100
0101
0000
0001
0000
1000
0000
,
2200
0000
0000
0000
0000
0000
3300
0000
1001
0000
0001
0000
0101
0100
1010
0000
,
1000
0100
0010
0001
2002
0000
0000
0000
0000
0000
3000
0100
0203
0000
0320
0000
,
2030
3100
0110
0000
2001
0000
0010
3100
,
0110
0010
0011
0000
1001
0000
0000
0000
0202
0000
0000
0000
0000
0000
0303
0000
,
0110
0000
0100
0000
0101
0001
0011
0000
0100
0000
1000
0000
2020
0000
0000
0000
,
0000
0000
3030
0000
0110
0000
0010
0000
1010
1000
1100
0000
0100
0010
0001
0100
,
0220
0000
0000
0000
0000
0000
0300
1000
2030
0000
0001
3002
0000
0000
0013
0000
,
1001
0000
0000
0000
0210
0000
0000
0000
1000
0000
0301
0000
1100
0100
0101
0000
,
0010
0010
0000
0000
1000
0000
0000
0000
0100
0000
0000
0000
0001
0000
0000
0000
,
0010
1000
0100
0001
,
0010
1000
0100
0010
,
0001
0000
0000
0000
1000
0000
0000
0000
0010
0000
0100
0010
0100
0010
0100
0001
,
1000
0100
0110
0000
1001
0001
0010
1000
,
1010
0010
0001
0100
1100
1000
0100
0001
,
1001
1000
0110
0001
0100
0110
1000
0100
,
0110
0010
2002
3003
1001
0000
0000
0000
,
0002
0000
0000
0203
0000
0000
0310
0000
1000
0100
1000
0100
0010
0000
0100
0000
,
2000
0000
0000
3020
0000
0000
0130
0000
0001
0010
0001
0010
0100
0000
0010
0000
,
0002
0000
0000
2003
0000
0000
3010
0000
0100
0010
0100
0010
1000
0000
0001
0000
,
0020
0000
0000
0230
0000
0000
1300
0000
0100
0010
0100
0010
0001
0000
1000
0000
,
0020
0000
0000
0230
0000
0000
0301
0000
1000
0100
1000
0100
0010
0000
0001
0000
,
0020
0000
0000
0230
0000
0000
1300
0000
0001
0100
0001
0100
0010
0000
1000
0000
,
0020
0000
0000
0032
0000
0000
0013
0000
0100
0010
0100
0010
1000
0000
0100
0000
,
0002
0000
0000
0203
0000
0000
0310
0000
0100
0010
0100
0000
1001
0000
0000
0000
,
0002
0000
0103
0020
0000
0130
0001
0000
1000
0100
1000
0100
0010
0000
0100
0000
,
2000
0000
3001
0200
0000
0301
1000
0000
0100
0010
0100
0010
0001
0000
0010
0000
,
0200
0000
1300
0002
0000
1003
0100
0000
0010
0001
0010
0001
1000
0000
0010
0000
,
0200
0000
1300
0200
0000
0301
0100
0000
0010
1000
0010
1000
0001
0000
0010
0000
,
0200
0000
0301
0200
0000
0310
0001
0000
1000
0010
1000
0010
0100
0010
1000
0000
,
0200
0000
0310
2000
0000
3010
0100
0000
0010
0001
0010
0001
1000
0001
0100
0000
,
0020
0000
0031
0020
0000
0130
0001
0000
1000
0100
1000
0100
0010
0100
1000
0000
,
0001
0000
0100
0001
2002
0000
3003
0000
0001
0000
0010
0000
1000
0000
0010
0000
,
0100
1000
0010
0100
1000
0100
0001
1000
,
0100
0010
0001
1000
0010
0001
0010
0100
,
0001
0010
0100
1000
0010
0100
0001
1000
,
0100
0001
0100
1000
0100
0010
0001
1000
,
0010
0001
1000
0100
0001
1000
0100
0010
,
0001
1000
0001
0100
0110
1000
0100
0110
,
0001
0100
0110
0010
2002
0000
0000
0000
,
0000
0000
3003
0000
;
