#TITLE:Look At Her Now;
#SUBTITLE:;
#ARTIST:Selena Gomez;
#TITLETRANSLIT:;
#SUBTITLETRANSLIT:;
#ARTISTTRANSLIT:;
#GENRE:;
#CREDIT:;
#BANNER:[Week 1] - Look At Her Now.png;
#BACKGROUND:[Week 1] - Look At Her Now-bg.png;
#LYRICSPATH:;
#CDTITLE:[Week 1] - Look At Her Now-cdtitle.png;
#MUSIC:[Week 1] - Look At Her Now.ogg;
#OFFSET:-0.572630;
#SAMPLESTART:34.709000;
#SAMPLELENGTH:12.000000;
#SELECTABLE:YES;
#DISPLAYBPM:232.000000;
#BPMS:0.000000=231.759995
;
#STOPS:
;
#BGCHANGES:;
#KEYSOUNDS:;
#ATTACKS:;

//---------------dance-single - ----------------
#NOTES:
     dance-single:
     :
     Hard:
     14:
     0.578684,0.857058,0.571152,0.456922,0.000000,461.000000,396.000000,65.000000,52.000000,0.000000,0.000000,0.578684,0.857058,0.571152,0.456922,0.000000,461.000000,396.000000,65.000000,52.000000,0.000000,0.000000:
// measure 0
0000
0000
0000
0000
,  // measure 1
0000
0000
0000
0000
,  // measure 2
0000
0000
0000
0000
,  // measure 3
0000
0000
0000
0000
,  // measure 4
0000
0000
0000
0000
,  // measure 5
0000
0000
0000
0000
,  // measure 6
0000
0000
0000
0000
,  // measure 7
0000
0000
0000
0000
,  // measure 8
0000
0000
0000
0000
,  // measure 9
1000
0000
0000
0010
0000
0000
0100
0000
,  // measure 10
0010
0000
1000
0000
,  // measure 11
0100
0000
0000
0010
0000
0000
0001
0000
,  // measure 12
1000
0000
0001
0000
,  // measure 13
0100
0000
0000
0010
0000
0000
1000
0000
,  // measure 14
0001
0000
0010
0000
,  // measure 15
0100
0000
0000
1000
0000
0000
0100
0000
,  // measure 16
0010
0000
0001
0000
,  // measure 17
1000
0000
0000
0100
0000
0000
0010
0000
,  // measure 18
0100
0000
1000
0000
,  // measure 19
0001
0000
0000
0100
0000
0000
0010
0000
,  // measure 20
0100
0000
0001
0000
,  // measure 21
0001
0000
0000
0010
0000
0000
0100
0000
,  // measure 22
0010
0000
0001
0000
,  // measure 23
1000
0000
0000
0010
0000
0000
0100
0000
,  // measure 24
0010
0000
1000
0000
,  // measure 25
0001
0000
0100
0010
0000
0100
0010
0000
,  // measure 26
1000
0000
0100
0010
0000
0100
0010
0000
,  // measure 27
0001
0000
1000
0100
0010
0000
0001
0010
,  // measure 28
0100
1000
0001
0100
,  // measure 29
0010
0000
1000
0001
0000
1000
0001
0000
,  // measure 30
0100
0000
0001
1000
0000
0001
1000
0000
,  // measure 31
0200
0000
0000
0000
,  // measure 32
0300
0000
0000
0000
0010
0001
1000
0000
,  // measure 33
1010
0011
1010
0110
,  // measure 34
0101
1100
0101
1001
,  // measure 35
1000
0000
0100
0000
0010
0001
1000
0001
,  // measure 36
1000
0000
0010
0000
0100
0001
1000
0000
,  // measure 37
1100
0101
1100
0110
,  // measure 38
0011
1010
0011
1001
,  // measure 39
0001
2000
3010
0100
,  // measure 40
0001
0010
0100
1000
0010
0100
0001
0000
,  // measure 41
0101
1100
0101
0110
,  // measure 42
1010
0011
1010
1001
,  // measure 43
0001
0000
0100
0000
0010
1000
0001
1000
,  // measure 44
0001
0000
0010
0000
0100
1000
0001
0000
,  // measure 45
0101
1100
0101
0110
,  // measure 46
1010
0011
1010
1001
,  // measure 47
1000
0002
0103
0010
,  // measure 48
2000
0000
0000
3001
,  // measure 49
0010
0101
0010
0101
,  // measure 50
0010
0000
1000
0010
1000
0010
1000
0010
,  // measure 51
0100
0011
0100
0011
,  // measure 52
0100
0000
1000
0100
1000
0100
1000
0100
,  // measure 53
0010
1100
0010
1100
,  // measure 54
0001
0000
0100
0001
0100
0001
0100
0001
,  // measure 55
1000
0002
0013
0100
,  // measure 56
1000
0001
0100
0010
1000
0100
0010
0001
,  // measure 57
0010
1100
0010
0101
,  // measure 58
0001
0000
1000
0100
0010
0001
1000
0010
,  // measure 59
0100
1010
0100
0011
,  // measure 60
1000
0000
0001
0100
0010
1000
0001
0010
,  // measure 61
0100
0011
0100
1010
,  // measure 62
0001
0000
1000
0010
0100
0001
1000
0100
,  // measure 63
0010
1100
0010
0101
,  // measure 64
1000
0100
1000
0010
1000
0100
0010
0001
,  // measure 65
0020
0000
0000
0230
0000
0000
2300
0000
,  // measure 66
3002
0000
0203
0000
,  // measure 67
0310
0000
0000
1000
0000
0000
0001
0010
,  // measure 68
0100
1000
1001
0001
,  // measure 69
0200
0000
0000
0320
0000
0000
2030
0000
,  // measure 70
3002
0000
0023
0000
,  // measure 71
0130
0000
1000
0001
0000
0100
0001
0000
,  // measure 72
0100
0010
1000
0000
0100
0010
0001
1000
,  // measure 73
0200
0000
0000
0320
0000
0000
0032
0000
,  // measure 74
2003
0000
3020
0000
,  // measure 75
0130
0000
0000
0001
0000
0000
1000
0100
,  // measure 76
0010
0001
1001
1000
,  // measure 77
0020
0000
0000
0230
0000
0000
0302
0000
,  // measure 78
2003
0000
3200
0000
,  // measure 79
0310
0000
0000
0001
0000
0000
1000
0100
,  // measure 80
0010
0001
1000
0001
,  // measure 81
0100
0000
0000
0100
0000
0000
0200
0000
,  // measure 82
0000
0000
0000
0000
,  // measure 83
0310
0000
0000
0010
0000
0000
0020
0000
,  // measure 84
0000
0000
0000
0000
0130
0001
1000
0000
,  // measure 85
1100
1010
1100
1010
,  // measure 86
0110
0000
0100
0001
0100
0001
0100
0001
,  // measure 87
0101
0011
0002
0203
,  // measure 88
0310
0000
1000
0001
1000
0000
0100
0000
,  // measure 89
0011
0101
0011
0101
,  // measure 90
0110
0000
1000
0010
1000
0010
1000
0010
,  // measure 91
1010
1100
2000
3020
,  // measure 92
0130
0000
0001
1000
0001
0000
0010
0000
,  // measure 93
0002
0000
0000
0203
0000
0000
0320
0000
,  // measure 94
2030
0000
3200
0000
,  // measure 95
0310
0000
0100
0000
1000
0000
0001
0100
,  // measure 96
0010
1000
1010
0010
,  // measure 97
0200
0000
0000
0320
0000
0000
2030
0000
,  // measure 98
3002
0000
0023
0000
,  // measure 99
0130
0000
1000
0100
0010
0000
0001
0100
,  // measure 100
0010
1000
1001
0001
,  // measure 101
2000
0000
0000
3200
0000
0000
0320
0000
,  // measure 102
0032
0000
0203
0000
,  // measure 103
0310
0000
0100
0000
0001
0000
1000
0100
,  // measure 104
0010
0001
0011
0010
,  // measure 105
0200
0000
0000
2300
0000
0000
3002
0000
,  // measure 106
0203
0000
0320
0000
,  // measure 107
0130
0002
0013
0100
,  // measure 108
1000
0010
0100
0001
0000
0000
0000
0000
;

//---------------dance-single - ----------------
#NOTES:
     dance-single:
     :
     Medium:
     12:
     0.418008,0.523758,0.052722,0.518431,0.000000,333.000000,327.000000,6.000000,59.000000,0.000000,0.000000,0.418008,0.523758,0.052722,0.518431,0.000000,333.000000,327.000000,6.000000,59.000000,0.000000,0.000000:
// measure 0
0000
0000
0000
0000
,  // measure 1
0000
0000
0000
0000
,  // measure 2
0000
0000
0000
0000
,  // measure 3
0000
0000
0000
0000
,  // measure 4
0000
0000
0000
0000
,  // measure 5
0000
0000
0000
0000
,  // measure 6
0000
0000
0000
0000
,  // measure 7
0000
0000
0000
0000
,  // measure 8
0000
0000
0000
0000
,  // measure 9
2000
0000
0000
0001
0000
0000
0001
0000
,  // measure 10
3010
0000
0100
0000
,  // measure 11
0002
0000
0000
1000
0000
0000
1000
0000
,  // measure 12
0013
0000
0100
0000
,  // measure 13
0020
0000
0000
0001
0000
0000
0100
0000
,  // measure 14
0031
0000
0010
0000
,  // measure 15
0200
0000
0000
1000
0000
0000
0010
0000
,  // measure 16
1300
0000
0001
0000
,  // measure 17
2000
0000
0000
0100
0000
0000
0001
0000
,  // measure 18
3010
0000
0100
0000
,  // measure 19
0002
0000
0000
0100
0000
0000
1000
0000
,  // measure 20
0013
0000
0100
0000
,  // measure 21
0200
0000
0000
0001
0000
0000
0010
0000
,  // measure 22
1300
0000
0100
0000
,  // measure 23
0020
0000
0000
1000
0000
0000
0100
0000
,  // measure 24
0031
0000
0100
0000
,  // measure 25
0010
0000
0000
1000
0000
0000
0100
0000
,  // measure 26
0010
0000
0000
0001
0000
0000
0100
0000
,  // measure 27
0010
0000
1000
0000
,  // measure 28
0001
0000
0100
0010
,  // measure 29
0100
0000
0000
0001
0000
0000
0010
0000
,  // measure 30
0100
0000
0000
1000
0000
0000
0010
0000
,  // measure 31
0200
0000
0000
0000
,  // measure 32
0000
0000
0301
1000
,  // measure 33
0010
0010
0100
0001
,  // measure 34
0001
0010
0100
0100
,  // measure 35
1000
0000
0000
0001
0000
0000
0100
0000
,  // measure 36
0000
0010
0000
0000
1000
0000
0100
0000
,  // measure 37
0010
0010
0001
1000
,  // measure 38
1000
0010
0100
0100
,  // measure 39
0010
2000
3100
0010
,  // measure 40
0001
0001
1000
1000
,  // measure 41
0010
0010
0100
0001
,  // measure 42
0001
1000
0100
0100
,  // measure 43
0010
0000
0000
0001
0000
0000
1000
0000
,  // measure 44
0000
0010
0000
0000
0100
0000
0001
0000
,  // measure 45
1000
1000
0100
0010
,  // measure 46
0010
0001
0100
0100
,  // measure 47
0010
0200
0310
1000
,  // measure 48
2002
0000
0000
3003
,  // measure 49
0001
0100
0010
1000
,  // measure 50
0100
0010
0010
0010
,  // measure 51
0100
1000
0001
0100
,  // measure 52
0010
1000
1000
1000
,  // measure 53
0100
0010
0001
0100
,  // measure 54
0010
0100
0100
0100
,  // measure 55
0001
2000
3100
0010
,  // measure 56
0001
1000
0001
0000
1000
0001
1000
0000
,  // measure 57
0010
0100
0001
1000
,  // measure 58
0100
0010
0010
0010
,  // measure 59
0001
1000
0100
0010
,  // measure 60
0001
1000
1000
1000
,  // measure 61
0010
0100
0001
1000
,  // measure 62
0100
0001
0001
0001
,  // measure 63
0100
0020
0031
1000
,  // measure 64
0010
0000
0100
0000
0001
1000
0001
0000
,  // measure 65
2000
0000
0000
3200
0000
0000
0320
0000
,  // measure 66
0032
0000
0203
0000
,  // measure 67
0310
0000
0000
1000
0000
0000
0100
0010
,  // measure 68
0100
0010
0110
0000
,  // measure 69
0002
0000
0000
0203
0000
0000
0320
0000
,  // measure 70
2030
0000
3200
0000
,  // measure 71
0310
0000
0000
0001
0000
0000
1000
0000
,  // measure 72
0010
0100
0010
0000
0100
0010
0100
0000
,  // measure 73
0020
0000
0000
2030
0000
0000
3200
0000
,  // measure 74
0320
0000
0032
0000
,  // measure 75
1003
0000
0000
0010
0000
0000
0100
0010
,  // measure 76
0100
0010
0110
0000
,  // measure 77
2000
0000
0000
3020
0000
0000
0230
0000
,  // measure 78
0302
0000
0023
0000
,  // measure 79
0130
0000
0000
1000
0000
0000
0001
0000
,  // measure 80
0010
0100
1000
0001
,  // measure 81
0100
0000
0000
0100
0000
0000
0000
0000
,  // measure 82
0000
0000
0000
0000
,  // measure 83
0010
0000
0000
0010
0000
0000
0000
0000
,  // measure 84
0000
0000
0010
2000
,  // measure 85
3001
0100
0001
0010
,  // measure 86
0001
0100
0100
0100
,  // measure 87
0010
0000
1000
0000
0200
0300
0100
0000
,  // measure 88
0010
0000
0001
1000
0001
0000
0100
0000
,  // measure 89
0010
1000
0100
0010
,  // measure 90
0001
1000
1000
1000
,  // measure 91
0100
0000
0010
0000
0002
0003
0001
0000
,  // measure 92
0100
0000
0010
0100
0010
0000
0100
0000
,  // measure 93
0002
0000
0000
2003
0000
0000
3200
0000
,  // measure 94
0320
0000
0230
0000
,  // measure 95
1300
0000
0100
0000
0010
0000
0001
1000
,  // measure 96
0001
1000
1001
0000
,  // measure 97
0002
0000
0000
0203
0000
0000
0320
0000
,  // measure 98
0230
0000
0302
0000
,  // measure 99
0013
0000
0100
0010
0100
0000
1000
0001
,  // measure 100
1000
0001
1001
0000
,  // measure 101
0002
0000
0000
0203
0000
0000
0320
0000
,  // measure 102
2030
0000
3200
0000
,  // measure 103
0310
0000
0100
0000
1000
0000
0010
0100
,  // measure 104
0010
0100
0110
0000
,  // measure 105
2000
0000
0000
3200
0000
0000
0320
0000
,  // measure 106
0032
0000
0203
0000
,  // measure 107
0310
2000
3100
0010
,  // measure 108
0001
1000
0001
1000
0000
0000
0000
0000
;

//---------------dance-single - ----------------
#NOTES:
     dance-single:
     :
     Easy:
     6:
     0.238503,0.380915,0.070296,0.219674,0.000000,190.000000,182.000000,8.000000,25.000000,0.000000,0.000000,0.238503,0.380915,0.070296,0.219674,0.000000,190.000000,182.000000,8.000000,25.000000,0.000000,0.000000:
// measure 0
0000
0000
0000
0000
,  // measure 1
0000
0000
0000
0000
,  // measure 2
0000
0000
0000
0000
,  // measure 3
0000
0000
0000
0000
,  // measure 4
0000
0000
0000
0000
,  // measure 5
0000
0000
0000
0000
,  // measure 6
0000
0000
0000
0000
,  // measure 7
0000
0000
0000
0000
,  // measure 8
0000
0000
0000
0000
,  // measure 9
1000
0000
0000
1000
,  // measure 10
0000
0000
1000
0000
,  // measure 11
0001
0000
0000
0001
,  // measure 12
0000
0000
0001
0000
,  // measure 13
0100
0000
0000
0100
,  // measure 14
0000
0000
0100
0000
,  // measure 15
0010
0000
0000
0010
,  // measure 16
0000
0000
0010
0000
,  // measure 17
1000
0000
0000
0100
,  // measure 18
0000
0000
0010
0000
,  // measure 19
0001
0000
0000
0100
,  // measure 20
0000
0000
0010
0000
,  // measure 21
1000
0000
0000
0010
,  // measure 22
0000
0000
0100
0000
,  // measure 23
0001
0000
0000
0010
,  // measure 24
0000
0000
0100
0000
,  // measure 25
2000
0000
3100
0000
,  // measure 26
0002
0000
0103
0000
,  // measure 27
0010
0000
0010
0000
,  // measure 28
1000
0000
0001
0000
,  // measure 29
0002
0000
0013
0000
,  // measure 30
2000
0000
3010
0000
,  // measure 31
0002
0000
0000
0000
,  // measure 32
0000
0000
0100
0000
,  // measure 33
1003
0000
1000
0000
,  // measure 34
0001
0000
0001
0000
,  // measure 35
1000
0000
0001
0000
,  // measure 36
1000
0000
0010
0000
,  // measure 37
0100
0000
0100
0000
,  // measure 38
0010
0000
0010
0000
,  // measure 39
0100
0000
0010
0000
,  // measure 40
0100
0000
0001
0000
,  // measure 41
1000
0000
1000
0000
,  // measure 42
0100
0000
0100
0000
,  // measure 43
1000
0000
0100
0000
,  // measure 44
0010
0000
0001
0000
,  // measure 45
0100
0000
0100
0000
,  // measure 46
0001
0000
0001
0000
,  // measure 47
0100
0000
0001
0000
,  // measure 48
0020
0000
0000
0030
,  // measure 49
0100
0000
0100
0000
,  // measure 50
0100
0000
0010
0000
,  // measure 51
0001
0000
0001
0000
,  // measure 52
0001
0000
0010
0000
,  // measure 53
1000
0000
1000
0000
,  // measure 54
1000
0000
0100
0000
,  // measure 55
0010
0000
0010
0000
,  // measure 56
0010
0000
0001
0000
,  // measure 57
0100
0000
0100
0000
,  // measure 58
0100
0000
0010
0000
,  // measure 59
1000
0000
1000
0000
,  // measure 60
1000
0000
0100
0000
,  // measure 61
0010
0000
0010
0000
,  // measure 62
0010
0000
0001
0000
,  // measure 63
0100
0000
0100
0000
,  // measure 64
0100
0000
0010
0000
,  // measure 65
2000
0000
3100
0000
,  // measure 66
0002
0000
0103
0000
,  // measure 67
0010
0000
0010
0000
,  // measure 68
0100
0000
0100
0000
,  // measure 69
0002
0000
0013
0000
,  // measure 70
2000
0000
3010
0000
,  // measure 71
0001
0000
0001
0000
,  // measure 72
1000
0000
1000
0000
,  // measure 73
0200
0000
0310
0000
,  // measure 74
0020
0000
0130
0000
,  // measure 75
1000
0000
1000
0000
,  // measure 76
0001
0000
0001
0000
,  // measure 77
0020
0000
0130
0000
,  // measure 78
0200
0000
0310
0000
,  // measure 79
0001
0000
0100
0000
,  // measure 80
0010
0000
1000
0000
,  // measure 81
0200
0000
0000
0000
,  // measure 82
0300
0000
0000
0000
,  // measure 83
0020
0000
0000
0000
,  // measure 84
0030
0000
0000
0000
,  // measure 85
1001
0000
0100
0000
,  // measure 86
1001
0000
0010
0000
,  // measure 87
0100
0000
0110
0000
,  // measure 88
0010
0000
0110
0000
,  // measure 89
1000
0000
0110
0000
,  // measure 90
0001
0000
0110
0000
,  // measure 91
1001
0000
0100
0000
,  // measure 92
1001
0000
0010
0000
,  // measure 93
0002
0000
0013
0000
,  // measure 94
2000
0000
3100
0000
,  // measure 95
0010
0000
0010
0000
,  // measure 96
0001
0000
0001
0000
,  // measure 97
2000
0000
3100
0000
,  // measure 98
0002
0000
0013
0000
,  // measure 99
0100
0000
0100
0000
,  // measure 100
1000
0000
1000
0000
,  // measure 101
0020
0000
0130
0000
,  // measure 102
0200
0000
0310
0000
,  // measure 103
1000
0000
0100
0000
,  // measure 104
0010
0000
0001
0000
,  // measure 105
0200
0000
0310
0000
,  // measure 106
0020
0000
0130
0000
,  // measure 107
0001
0000
0100
0000
,  // measure 108
0020
0000
0000
0030
0000
0000
0000
0000
;

//---------------dance-single - ----------------
#NOTES:
     dance-single:
     :
     Beginner:
     3:
     0.129294,0.189798,0.000000,0.202100,0.000000,103.000000,103.000000,0.000000,23.000000,0.000000,0.000000,0.129294,0.189798,0.000000,0.202100,0.000000,103.000000,103.000000,0.000000,23.000000,0.000000,0.000000:
// measure 0
0000
0000
0000
0000
,  // measure 1
0000
0000
0000
0000
,  // measure 2
0000
0000
0000
0000
,  // measure 3
0000
0000
0000
0000
,  // measure 4
0000
0000
0000
0000
,  // measure 5
0000
0000
0000
0000
,  // measure 6
0000
0000
0000
0000
,  // measure 7
0000
0000
0000
0000
,  // measure 8
0000
0000
0000
0000
,  // measure 9
2000
0000
0000
0000
,  // measure 10
3000
0000
1000
0000
,  // measure 11
0002
0000
0000
0000
,  // measure 12
0003
0000
0001
0000
,  // measure 13
0200
0000
0000
0000
,  // measure 14
0300
0000
0100
0000
,  // measure 15
0020
0000
0000
0000
,  // measure 16
0030
0000
0010
0000
,  // measure 17
2000
0000
3000
0000
,  // measure 18
1000
0000
1000
0000
,  // measure 19
0020
0000
0030
0000
,  // measure 20
0010
0000
0010
0000
,  // measure 21
0002
0000
0003
0000
,  // measure 22
0001
0000
0001
0000
,  // measure 23
0200
0000
0300
0000
,  // measure 24
0100
0000
0100
0000
,  // measure 25
0010
0000
0000
0000
,  // measure 26
1000
0000
0000
0000
,  // measure 27
0100
0000
0000
0000
,  // measure 28
0010
0000
0000
0000
,  // measure 29
0001
0000
0000
0000
,  // measure 30
0010
0000
0000
0000
,  // measure 31
0200
0000
0000
0000
,  // measure 32
0300
0000
1000
0000
,  // measure 33
0001
0000
0000
0000
,  // measure 34
0001
0000
0000
0000
,  // measure 35
0001
0000
0000
0000
,  // measure 36
1000
0000
0000
0000
,  // measure 37
0010
0000
0000
0000
,  // measure 38
0010
0000
0000
0000
,  // measure 39
0020
0030
0000
0000
,  // measure 40
0100
0000
0000
0000
,  // measure 41
1000
0000
0000
0000
,  // measure 42
1000
0000
0000
0000
,  // measure 43
1000
0000
0000
0000
,  // measure 44
0001
0000
0000
0000
,  // measure 45
0100
0000
0000
0000
,  // measure 46
0100
0000
0000
0000
,  // measure 47
0200
0300
0000
0000
,  // measure 48
0000
0000
0000
0000
,  // measure 49
0001
0000
0001
0000
,  // measure 50
0001
0000
0000
0000
,  // measure 51
1000
0000
1000
0000
,  // measure 52
1000
0000
0000
0000
,  // measure 53
0100
0000
0100
0000
,  // measure 54
0100
0000
0000
0000
,  // measure 55
0010
0000
0010
0000
,  // measure 56
0010
0000
0000
0000
,  // measure 57
0001
0000
0001
0000
,  // measure 58
1000
0000
0000
0000
,  // measure 59
1000
0000
1000
0000
,  // measure 60
0001
0000
0000
0000
,  // measure 61
0010
0000
0010
0000
,  // measure 62
0100
0000
0000
0000
,  // measure 63
0100
0000
0100
0000
,  // measure 64
0010
0000
0000
0000
,  // measure 65
0002
0000
0000
0000
,  // measure 66
0000
0000
0003
0000
,  // measure 67
2000
0000
0000
0000
,  // measure 68
0000
0000
3000
0000
,  // measure 69
0020
0000
0000
0000
,  // measure 70
0000
0000
0030
0000
,  // measure 71
0200
0000
0000
0000
,  // measure 72
0000
0000
0300
0000
,  // measure 73
0001
0000
0000
0000
,  // measure 74
0010
0000
0000
0000
,  // measure 75
0100
0000
0000
0000
,  // measure 76
1000
0000
0000
0000
,  // measure 77
0010
0000
0000
0000
,  // measure 78
0100
0000
0000
0000
,  // measure 79
0001
0000
0000
0000
,  // measure 80
0010
0000
0000
0000
,  // measure 81
0200
0000
0000
0000
,  // measure 82
0300
0000
0000
0000
,  // measure 83
0020
0000
0000
0000
,  // measure 84
0030
0000
0000
0000
,  // measure 85
0001
0000
0001
0000
,  // measure 86
0001
0000
0000
0000
,  // measure 87
0010
0000
0010
0000
,  // measure 88
0010
0000
0000
0000
,  // measure 89
0100
0000
0100
0000
,  // measure 90
0100
0000
0000
0000
,  // measure 91
1000
0000
1000
0000
,  // measure 92
1000
0000
0000
0000
,  // measure 93
0020
0000
0000
0000
,  // measure 94
0000
0000
0030
0000
,  // measure 95
0200
0000
0000
0000
,  // measure 96
0000
0000
0300
0000
,  // measure 97
0002
0000
0000
0000
,  // measure 98
0000
0000
0003
0000
,  // measure 99
1000
0000
0000
0000
,  // measure 100
1000
0000
0000
0000
,  // measure 101
2000
0000
0000
0000
,  // measure 102
0000
0000
3000
0000
,  // measure 103
0200
0000
0000
0000
,  // measure 104
0000
0000
0300
0000
,  // measure 105
0020
0000
0000
0000
,  // measure 106
0000
0000
0030
0000
,  // measure 107
0001
0000
0000
0000
,  // measure 108
1000
0000
0000
0000
;
