#TITLE:Klámstrákur;
#SUBTITLE:;
#ARTIST:HATARI;
#TITLETRANSLIT:;
#SUBTITLETRANSLIT:;
#ARTISTTRANSLIT:;
#GENRE:Industrial Electro;
#CREDIT:;
#BANNER:Klamstrakur-bn.png;
#BACKGROUND:Klamstrakur-bg.png;
#LYRICSPATH:;
#CDTITLE:cdtitle.png;
#MUSIC:Klamstrakur.ogg;
#OFFSET:-0.002000;
#SAMPLESTART:77.540001;
#SAMPLELENGTH:14.769000;
#SELECTABLE:YES;
#BPMS:0.000000=130.000000
;
#STOPS:
;
#BGCHANGES:
;
#KEYSOUNDS:;
#ATTACKS:;

//---------------dance-single - You've been a naughty boy >\:(----------------
#NOTES:
     dance-single:
     :
     Hard:
     13:
     0.562290,0.586832,0.110614,0.248882,0.387150,427.000000,415.000000,12.000000,27.000000,11.000000,0.000000,0.562290,0.586832,0.110614,0.248882,0.387150,427.000000,415.000000,12.000000,27.000000,11.000000,0.000000:
// measure 0
0000
0000
0000
0000
,  // measure 1
0000
0000
0000
0000
,  // measure 2
0000
0000
0000
0000
,  // measure 3
0000
0000
0000
0000
0000
0000
0000
1000
,  // measure 4
0200
0000
0300
0020
0000
0030
0001
0000
0200
0000
0300
0020
0000
0030
2000
0000
,  // measure 5
0000
3000
0002
0000
1003
0000
0000
0100
1000
0000
0000
0000
0001
0000
0010
0000
,  // measure 6
0100
0000
1000
0010
0100
0000
0001
0000
,  // measure 7
1000
0000
0001
0000
0100
0000
0000
0010
0100
0000
0000
0000
0001
0000
0010
0000
,  // measure 8
0400
2000
0300
0000
3000
0000
0001
0000
4000
0200
3000
0000
0300
0000
0020
0000
,  // measure 9
0000
0030
0002
0000
1003
0000
0000
0001
0100
0000
0000
0000
0010
0000
0100
0000
,  // measure 10
0001
0000
0010
0100
1000
0000
0001
0000
,  // measure 11
1000
0000
0001
0000
0100
0000
0000
0010
0100
0000
0000
0000
0001
0000
1000
0000
,  // measure 12
0200
0000
0300
2000
0000
3000
0001
0000
0200
0000
0300
0020
0000
0030
1000
0000
,  // measure 13
0100
0001
1000
0010
0001
1000
0100
0001
,  // measure 14
1000
0010
0001
0000
1000
0000
0010
1000
,  // measure 15
0001
0000
0001
0000
0001
0010
0001
0010
,  // measure 16
0101
0000
0100
0010
1000
0000
0001
1000
,  // measure 17
0010
0000
0000
0000
0100
0000
0010
0100
0010
0000
0000
0000
0110
0000
0000
0000
,  // measure 18
1000
0000
0100
1000
0000
0000
0001
0000
0100
0000
0001
0100
0001
0000
1000
0000
,  // measure 19
0100
0000
1000
0001
0000
0000
0010
0000
0100
0000
0010
0000
0001
0000
0010
0000
,  // measure 20
0101
0000
1000
0001
0100
0000
0010
0100
,  // measure 21
0001
0000
0000
0000
0010
0000
0100
0010
0000
0000
0001
0000
1000
0001
1000
0000
,  // measure 22
0010
0000
0000
0100
0010
0000
0000
0000
1000
0000
0100
0000
1010
0000
1000
0000
,  // measure 23
0001
0000
0010
0100
1000
0001
1000
0001
,  // measure 24
1001
0000
0000
0000
0100
0000
1000
0000
0001
0000
0000
0010
0001
0000
1000
0000
,  // measure 25
0001
0000
0000
0000
0010
0000
0000
0001
1000
0000
0001
0000
0010
0000
0100
1000
,  // measure 26
0100
0000
1000
0000
0001
0000
0000
0100
0010
0000
0100
0000
1000
0000
0100
0000
,  // measure 27
0010
0000
0000
0000
1000
0000
0000
0001
1000
0000
0001
0000
1000
0000
0000
0000
,  // measure 28
1001
0000
1000
0100
0010
0000
0100
0010
,  // measure 29
0001
0000
1000
0000
0020
0000
0000
0130
0020
0000
0000
0030
1000
0000
0001
0000
,  // measure 30
0010
0100
1000
0001
0100
0010
0001
0010
,  // measure 31
0100
0000
0010
0000
2000
0000
0000
3001
1000
0000
0100
0000
0010
0000
0100
0000
,  // measure 32
1010
0000
1000
0000
0001
0000
1000
0000
0100
0000
0010
0000
0001
0000
1000
0001
,  // measure 33
1000
0010
0100
0010
0001
0010
0100
0010
,  // measure 34
1000
0000
0000
0000
0001
0000
0100
0001
1000
0001
0000
0000
0010
0000
0100
1000
,  // measure 35
0100
0000
1000
0000
0001
0000
0100
0010
0100
0000
0001
0000
0010
0000
0100
0000
,  // measure 36
1000
0000
0100
0000
0001
0000
0100
0000
1000
0000
0010
0100
0010
0000
0100
0010
,  // measure 37
0100
0000
0001
0100
0001
0000
0100
0001
0100
0000
0010
0000
1000
0000
0010
0000
,  // measure 38
0100
0000
0001
0000
1000
0000
0100
0010
0001
0000
1000
0000
0001
0000
0100
0001
,  // measure 39
0100
0000
0001
0100
0001
0000
1000
0001
1000
0000
0001
0000
0100
0000
0001
0000
,  // measure 40
1000
0000
0100
0010
0000
0000
0100
0010
0000
0000
0001
0100
0000
0000
0001
0100
,  // measure 41
0004
4000
0M00
00M0
0000
0000
0M00
00M0
0000
0000
0M00
30M3
1000
0001
0000
0000
,  // measure 42
1001
0000
1000
0000
0001
0000
0010
0100
0000
0000
0010
0000
0001
0000
1000
0000
,  // measure 43
0001
0010
0M00
0000
0010
0000
1000
0000
0100
1000
0001
0000
0100
0001
1000
0010
,  // measure 44
0100
0000
1000
0000
0100
0000
0001
0100
0000
0000
0010
0000
1000
0000
0100
0000
,  // measure 45
1000
0010
0M00
0000
0010
0000
0001
0000
0010
0001
0010
0000
0001
1000
0010
0000
,  // measure 46
1010
0000
1000
0000
0001
0000
0010
0001
0000
0000
1000
0000
0010
0000
0100
0000
,  // measure 47
0001
0010
0M00
0000
0010
0000
1000
0000
0001
1000
0010
0000
0100
0010
1000
0001
,  // measure 48
0100
0000
0010
0000
1000
0000
0100
0010
0000
0000
0100
0000
1000
0000
0001
1000
,  // measure 49
0002
0003
0020
0000
0030
2000
3000
1000
0020
0030
0002
0003
1000
0000
0001
0000
,  // measure 50
1001
0000
0010
0000
0001
0000
1000
0010
0000
0000
0100
0000
0010
0000
1000
0010
,  // measure 51
1000
0001
0000
0000
0001
0000
0010
0000
0100
0010
0001
0000
1000
0001
0100
0001
,  // measure 52
1000
0000
0010
0000
0001
0000
0010
0100
0000
0000
0010
0000
0100
0000
0001
1000
,  // measure 53
0001
0100
0000
0000
0100
0000
0010
0100
0010
0000
1000
0000
0010
0000
1000
0000
,  // measure 54
2010
0000
0000
0000
3001
0000
1000
0100
00M0
0000
0100
0001
0000
0000
0001
0010
,  // measure 55
0M00
0000
0010
1000
0000
0001
1000
0001
0200
0000
0300
0002
0000
0003
0100
0001
,  // measure 56
1000
0000
0000
0000
1000
0000
0100
0000
0040
0004
0000
0000
0000
0000
0000
0033
,  // measure 57
1002
0000
0000
0000
0000
0000
0000
0000
0003
0000
0000
0000
0200
0000
0000
0000
0300
0000
0000
0000
0040
0400
0000
0000
0000
0000
0000
0000
0330
0000
0000
0000
;

//---------------dance-single - Are you commiting a sin?----------------
#NOTES:
     dance-single:
     :
     Medium:
     9:
     0.479329,0.533484,0.082961,0.534636,0.193575,364.000000,355.000000,9.000000,58.000000,0.000000,0.000000,0.479329,0.533484,0.082961,0.534636,0.193575,364.000000,355.000000,9.000000,58.000000,0.000000,0.000000:
// measure 0
0000
0000
0000
0000
,  // measure 1
0000
0000
0000
0000
,  // measure 2
0000
0000
0000
0000
,  // measure 3
0000
0000
0000
0000
,  // measure 4
1000
0000
0100
1000
0001
0000
0010
0200
,  // measure 5
0300
0020
0031
2000
3002
0003
0020
0230
,  // measure 6
0300
2000
3002
0003
0200
0302
1003
0000
,  // measure 7
0001
0000
0000
0000
0010
0000
0000
0001
0010
0000
0000
0000
0100
0000
1000
0000
,  // measure 8
0001
0000
0100
0001
1000
0000
0010
0200
,  // measure 9
0300
0002
0103
0020
2030
3000
0200
0320
,  // measure 10
0030
0002
2003
3000
0010
0000
1000
0100
,  // measure 11
0010
0000
0000
0000
0001
0000
0000
0010
0001
0000
0000
0000
1000
0000
0010
0000
,  // measure 12
0100
0000
0001
0010
0100
0000
1000
0001
,  // measure 13
0100
1000
0100
0001
0100
1000
0100
0002
,  // measure 14
0003
2000
3002
0003
2000
3002
0003
2000
,  // measure 15
3002
0003
0002
0003
0002
1003
0001
1000
,  // measure 16
1001
0000
0000
1000
0000
0000
0001
0000
0100
0000
0000
0001
0000
0000
0020
0000
,  // measure 17
0130
0000
2000
0000
3001
0000
0100
0001
0100
0000
0000
0000
0010
0000
0000
0000
,  // measure 18
0100
0000
0001
0010
0100
0000
1000
0001
,  // measure 19
0100
0000
0000
0000
0010
0000
0100
0010
0100
0000
0001
0000
0100
0000
0001
0000
,  // measure 20
1000
0000
0000
0100
0000
0000
1000
0000
0001
0000
0000
0100
0000
0000
0001
0000
,  // measure 21
0010
0000
0000
0000
0100
0000
1000
0000
0001
0000
0000
0010
0000
0001
0010
0000
,  // measure 22
0100
0000
0000
1000
0010
0000
0000
0000
1000
0000
0001
0000
0010
0000
0000
0000
,  // measure 23
0100
0000
0010
0001
1000
0100
0001
0100
,  // measure 24
1000
0010
0000
0100
0001
0000
1000
0100
,  // measure 25
1000
0000
0000
0000
0010
0000
0100
0010
0100
0000
0001
0000
1000
0000
0001
0100
,  // measure 26
0001
0000
0010
0100
1000
0000
0001
0100
,  // measure 27
0010
0000
1000
0000
0100
0010
0001
0010
,  // measure 28
0100
0000
1000
0100
0001
0000
0001
0100
,  // measure 29
1000
0001
0200
0000
0320
0000
1030
0100
,  // measure 30
0010
0001
1000
0000
0001
1000
0001
0010
,  // measure 31
0100
0010
0002
0000
1003
0010
1000
0010
,  // measure 32
1010
1000
0001
1000
0100
0010
0100
1000
,  // measure 33
0001
0010
1000
0010
0100
1000
0100
1000
,  // measure 34
0001
0000
0100
0001
1000
0100
0001
0100
,  // measure 35
1000
0010
0100
0010
1000
0001
0010
0001
,  // measure 36
0101
0000
0100
0001
1000
0000
0100
1000
,  // measure 37
0001
0000
0010
0100
1000
0001
1000
0100
,  // measure 38
0010
0000
0001
1000
0100
0000
0010
0001
,  // measure 39
1000
0000
0010
1000
0001
0010
0100
2000
,  // measure 40
3000
0000
0002
0000
0000
0000
0000
0000
0003
0100
0001
0100
0000
0001
0100
0001
,  // measure 41
0000
0010
0100
0010
0000
0100
0010
0100
0000
0000
0000
0000
1000
0001
0000
0000
,  // measure 42
2001
0000
0000
0000
0010
3000
0000
0200
0000
0300
2000
0000
3002
0000
0000
0000
,  // measure 43
0013
0001
0000
0000
0001
0000
0100
0000
0010
0000
0001
0000
0010
0000
0100
0000
,  // measure 44
0002
0000
0000
0000
1003
0000
0020
0000
0030
0200
0000
0000
1000
0300
0000
0000
,  // measure 45
0100
1000
0000
0000
1000
0000
0010
0000
0001
0000
0010
0000
0100
0000
0010
0000
,  // measure 46
2000
0000
0000
0000
3100
0000
0000
0020
0000
0030
0002
0000
1003
0000
0000
0000
,  // measure 47
0001
0100
0000
0000
0100
0000
0010
0000
1000
0000
0100
0000
0001
0000
0100
0000
,  // measure 48
2000
0000
0000
0000
3010
0000
0200
0000
0300
0002
0000
0000
1000
0003
0001
0000
,  // measure 49
0010
0000
0000
0001
0000
1000
0000
0100
1000
0000
0001
0000
1000
0000
0001
0000
,  // measure 50
1001
0000
1000
0000
0100
0000
1000
0001
0000
0000
0010
0000
0001
0000
0000
0000
,  // measure 51
0010
0100
0000
0000
0100
0000
1000
0000
0001
0100
0001
0000
0100
0001
0100
0000
,  // measure 52
0010
0000
0100
0000
0001
0000
1000
0100
0000
0000
1000
0000
0001
0000
0100
0000
,  // measure 53
0010
0100
0000
0000
0100
0000
0001
0000
0101
0000
0100
0000
0110
0000
0010
0000
,  // measure 54
2010
0000
0000
0000
3001
0000
0200
0000
0300
0020
0000
0030
1000
0000
0000
0000
,  // measure 55
0100
0000
0000
0000
0010
0000
0000
0010
0002
0000
0003
2000
0000
3000
0100
1000
,  // measure 56
0200
0300
2000
3002
0013
0000
0010
0000
,  // measure 57
0102
0000
0000
0000
0003
0000
2000
0000
0000
3000
0002
0000
0000
0000
0003
0000
;

//---------------dance-single - How does this make you feel?----------------
#NOTES:
     dance-single:
     :
     Easy:
     7:
     0.401635,0.394064,0.055307,0.248882,0.000000,305.000000,299.000000,6.000000,27.000000,0.000000,0.000000,0.401635,0.394064,0.055307,0.248882,0.000000,305.000000,299.000000,6.000000,27.000000,0.000000,0.000000:
// measure 0
0000
0000
0000
0000
,  // measure 1
0000
0000
0000
0000
,  // measure 2
0000
0000
0000
0000
,  // measure 3
0000
0000
0000
0000
,  // measure 4
0001
0000
0010
0000
0100
0000
1000
0020
,  // measure 5
0000
0030
0200
0000
0001
0300
0000
0000
0100
0000
0000
0000
0010
0000
0100
0000
,  // measure 6
0001
0000
0010
0000
0100
0000
1000
0001
,  // measure 7
0100
0000
0010
0000
0100
0000
0001
0010
,  // measure 8
0200
0000
1300
0001
0200
0000
0310
2000
,  // measure 9
0000
3000
0002
0000
0100
0003
0000
0000
0001
0000
0000
0000
1000
0000
0001
0000
,  // measure 10
0010
0000
0100
0000
1000
0000
0001
0100
,  // measure 11
0010
0000
0100
0000
0001
0000
0010
0100
,  // measure 12
1000
0001
1000
0100
,  // measure 13
0010
0001
1000
0001
0010
0001
1000
0001
,  // measure 14
0010
0000
0100
0000
1000
0000
0001
1000
,  // measure 15
0010
0010
0010
0000
,  // measure 16
0110
0000
0100
0010
1000
0000
0100
0010
,  // measure 17
0001
0000
0100
0010
1000
0000
0100
0010
,  // measure 18
0001
0000
1000
0001
0100
0000
0010
0100
,  // measure 19
0001
0000
1000
0001
0100
0000
0010
0100
,  // measure 20
0001
0000
0010
0100
1000
0000
0001
1000
,  // measure 21
0100
0000
0010
0100
1000
0000
0001
1000
,  // measure 22
0100
0000
0000
0000
0010
0000
0100
0000
1000
0000
0002
0000
0100
0003
0000
0000
,  // measure 23
0010
0000
0100
1000
0010
0100
0010
1000
,  // measure 24
2000
0000
0020
0000
3000
0030
0200
0000
0302
0000
0000
0000
0013
0000
0200
0000
,  // measure 25
0000
1300
0002
0000
0023
0000
0230
0000
,  // measure 26
2300
0000
3100
0010
0002
0000
0103
0010
,  // measure 27
2000
0000
0000
0000
3001
0000
1000
0000
0020
0000
0000
0030
0020
0000
0000
0030
,  // measure 28
0201
0000
0301
0010
0200
0000
1300
0100
,  // measure 29
0010
0100
2000
0000
3002
0000
0013
0100
,  // measure 30
1000
0001
1000
0100
0010
0000
0100
0010
,  // measure 31
0001
1000
0002
0000
0023
0000
0130
0010
,  // measure 32
0110
0000
1000
0100
0010
0000
0001
0100
,  // measure 33
0010
0000
1000
0100
0010
0000
0001
0100
,  // measure 34
0010
0000
1000
0001
0100
0000
0010
0100
,  // measure 35
0001
0000
0010
0100
1000
0000
0001
1000
,  // measure 36
0100
0000
0010
0100
1000
0000
0001
0100
,  // measure 37
0001
0000
1000
0100
0010
0100
1000
0100
,  // measure 38
0010
0000
0001
0100
0010
0000
1000
0010
,  // measure 39
1000
0000
0001
0000
0010
0100
0010
0100
,  // measure 40
0000
1000
0000
0001
0000
1000
0000
0001
,  // measure 41
0000
1000
0000
0001
0000
0000
1000
0000
,  // measure 42
1001
1000
0100
0000
1000
0000
0001
0000
,  // measure 43
0010
0000
0100
0010
0001
1000
0001
0010
,  // measure 44
0100
0000
1000
0000
0010
1000
0001
0000
,  // measure 45
0100
0000
0001
0010
0100
0010
0001
1000
,  // measure 46
0001
0000
0100
0010
0100
0000
0001
0000
,  // measure 47
0010
0000
0100
1000
0001
0100
0010
0100
,  // measure 48
0001
0000
0010
0100
1000
0000
0001
0000
,  // measure 49
0100
0000
0010
0100
0001
0010
0001
1000
,  // measure 50
1001
0000
0001
0010
0100
0000
0010
0000
,  // measure 51
0001
0000
1000
0100
0010
0001
0100
0001
,  // measure 52
0010
0000
0100
1000
0001
0000
1000
0000
,  // measure 53
0100
0000
0010
0100
1000
0001
1000
0001
,  // measure 54
1000
0000
0100
0000
0010
0000
0001
1000
,  // measure 55
0001
0000
0100
0000
0010
0000
0100
0010
,  // measure 56
0200
0000
1000
0000
0010
0000
0001
0300
,  // measure 57
0101
0000
0000
0000
;

//---------------dance-single - Hope you got your BDSM gear in handy \;)----------------
#NOTES:
     dance-single:
     :
     Beginner:
     2:
     0.119832,0.183896,0.009218,0.000000,0.000000,91.000000,90.000000,1.000000,0.000000,0.000000,0.000000,0.119832,0.183896,0.009218,0.000000,0.000000,91.000000,90.000000,1.000000,0.000000,0.000000,0.000000:
// measure 0
0000
0000
0000
0000
,  // measure 1
0000
0000
0000
0000
,  // measure 2
0000
0000
0000
0000
,  // measure 3
0000
0000
0000
0000
,  // measure 4
0001
0000
0000
0000
,  // measure 5
0100
0000
0000
0000
,  // measure 6
0010
0000
0000
0000
,  // measure 7
1000
0000
0000
0000
,  // measure 8
0100
0000
0000
0000
,  // measure 9
0010
0000
0000
0000
,  // measure 10
0001
0000
0000
0000
,  // measure 11
1000
0000
0000
0000
,  // measure 12
0001
0000
0000
0000
,  // measure 13
0100
0000
0000
0000
,  // measure 14
0010
0000
0000
0000
,  // measure 15
0100
0000
0000
0000
,  // measure 16
0100
0000
0001
0000
,  // measure 17
0100
0000
0001
0000
,  // measure 18
1000
0000
0100
0000
,  // measure 19
1000
0000
0100
0000
,  // measure 20
0010
0000
0100
0000
,  // measure 21
0010
0000
0100
0000
,  // measure 22
1000
0000
0001
0000
,  // measure 23
1000
0000
0001
0000
,  // measure 24
0100
0000
0001
0000
,  // measure 25
0100
0000
0001
0000
,  // measure 26
0100
0000
0010
0000
,  // measure 27
0100
0000
0010
0000
,  // measure 28
1000
0000
0000
0000
,  // measure 29
0001
0000
0000
0000
,  // measure 30
1000
0000
0000
0000
,  // measure 31
0001
0000
0000
0000
,  // measure 32
0010
0000
0100
0000
,  // measure 33
0010
0000
0100
0000
,  // measure 34
1000
0000
0010
0000
,  // measure 35
1000
0000
0010
0000
,  // measure 36
0100
0000
0000
0000
,  // measure 37
0001
0000
0000
0000
,  // measure 38
1000
0000
0000
0000
,  // measure 39
0001
0000
0000
0000
,  // measure 40
0010
0000
0000
0000
,  // measure 41
0000
0000
0000
0000
,  // measure 42
1001
0000
1000
0000
,  // measure 43
0001
0000
1000
0100
,  // measure 44
1000
0000
0010
0000
,  // measure 45
0100
0000
0001
0100
,  // measure 46
0001
0000
1000
0000
,  // measure 47
0001
0000
1000
0100
,  // measure 48
1000
0000
0010
0000
,  // measure 49
0100
0000
0001
0100
,  // measure 50
0001
0000
0010
0000
,  // measure 51
0100
0000
1000
0100
,  // measure 52
1000
0000
0001
0000
,  // measure 53
0100
0000
0010
0100
,  // measure 54
0010
0000
1000
0000
,  // measure 55
0001
0000
1000
0000
,  // measure 56
0010
0000
1000
0000
,  // measure 57
0001
0000
0000
0000
;
