#TITLE:Kiss Me Kiss Me Babe ;
#SUBTITLE:(Extended Dance Mix) ;
#ARTIST:Virginelle;
#TITLETRANSLIT:;
#SUBTITLETRANSLIT:;
#ARTISTTRANSLIT:;
#GENRE:;
#CREDIT:;
#MUSIC:Virginelle - Kiss Me Kiss Me Babe (Extended Dance Mix).ogg;
#BANNER:;
#BACKGROUND:;
#CDTITLE:;
#SAMPLESTART:56.476;
#SAMPLELENGTH:13.515;
#SELECTABLE:YES;
#OFFSET:-0.302;
#BPMS:0.000=142.059
,293.000=142.136
;
#STOPS:;
#BGCHANGES:;
#FGCHANGES:;

//--------------- dance-single - ----------------
#NOTES:
     dance-single:
     :
     Hard:
     13:
     0,0,0,0,0:
0000
0000
0000
0000
,
0000
0000
0000
0000
,
0000
0000
0000
0000
,
0000
0000
0000
0000
,
0000
0000
0000
0000
1000
0100
1000
0100
1000
0000
0001
0010
0000
0001
0100
0000
,
0001
0000
0100
0000
0001
0010
0001
0010
0001
0000
1000
0100
0000
1000
0010
0000
,
1000
0000
0001
0000
1000
0010
1000
0010
1000
0000
0001
0100
0000
0001
0010
0000
,
0100
0000
0010
0000
0001
0100
0001
0100
0001
0000
1000
0100
0000
1000
0010
0000
,
1000
0001
2002
0000
0000
0000
0000
0000
,
3003
0000
0000
0000
1000
0001
1000
0001
1000
0000
0010
0100
0010
0100
0010
0000
,
1000
0010
1000
0010
1000
0010
1000
0000
0001
0000
1000
0000
0001
0010
0001
0010
,
0001
0010
0001
0000
1000
0010
1000
0010
1000
0000
0001
0010
0001
0010
0001
0000
,
0200
0000
0000
0000
0301
0010
0001
0000
1000
0010
1000
0000
0010
0100
0010
0000
,
1000
0001
1000
0000
0001
0010
0001
0010
0001
0000
1000
0100
1000
0100
1000
0000
,
0010
0100
0010
0100
0010
0100
0010
0000
1000
0000
0100
0000
1000
0001
1000
0001
,
1000
0001
1000
0000
0001
0100
0001
0100
0001
0000
1000
0010
1000
0010
1000
0000
,
0020
0000
0000
0000
0130
0010
0100
0000
0010
0100
0010
0000
1000
0001
1000
0000
,
0001
1000
0001
0000
0110
0000
0000
0000
1000
0000
0100
0000
0001
0000
0100
0000
,
1000
0002
0000
0013
0100
1000
0010
0100
,
0001
1100
1000
1010
,
0001
2000
0000
0100
0000
0100
0000
3100
,
0000
0000
1010
0000
1000
0010
0001
0010
,
1000
0200
0000
0310
0001
0100
0010
1000
,
0100
1100
0010
0001
,
0020
0100
0000
0100
0000
0130
0000
1000
,
1100
0000
0001
0100
1000
0010
0001
0000
,
0010
0200
0000
0310
0001
1000
0100
0000
,
1100
0000
1000
0010
1000
0010
0100
0000
,
0010
0110
0000
1010
0000
0011
0000
0100
,
1100
0000
1000
0100
0001
0010
1000
0000
,
0001
0020
0000
0031
0100
0010
0100
0000
,
0101
0000
1000
0010
0001
0100
1000
0000
,
0010
0110
0000
1010
0000
2002
0000
0000
,
3003
0000
1000
1000
0100
0100
0010
0010
,
0001
0101
0000
0110
0000
1010
0000
1100
,
1001
0000
1000
0100
0001
0100
1000
0100
,
0010
0002
0000
0000
0103
0002
0000
0000
,
0000
0000
0013
0010
0100
0100
1000
1000
,
0001
1001
0000
1010
0000
0101
0000
0100
,
0110
0000
1000
1000
0100
0100
1000
1000
,
0001
0020
0000
0000
0031
0200
0000
0000
,
0000
0000
0300
0000
0001
1000
0001
1000
0001
0000
0100
0010
0100
0010
0100
0000
,
0001
0100
0001
0100
0001
0100
0001
0000
1000
0000
0001
0000
1000
0100
1000
0100
,
1000
0100
1000
0000
0001
0100
0001
0100
0001
0000
1000
0100
1000
0100
1000
0000
,
0200
0000
0000
0000
1300
0010
1000
0000
0001
0010
0001
0000
0100
0010
0100
0000
,
0001
1000
0001
0000
1000
0010
1000
0010
1000
0000
0001
0010
0001
0010
0001
0000
,
0100
0010
0100
0010
0100
0010
0100
0000
0001
0000
0010
0000
0001
1000
0001
1000
,
0001
1000
0001
0000
1000
0100
1000
0100
1000
0000
0001
0010
0001
0010
0001
0000
,
0100
0000
0010
0000
1000
0010
1000
0000
0100
0010
0100
0000
1000
0001
1000
0000
,
0001
1000
0001
0000
0110
0000
0000
0000
0001
0000
0010
0000
1000
0000
0100
0000
,
0001
2000
0000
3010
0100
0001
0100
0010
,
1000
0101
1000
0011
,
1000
0002
0000
0100
0000
0010
0000
0103
,
0000
0000
0101
0000
0001
0100
1000
0100
,
0001
0020
0000
0130
1000
0010
1000
0100
,
1000
0101
0001
1000
,
0200
0010
0000
0010
0000
0310
0000
0001
,
0101
0000
1000
0100
0001
0100
1000
0000
,
0010
0200
0000
0310
1000
0001
0100
0000
,
0101
0000
0001
0010
0001
1000
0010
0000
,
1000
1100
0000
0101
0000
1100
0000
0110
,
1001
0000
0001
0100
1000
0100
0001
0000
,
1000
0200
0000
1300
0100
0010
0001
0000
,
1100
0000
0001
0100
1000
0100
0001
0000
,
0100
0110
0000
1100
0000
2002
0000
0000
,
3003
0000
0001
0001
0010
0010
0100
0100
,
1000
1010
0000
0110
0000
0101
0000
1100
,
1001
0000
0001
0010
1000
0010
0001
0010
,
0100
2000
0000
0000
3010
2000
0000
0000
,
0000
0000
3100
0100
0010
0010
0100
0100
,
1000
1010
0000
0101
0000
1100
0000
0001
,
1001
0000
0010
0010
0100
0100
0010
0010
,
0001
0200
0000
0000
0310
0200
0000
0000
,
0000
0000
0300
0000
0001
0010
0100
0010
0001
0000
1000
0100
0010
0100
1000
0000
,
0001
0100
0001
0010
0001
1000
0001
0000
1000
0000
0100
0000
1000
0001
1000
0010
,
1000
0100
1000
0000
0001
0010
0001
0100
0001
0000
1000
0100
1000
0010
1000
0000
,
0200
0000
0000
0000
1300
0010
1000
0000
0001
0010
0100
0000
1000
0100
0010
0000
,
0001
1000
0001
0000
1000
0100
1000
0010
1000
0000
0001
0010
0001
0100
0001
0000
,
0100
0001
0100
0010
0100
0001
0100
0000
0001
0000
0010
0000
0001
1000
0001
0100
,
0001
0010
0001
0000
1000
0010
1000
0100
1000
0000
0001
0010
0001
0100
0001
0000
,
0100
0000
0010
0000
1000
0010
1000
0000
0001
0010
0100
0000
1000
0100
0010
0000
,
0001
1000
0001
0000
0220
0000
0000
0000
0000
0000
0000
0000
0000
0000
0000
0000
,
0000
0000
0000
0000
0000
0000
0000
0330
0000
0000
0000
0000
0000
0000
0000
0000
;
