#TITLE:Hydra;
#SUBTITLE:;
#ARTIST:James Landino x Akira Complex;
#TITLETRANSLIT:;
#SUBTITLETRANSLIT:;
#ARTISTTRANSLIT:;
#GENRE:;
#CREDIT:;
#BANNER:Hydra.png;
#BACKGROUND:Hydra-bg.png;
#LYRICSPATH:;
#CDTITLE:;
#MUSIC:Hydra.ogg;
#OFFSET:-0.138000;
#SAMPLESTART:108.134247;
#SAMPLELENGTH:14.999990;
#SELECTABLE:YES;
#BPMS:0.000000=160.000000
,160.000000=80.000000
,192.000000=160.000000
;
#STOPS:
;
#BGCHANGES:;
#KEYSOUNDS:;
#ATTACKS:;

//---------------dance-single - ----------------
#NOTES:
     dance-single:
     :
     Beginner:
     4:
     0.160791,0.235763,0.000000,0.006660,0.000000,169.000000,169.000000,0.000000,1.000000,0.000000,0.000000,0.160791,0.235763,0.000000,0.006660,0.000000,169.000000,169.000000,0.000000,1.000000,0.000000,0.000000:
0000
0000
0000
0000
,
0000
0000
0000
0000
,
0000
0000
0000
0000
,
0000
0000
0000
0000
,
0000
0000
0000
0000
,
0000
0000
0000
0000
,
0000
0000
0000
0000
,
0100
0000
0000
0000
,
0001
0000
0000
0000
,
1000
0000
0000
0000
,
0001
0000
0000
0000
,
1000
0000
0000
0000
,
0001
0000
0000
0000
,
0100
0000
0000
0000
,
0100
0000
0100
0000
,
0010
0000
0000
0000
,
1000
0000
0001
0000
,
1000
0000
0001
0000
,
0100
0000
0010
0000
,
0100
0000
0010
0000
,
1000
0000
0100
0000
,
1000
0000
0100
0000
,
0010
0000
0001
0000
,
0010
0000
0001
0000
,
0100
0000
0100
0100
,
0000
0000
0010
0010
,
0000
0000
1000
1000
,
0000
0001
0001
0000
,
0100
0000
0010
0000
,
1000
1000
0000
0000
,
0001
0000
0001
0000
,
0100
0000
0010
0000
,
1000
0000
0001
0000
,
1000
0000
0001
0000
,
0100
0000
0010
0000
,
0100
0000
0010
0000
,
1000
0000
0100
0000
,
0001
0000
0100
0000
,
1000
0000
0010
0000
,
0001
0000
0010
0000
,
1000
0000
1000
0000
,
0001
0000
0001
0000
,
0100
0000
0100
0000
,
0010
0000
0010
0000
,
1000
0001
1000
0000
,
0010
0100
0010
0000
,
0100
0001
0100
0000
,
0010
1000
0001
1000
,
0010
0000
0010
0000
,
0100
0000
0100
0000
,
0001
0000
0001
0000
,
1000
1000
1000
0000
,
0010
0010
0010
0000
,
0100
0000
0100
0000
,
0001
1000
0001
0000
,
1000
0001
1000
0000
,
0010
0000
0100
0000
,
0010
0000
1000
0000
,
0001
0000
1000
0000
,
0001
0000
0100
0000
,
0010
0000
0010
0000
,
1000
0000
1000
0000
,
0001
0000
0001
0000
,
0100
0000
0100
0000
,
0001
0000
0001
0000
,
1000
0001
1000
0000
,
0010
0000
0010
0000
,
0100
0000
0100
0000
,
0001
0000
1000
0000
,
0001
0000
1000
0000
,
0010
0000
0010
0000
,
0100
0000
0100
0000
,
0001
0000
0001
0000
,
1000
1000
1000
0000
,
0100
0000
0100
0000
,
0100
0100
0100
0000
,
0010
0000
0010
0000
,
0001
0001
0001
0000
,
1000
0000
1000
0000
,
0001
0000
0001
0000
,
0100
0000
0100
0000
,
0100
0000
0010
0000
,
1000
0000
0001
0000
,
1000
0000
0001
0000
,
0100
0000
0001
0000
,
0100
0000
0001
0000
,
1000
0000
0010
0000
,
1000
0000
0010
0000
,
0200
0000
0300
0000
;

//---------------dance-single - ----------------
#NOTES:
     dance-single:
     :
     Easy:
     9:
     0.371055,0.530466,0.419578,0.193139,0.023310,390.000000,327.000000,63.000000,29.000000,0.000000,0.000000,0.371055,0.530466,0.419578,0.193139,0.023310,390.000000,327.000000,63.000000,29.000000,0.000000,0.000000:
0000
0000
0000
0000
,
0000
0000
0000
0000
,
0000
0000
0000
0000
,
0000
0000
0000
0000
,
0000
0000
0000
0000
,
0000
0000
0000
0000
,
0000
0000
0000
0000
,
1000
1000
0001
0001
,
0100
0000
0010
0000
,
0100
0000
0001
0000
,
1001
0000
1000
0000
,
0010
0000
0100
0000
,
0110
0000
0010
0000
,
1000
0000
0001
0000
,
1001
0000
0110
0000
,
1001
0000
0000
0000
,
0001
0001
0100
0100
,
0010
0010
1001
1001
,
0100
0100
0010
0010
,
1000
1000
1001
1001
,
0001
0100
0010
0100
,
0001
1000
1010
0101
,
1000
0100
0001
0100
,
1000
0010
0001
0010
,
1000
0001
0101
0101
,
1000
0010
1010
1010
,
0001
0100
0101
0101
,
0001
0010
1010
1010
,
1000
0010
0011
0011
,
0001
0100
1100
1100
,
1000
0100
0001
0010
,
1000
0100
0001
0010
,
2000
0000
3001
0000
,
0002
0000
0103
0000
,
0200
0000
0310
0000
,
0020
1000
1030
0000
,
2000
0001
3001
0000
,
0002
0100
0103
0000
,
0200
0010
0310
1000
,
1001
0001
0100
0010
,
2000
3001
0002
0103
,
0020
1030
1000
0001
,
0200
0310
2000
3001
,
0002
0103
0200
0310
,
2000
0000
3001
0000
0100
0010
1000
0000
,
0001
0100
0010
0000
2000
3200
0320
0032
,
0103
0010
1000
0000
0001
1000
0001
0000
,
2000
3200
0320
0032
0203
0320
2030
3002
,
1003
0000
0000
0010
0000
0000
1000
0000
0010
0000
0000
1000
0000
0000
0001
0000
,
1000
0000
0000
0001
0000
0000
1000
0000
0001
0000
0000
0100
0000
0000
0001
0000
,
0100
0000
0000
0010
0000
0000
0100
0000
0010
0000
0000
1000
0000
0000
0010
0000
,
1000
0000
0000
0100
0000
0000
1000
0000
0100
0000
0000
0000
1001
0000
0000
0000
,
0010
0000
0010
0000
0100
0001
0100
0000
,
0001
0000
1000
0000
0010
1000
0010
0000
,
0100
0001
1000
0001
,
0100
0000
0000
0000
,
0100
0000
0001
0000
1000
0001
1000
0000
,
0010
0000
0100
0000
0001
0100
0001
0000
,
1000
0000
0010
0000
1000
0010
1000
0000
,
0001
0100
0001
1000
,
0010
1000
0010
0000
1000
0001
1000
0000
,
0001
0100
0010
0100
,
0001
1001
1000
1010
,
0010
0110
0101
1001
,
1010
0000
0100
0000
0010
0100
0010
0000
,
0100
0000
1001
0000
0001
0010
0001
0000
,
1000
0100
1000
0000
0010
0000
0110
0000
,
0100
0000
0001
0000
1000
0001
1000
0000
,
0100
0110
0100
1000
,
0001
0011
0010
0001
,
0100
0010
0110
0010
,
1000
0001
1001
1000
,
1010
0010
0100
0001
,
1001
1000
1010
0110
,
0101
1001
1001
0110
,
0110
1001
1001
0101
,
0110
1010
0100
1000
,
0010
0001
0010
1001
,
0100
1001
0010
1001
,
0100
1001
0010
1001
,
0100
0001
0011
0001
,
0100
1100
1000
0001
,
0101
0100
0110
0010
,
1000
0001
1001
1000
,
1100
0010
0010
0001
,
0100
0000
0010
0000
0100
0010
0100
0000
,
0010
1000
0001
0000
1000
0001
0100
0000
,
0001
1000
0010
1000
,
2002
0000
3003
0000
;

//---------------dance-single - ----------------
#NOTES:
     dance-single:
     :
     Hard:
     17:
     0.840107,0.978016,0.912415,0.259739,0.832495,883.000000,746.000000,137.000000,39.000000,24.000000,0.000000,0.840107,0.978016,0.912415,0.259739,0.832495,883.000000,746.000000,137.000000,39.000000,24.000000,0.000000:
// measure 0
0000
0000
0000
0000
,  // measure 1
0000
0000
0000
0000
,  // measure 2
0000
0000
0000
0000
,  // measure 3
0000
0000
0000
0000
,  // measure 4
0000
0000
0000
0000
,  // measure 5
0000
0000
0000
0000
,  // measure 6
0000
0000
0000
0000
,  // measure 7
0101
0000
0000
1100
0000
0000
1010
0000
0000
0011
0000
0000
1001
0000
0000
0000
,  // measure 8
0110
0000
0000
0000
0100
0010
0000
0010
0000
0000
1000
0000
0001
0100
0000
0100
,  // measure 9
1000
0000
0010
0000
1000
0100
0000
0100
0001
0000
1001
0000
0000
1010
0000
0000
,  // measure 10
0101
0000
0001
0000
1000
0001
0000
1000
0010
0000
0100
0000
0010
0001
0000
0010
,  // measure 11
1000
0000
0100
0000
0001
0100
0000
0010
0001
0000
1001
0000
0000
1100
0000
0000
,  // measure 12
0000
0000
0000
0000
0101
0000
0001
0000
0100
1000
0001
0000
1000
0010
0000
0010
,  // measure 13
0100
0000
0001
0000
1000
0001
0000
0001
0100
0000
0001
0000
0010
0100
1000
0100
,  // measure 14
0010
0000
0001
0000
1000
0001
1000
0000
0010
0000
0100
0000
0010
0100
0010
0000
,  // measure 15
1001
0000
0000
0000
,  // measure 16
1001
0000
0110
0000
1001
0110
1001
0000
,  // measure 17
0001
0100
0000
1000
0100
0000
0010
0000
1000
0000
0100
0000
0001
0000
0000
0000
,  // measure 18
1100
0000
0011
0000
1100
0011
1100
0000
,  // measure 19
0001
0100
0000
1000
0100
0000
0001
1000
0001
0000
0010
0000
0001
0000
0000
0000
,  // measure 20
0101
0000
1010
0000
1100
0101
1100
0000
,  // measure 21
0001
0100
0000
0100
1000
0000
0100
0000
0001
0000
0010
0000
0011
0000
0000
0000
,  // measure 22
1010
MMMM
1001
MMMM
,  // measure 23
1010
0000
0000
0011
0000
0000
0101
0000
0000
1100
0000
0000
1001
0000
0000
0000
,  // measure 24
0110
1001
0110
0000
1010
1001
0101
0000
,  // measure 25
0001
1000
0000
0010
1000
0000
0100
0000
1100
0000
0001
0000
1100
0000
0000
0000
,  // measure 26
1001
0000
0101
0000
0011
1000
0011
0000
,  // measure 27
0100
0001
1000
0001
1000
0000
0010
0000
0100
0001
0100
0001
0010
0000
0000
0000
,  // measure 28
1001
0000
1010
0000
0010
0100
0001
0000
,  // measure 29
1000
0001
0000
0010
0001
0000
1000
0000
0100
1000
0100
1000
0001
0100
0001
0100
,  // measure 30
0001
MMMM
1001
MMMM
,  // measure 31
0110
0000
0000
1010
0000
0000
1001
0000
0000
0101
0000
0000
0220
0000
0330
0000
,  // measure 32
1001
0000
1000
0000
0001
1000
0000
0010
1000
0100
1000
0000
0001
0100
0000
0010
,  // measure 33
0100
0001
0010
0000
0001
1000
0000
0010
1000
0100
1000
0000
0001
0010
0001
0010
,  // measure 34
0001
0000
0100
0000
0010
0100
0000
0100
0001
1000
0001
0000
1000
0010
0000
0010
,  // measure 35
0100
0001
1000
0000
1000
0001
0000
0001
0100
0010
0100
0000
0010
1000
0100
0010
,  // measure 36
0001
0000
0000
0000
1001
0000
0001
0000
1000
0010
1000
0000
0010
0100
0000
0100
,  // measure 37
0001
1000
0001
0000
1000
0010
0000
0010
0100
0001
0100
0000
0001
1000
0000
1000
,  // measure 38
0100
1000
0010
0000
0010
0100
0000
0100
0001
0010
0001
0000
0001
1000
0010
0000
,  // measure 39
1010
0000
0000
0110
0000
0000
0101
0000
0000
1001
0000
0000
1010
0000
0000
0000
,  // measure 40
2001
0000
0000
3002
0000
0000
0023
0000
0000
0000
0000
0000
0000
0000
0000
0000
,  // measure 41
0230
0302
0203
2300
3002
0203
0320
2030
,  // measure 42
3001
0000
0000
1001
0000
0000
0001
0100
0001
1000
0010
1000
0100
0010
0001
0000
,  // measure 43
0200
0302
2003
3200
0302
0203
2300
3020
,  // measure 44
0130
0001
0100
0000
0001
0000
1000
0000
0001
0000
1000
0000
0010
0000
0000
0000
0110
0000
0000
0000
0001
0000
0100
0000
0001
0000
0100
0000
0001
0000
0100
0000
,  // measure 45
0020
2030
3002
0023
0032
2003
3200
2300
,  // measure 46
3010
0100
0010
0100
0001
1000
0001
0000
1000
0000
0010
0100
0001
0000
0010
1000
,  // measure 47
0010
0000
0001
0000
0001
0010
0100
1000
0020
0000
2030
0000
3200
0000
2300
0000
,  // measure 48
3001
0000
0000
0101
0000
0000
0100
0000
1010
0000
0000
1001
0000
0000
0011
0000
,  // measure 49
1001
0000
0000
1010
0000
0000
0110
0000
0101
0000
0000
1001
0000
0000
0100
1000
,  // measure 50
0100
0000
0000
1001
0000
0000
0101
0000
0110
0000
0000
1010
0000
0000
1001
0000
,  // measure 51
0101
0000
0000
1001
0000
0000
1010
0000
0110
0000
0000
0000
1001
0000
0000
0000
,  // measure 52
0001
1000
0001
1000
0010
1000
0010
1000
0001
1000
0001
1000
0100
1000
0100
1000
,  // measure 53
0010
0100
0010
0100
0001
0100
0001
0100
1000
0100
1000
0100
0010
0100
0010
0100
,  // measure 54
0001
0010
0001
0010
0100
1000
0100
1000
0010
0100
0010
0100
0001
1000
0001
1000
,  // measure 55
0010
0000
0010
0000
1000
0100
0010
0001
0100
0000
0001
0000
1001
0000
0000
0000
,  // measure 56
1000
0010
1000
0010
0100
0000
0001
0000
0010
0001
0010
0001
0100
0000
0010
0000
,  // measure 57
1000
0001
1000
0001
0100
0000
0001
0000
0010
0100
0010
0100
1000
0100
1000
0000
,  // measure 58
0001
1000
0001
1000
0010
0000
0100
0000
0001
0010
0100
1000
0100
0010
0001
0000
,  // measure 59
1000
0100
0010
0001
0010
0000
0100
1000
0001
1000
0010
0100
0010
0100
0001
0000
,  // measure 60
0010
0001
0010
0100
1000
0000
0010
1000
0001
1000
0010
1000
0001
0000
1000
0000
,  // measure 61
0010
0100
0001
0100
0010
0000
1000
0000
0001
1000
0010
1000
0001
1000
0010
0000
,  // measure 62
0100
0001
0100
0001
1000
0010
1000
0000
0001
1000
0001
1000
0010
1000
0010
0000
,  // measure 63
1001
0000
0000
1010
0000
0000
0110
0000
0101
0000
1001
0000
1001
0000
0000
0000
,  // measure 64
1000
0100
0001
0100
1000
0000
0001
0000
1000
0010
0001
0010
1000
0000
0010
0000
,  // measure 65
0100
0001
0010
0100
1000
0000
0001
0000
1000
0100
0010
0001
0100
0001
0010
0000
,  // measure 66
0001
0100
1000
0100
0001
0000
1000
0000
0001
0010
1000
0010
0001
0000
1000
0000
,  // measure 67
0001
0010
0100
1000
0001
0000
1000
0001
1000
0010
0100
0010
1000
0010
0100
0010
,  // measure 68
1000
0100
0010
0001
0100
0000
0110
0000
0010
1000
0001
1000
0010
0000
1000
0000
,  // measure 69
0001
0010
0100
1000
0001
0000
0100
0001
0100
0010
1000
0010
1000
0001
1000
0000
,  // measure 70
0001
0010
0001
0010
0001
0000
0100
0000
0010
1000
0010
1000
0010
0000
0100
0001
,  // measure 71
1000
0000
0000
1001
0000
0000
0101
0000
1100
0000
0101
0000
1001
0000
0000
0000
,  // measure 72
1010
1000
1001
0000
0101
0100
0110
0000
,  // measure 73
0010
1000
0001
1000
0100
0000
0010
0000
1001
0000
0110
0000
0100
0010
0100
0000
,  // measure 74
1001
0000
1010
0010
0110
0100
0101
0001
,  // measure 75
1000
0100
0010
0100
1000
0000
1010
0000
0110
0000
0110
0000
0202
0000
0303
0000
,  // measure 76
1001
0000
1010
0000
0110
0100
0101
0001
,  // measure 77
1001
0000
1000
0000
1100
0000
0100
0000
0010
0001
0010
0001
0010
0001
1000
0000
,  // measure 78
1001
MMMM
1001
MMMM
,  // measure 79
1001
0000
0000
0101
0000
0000
0110
0000
0000
1010
0000
0000
0220
0000
0330
0000
,  // measure 80
1001
0000
1000
0000
0001
0100
0010
0100
0001
0000
0010
0000
0100
1000
0001
1000
,  // measure 81
0100
0000
0010
0000
0001
1000
0010
1000
0100
0000
1000
0000
1010
0000
0000
0000
,  // measure 82
0110
0000
0000
0000
0100
0001
1000
0001
0100
0000
0010
0000
1000
0010
0100
0010
,  // measure 83
1000
0000
0001
1000
0010
0000
1000
0000
1001
0000
0001
0000
0101
0000
0000
0100
,  // measure 84
0010
0000
0000
0000
1001
0000
0001
0000
0100
0010
0100
0000
0001
1000
0000
1000
,  // measure 85
0010
1000
0100
0000
0010
0001
0000
0001
1000
0001
0100
0000
0010
0100
0010
0100
,  // measure 86
0001
0000
1000
0000
0001
1000
0000
1000
0010
0100
0010
0000
1000
0001
1000
0000
,  // measure 87
1001
0000
0000
0101
0000
0000
1100
0000
0000
1010
0000
0000
0011
0000
0000
0000
,  // measure 88
2002
0000
0000
0000
,  // measure 89
3003
0000
0000
0000
;

//---------------dance-single - ----------------
#NOTES:
     dance-single:
     :
     Medium:
     15:
     0.697393,0.800194,0.646016,0.239759,0.552777,733.000000,636.000000,97.000000,36.000000,0.000000,0.000000,0.697393,0.800194,0.646016,0.239759,0.552777,733.000000,636.000000,97.000000,36.000000,0.000000,0.000000:
// measure 0
0000
0000
0000
0000
,  // measure 1
0000
0000
0000
0000
,  // measure 2
0000
0000
0000
0000
,  // measure 3
0000
0000
0000
0000
,  // measure 4
0000
0000
0000
0000
,  // measure 5
0000
0000
0000
0000
,  // measure 6
0000
0000
0000
0000
,  // measure 7
1001
0000
0000
1000
0000
0000
1010
0000
0000
0010
0000
0000
0110
0000
0000
0000
,  // measure 8
0100
0000
0000
0000
0001
1000
0000
0001
0000
0000
1000
0000
0010
1000
0000
0010
,  // measure 9
0000
0000
1000
0000
0001
1000
0000
0001
0000
0000
0101
0000
0000
0110
0000
0000
,  // measure 10
1010
0000
1000
0000
0001
1000
0000
0001
0100
0000
0010
0000
1000
0001
0000
1000
,  // measure 11
0001
0000
0100
0000
0001
0100
0000
0001
0000
0000
1001
0000
0000
1010
0000
0000
,  // measure 12
0000
0000
0000
0000
0110
0000
0000
0000
1000
0001
1000
0000
0001
0100
0000
0100
,  // measure 13
0010
0000
1000
0000
0010
0100
0000
0100
0001
0000
1000
0000
0001
0010
0001
0000
,  // measure 14
0100
0000
0000
0110
0000
0000
0010
0000
1000
0000
0000
1001
0000
0000
0101
0000
,  // measure 15
0000
0000
0000
0000
,  // measure 16
0110
0000
1001
0000
0010
0100
0110
0000
,  // measure 17
0100
0001
0000
0001
0100
0000
0010
0000
1000
0000
0100
0000
0001
0000
0000
0000
,  // measure 18
1100
0000
1010
0000
0010
0001
0010
0000
,  // measure 19
0100
0001
0000
0100
1000
0000
0100
0001
0100
0000
0010
0000
1000
0000
0000
0000
,  // measure 20
1001
0000
0101
0000
0001
0010
1100
0000
,  // measure 21
1000
0100
0000
0100
0001
0000
0100
0000
1000
0000
0010
0000
0110
0000
0000
0000
,  // measure 22
1001
0000
0110
0000
,  // measure 23
1001
0000
0000
0101
0000
0000
0110
0000
0000
1010
0000
0000
1100
0000
0000
0000
,  // measure 24
1000
0001
0101
0000
0010
0010
0010
0000
,  // measure 25
0100
0001
0000
0010
1000
0000
0010
0000
0001
0000
0100
0000
0110
0000
0000
0000
,  // measure 26
1010
0000
1001
0000
0100
0100
0100
0000
,  // measure 27
0010
1000
0010
1000
0010
0000
1000
0000
0001
1000
0001
1000
0001
0000
0100
0000
,  // measure 28
0101
0000
1001
0000
1000
0100
0101
0000
,  // measure 29
1000
0010
0000
0010
0001
0000
0100
0000
0110
0000
0010
0000
1000
0000
0001
0000
,  // measure 30
0101
0000
1001
0000
,  // measure 31
1010
0000
0000
0110
0000
0000
0101
0000
0000
0011
0000
0000
0110
0000
0000
0000
,  // measure 32
0100
0000
1000
0000
0001
1000
0000
0010
1000
0000
0100
0000
0010
0001
0000
0100
,  // measure 33
0001
0000
1000
0000
0010
1000
0000
0100
0001
0000
0100
0000
1000
0001
1000
0001
,  // measure 34
0100
0000
0010
0000
1000
0001
0000
0001
0100
0000
0010
0000
1000
0001
0000
0100
,  // measure 35
0001
0000
0010
0000
0100
1000
0000
0001
1000
0000
0010
0000
0100
0001
0000
0010
,  // measure 36
0001
0000
0000
0000
1001
0000
1000
0000
0010
0100
0010
0000
0100
0001
0000
0001
,  // measure 37
1000
0000
1000
0000
0010
0100
0000
0001
0100
0000
1000
0000
0100
0001
0000
0010
,  // measure 38
0001
0000
0010
0000
0100
1000
0000
0100
1000
0000
0001
0000
1000
0001
0000
1000
,  // measure 39
0001
0000
0000
0101
0000
0000
0110
0000
0000
1010
0000
0000
1001
0000
0000
0000
,  // measure 40
1001
0000
0000
0001
0000
0000
0200
0000
0000
0000
0000
0000
0000
0000
0000
0000
,  // measure 41
0302
2003
3200
0320
0032
0203
0320
2030
,  // measure 42
3001
0000
0000
0101
0000
0000
0000
0001
1000
0001
0100
0010
0100
0000
0010
0000
,  // measure 43
2000
3200
0302
0203
2300
3020
0032
0023
,  // measure 44
1030
0100
0010
0001
0100
0010
0200
0000
0310
0000
1000
0001
1000
0000
0001
0010
,  // measure 45
0002
0023
0230
2300
3020
0230
0302
0023
,  // measure 46
0130
1000
0001
1000
0001
0100
0001
0000
0010
0000
0001
0100
1000
0000
0100
0000
,  // measure 47
0002
0023
0230
2300
3200
0320
0032
0203
,  // measure 48
0310
0000
0000
1001
0000
0000
0010
0000
0100
0000
0000
0110
0000
0000
0001
0000
,  // measure 49
0100
0000
0000
0101
0000
0000
1000
0000
0100
0000
0000
1100
0000
0000
0001
0000
,  // measure 50
0010
0000
0000
0011
0000
0000
1000
0000
0010
0000
0000
1010
0000
0000
0010
0000
,  // measure 51
0100
0000
0000
0110
0000
0000
0100
0000
0010
0000
0000
0000
1001
0000
0000
0000
,  // measure 52
1000
0010
1000
0000
0010
0000
1000
0000
0010
0000
1000
0000
0010
0000
1000
0000
,  // measure 53
0001
0100
0001
0000
0100
0000
0001
0000
0100
0001
0100
0000
0001
0000
0100
0000
,  // measure 54
0010
0100
0010
0100
0010
0100
0010
0100
0010
0100
0010
0100
0010
0100
0010
0100
,  // measure 55
0001
0000
0001
0000
1000
0000
0010
1000
0010
0000
0100
0000
0101
0000
0000
0000
,  // measure 56
0001
1000
0001
1000
0010
0000
0100
0000
0010
1000
0010
0000
1000
0000
0001
0000
,  // measure 57
0100
0001
0100
0000
0010
0000
1000
0000
0100
0001
0100
0000
1000
0010
1000
0000
,  // measure 58
0001
1000
0001
0000
0100
0000
0010
0000
0001
0010
1000
0000
0001
0000
0100
0000
,  // measure 59
1000
0100
0001
0000
1000
0000
0001
0000
0010
0000
0001
0000
0100
0000
0010
0000
,  // measure 60
1000
0001
1000
0001
1000
0000
0010
0000
0100
0000
0001
0000
0010
0000
0001
0000
,  // measure 61
0100
0010
0100
0000
0001
0000
1000
0000
0001
1000
0001
0000
0010
0100
0010
0000
,  // measure 62
0100
1000
0000
1000
0100
0000
0001
0000
0100
1000
0000
1000
0010
0000
0001
0000
,  // measure 63
0010
1000
0000
1000
0001
0000
0100
0000
0101
0000
0001
0000
1001
0000
0000
0000
,  // measure 64
0100
0001
0100
0001
1000
0000
0010
0000
1000
0000
0001
0000
0100
0000
0001
0000
,  // measure 65
0010
0001
0010
0001
0010
0000
1000
0000
0010
0100
0010
0100
0010
0000
0001
0000
,  // measure 66
1000
0100
0000
0100
1000
0000
0010
0000
0100
0001
0000
0001
0010
0000
0001
0000
,  // measure 67
1000
0010
1000
0000
0001
0000
1000
0000
0001
0100
0001
0000
0100
0001
0100
0000
,  // measure 68
0001
1000
1010
0000
0010
1000
0100
0010
,  // measure 69
0001
0010
0001
0000
0010
0000
0100
0000
1000
0001
1000
0000
0010
0100
0010
0000
,  // measure 70
0100
0001
0000
0001
0100
0000
1000
0000
0100
0001
0000
0001
0100
0000
0010
0000
,  // measure 71
0110
0000
0000
0101
0000
0000
0001
0000
1001
0000
1000
0000
1010
0000
0000
0000
,  // measure 72
0110
0000
0101
0000
0001
0001
1000
1000
,  // measure 73
0010
0100
0010
0100
0001
0000
0001
0000
0100
0000
0100
0000
1010
0000
0000
0000
,  // measure 74
1001
0000
0011
0001
0100
0100
0010
0010
,  // measure 75
1000
0100
1000
0100
1000
0000
0001
0000
0010
0000
0001
0000
0101
0000
0000
0000
,  // measure 76
1001
0000
1010
0000
0110
0100
0110
0010
,  // measure 77
0110
0100
0110
0010
1001
1000
1001
0000
,  // measure 78
1001
0000
1001
0000
,  // measure 79
1001
0000
0000
0110
0000
0000
1001
0000
0000
0110
0000
0000
1001
0000
0000
0000
,  // measure 80
0001
0000
0100
0000
0001
1000
0001
0000
1000
0000
0010
0000
1000
0010
1000
0000
,  // measure 81
0001
0000
0100
0000
0001
0100
0001
0000
1000
0000
0010
0000
0110
0000
0000
0000
,  // measure 82
0001
0000
0010
0000
0100
0010
0001
0000
1000
0000
0000
0000
0001
1000
0001
0000
,  // measure 83
1000
0000
0010
0000
1000
0000
0000
0000
0001
0000
0100
0000
0110
0000
0000
0010
,  // measure 84
1000
0000
0000
0000
1001
0000
0000
0000
0001
0100
0001
0000
1000
0010
0000
0010
,  // measure 85
0100
0000
0001
0000
0010
0001
0000
0001
1000
0000
0100
0000
1000
0001
1000
0000
,  // measure 86
0001
0000
0110
0000
,  // measure 87
1001
0000
0000
1100
0000
0000
0110
0000
0000
0011
0000
0000
1001
0000
0000
0000
,  // measure 88
2002
0000
0000
0000
,  // measure 89
3003
0000
0000
0000
;
