#TITLE:GIRIGIRI DADDY;
#SUBTITLE:;
#ARTIST:Shoichiro Hirata;
#TITLETRANSLIT:;
#SUBTITLETRANSLIT:;
#ARTISTTRANSLIT:;
#GENRE:R&B;
#CREDIT:Graphics made by TonyAkita;
#MUSIC:[Week 1] - GIRIGIRI DADDY.ogg;
#BANNER:[Week 1] - GIRIGIRI DADDY.png;
#BACKGROUND:[Week 1] - GIRIGIRI DADDY-bg.png;
#JACKET:[Week 1]- GIRIGIRI DADDY-jacket.png;
#CDTITLE:;
#SAMPLESTART:40.304;
#SAMPLELENGTH:14.999;
#SELECTABLE:YES;
#OFFSET:-0.002;
#BPMS:0.000=98.087
,114.000=115.000
,115.000=98.087
;
#STOPS:114.000=0.030
,114.333=0.030
,114.667=0.030
;
#DISPLAYBPM:98.000;
#BGCHANGES:;
#FGCHANGES:;

//--------------- dance-single - forcednature ----------------
#NOTES:
     dance-single:
     forcednature:
     Beginner:
     2:
     0,0,0,0,0:
0000
0000
0000
0000
,
0000
0000
0000
0000
,
0000
0000
0000
0000
,
0000
0000
0000
0000
,
0000
0000
0000
0000
,
0010
0000
0100
0000
,
0010
0000
0100
0000
,
0001
0000
1000
0000
,
0001
0000
0000
0000
,
1000
0000
0100
0000
,
1000
0000
0010
0000
,
0100
0000
0001
0000
,
0010
0000
0001
0000
,
0100
0000
0010
0000
,
0100
0000
0010
0000
,
1000
0000
0001
0000
,
1000
0000
0001
0000
,
1001
0000
0100
0000
,
0100
0000
0000
0000
,
1001
0000
0010
0000
,
0010
0000
0000
0000
,
0110
0000
1000
0000
,
1000
0000
0000
0000
,
0110
0000
0001
0000
,
0001
0000
0000
0000
,
0200
0000
0300
0000
,
0200
0000
0300
0000
,
0200
0000
0300
0000
,
0200
0000
0300
0000
,
0110
0000
1000
0000
,
0001
0000
0010
0000
,
1000
0000
0010
0000
,
0001
0000
0000
0000
,
1001
0000
0001
0000
,
0100
0000
0000
0000
,
1001
0000
1000
0000
,
0100
0000
0000
0000
,
0110
0000
0010
0000
,
0010
0000
0000
0000
,
0110
0000
0010
0000
,
0010
0000
0000
0000
,
1001
0000
1000
0000
,
0001
0000
0000
0000
,
0110
0000
0100
0000
,
0010
0000
0000
0000
0000
0000
0000
0000
0000
0000
0000
0010
0000
0000
0000
0000
;

//--------------- dance-single - forcednature ----------------
#NOTES:
     dance-single:
     forcednature:
     Easy:
     5:
     0,0,0,0,0:
0000
0000
0000
0000
,
0000
0000
0000
0000
,
0000
0000
0000
0000
,
0000
0000
0000
0000
,
0000
0000
0000
0000
,
1000
1000
0001
0001
,
1000
1000
0001
0100
,
0001
0001
1000
1000
,
0001
0000
0000
0000
,
0100
0000
0100
0000
0010
0100
0010
0000
,
1000
0000
1000
0000
0001
1000
0001
1000
,
0001
0000
0010
0000
0100
0000
1000
0010
,
1000
0100
0010
0010
,
0001
0100
0001
0000
1000
0100
1000
0000
,
0010
0100
0010
0100
0010
0100
0010
0000
,
1000
0001
1000
0000
0100
0010
0100
0000
,
1000
0000
0001
0000
0100
0010
0100
0010
,
0100
0100
1001
0010
,
1000
0200
0001
0300
0100
0000
0100
0000
,
0100
0100
1001
0010
,
0100
0000
0001
0200
1000
0300
0100
0000
,
0100
0100
1001
0100
,
0010
0000
1000
0200
0001
0300
0100
0000
,
0100
0100
1001
0100
,
0010
0000
0001
0200
1000
0300
0100
0000
,
0010
0000
0000
0010
0000
0000
0010
0000
0000
0000
0000
0000
0000
0000
0000
0000
,
0100
0000
0000
0100
0000
0000
0100
0000
0000
0000
0000
0000
0000
0000
0000
0000
,
0001
0000
0000
0001
0000
0000
0001
0000
0000
0000
0000
0000
0000
0000
0000
0000
,
1000
0000
0000
1000
0000
0000
1000
0000
0010
0000
0000
0000
0100
0000
0100
0000
,
1000
0000
0100
0000
1000
0100
0010
0001
,
0100
0000
0001
0000
0100
0001
1000
0010
,
0100
0000
0001
0010
0001
0000
1000
0010
,
1000
0000
0000
0001
0000
0000
1000
0000
0000
0001
0000
0000
1000
0000
0000
0000
,
0100
0100
1001
0100
,
0010
0000
1000
0200
0001
0300
0100
0000
,
0100
0100
1001
0100
,
0010
0000
0001
0200
1000
0300
0100
0000
,
0100
0100
1001
0100
,
0010
0000
1000
0200
0001
0300
0100
0000
,
0100
0100
1001
0100
,
0010
0000
0001
0200
1000
0300
0100
0000
,
0100
0100
1001
0100
,
0010
0000
0001
0110
1000
0000
0100
0000
,
0100
0100
1001
0100
,
0010
0000
0000
1000
0000
0110
0000
0001
0000
0000
0000
0100
0000
0000
0000
0000
;

//--------------- dance-single - forcednature ----------------
#NOTES:
     dance-single:
     forcednature:
     Medium:
     8:
     0,0,0,0,0:
0000
0000
0000
0000
,
0000
0000
0000
0000
,
0000
0000
0000
0000
,
0000
0000
0000
0000
,
0000
0000
0000
0000
,
1000
0001
0100
0010
,
1000
1000
0001
0100
,
0001
0001
0010
0100
,
1000
0000
0000
0001
0000
1000
0000
0001
0000
0000
0000
0000
0000
0000
0100
0000
,
0100
0001
0100
1000
0100
0110
0000
0010
,
1000
0001
0010
0010
0100
1000
0010
0110
,
0000
0001
1000
0100
1100
0000
1000
0001
,
0101
0000
0000
0000
0100
0000
0010
0000
0100
0000
0000
0100
0000
0000
0100
0000
,
0010
0000
1000
0000
0001
1000
0000
0000
0001
0000
0010
0000
0100
0010
0000
0000
,
0100
0000
1000
0000
0010
0000
0100
0000
0001
0000
1000
0001
1000
0001
0000
0000
,
0100
0000
0010
0000
1000
0100
0000
0000
0100
0000
0010
0000
0001
0000
0100
0000
,
0000
0000
0010
0000
1000
0000
0001
0000
0100
0010
0100
0010
0100
0000
0001
0000
,
0110
0000
0101
0000
1100
0000
0010
1000
,
0100
0000
0000
0000
0010
0000
0000
0001
0000
1000
0000
0001
0000
0000
0100
0000
,
0110
0000
0101
0000
1100
0000
0001
0010
,
0100
0000
0000
1000
0000
0001
0000
1000
0000
0001
0000
1000
0000
0000
0000
0000
,
0110
0000
1010
0000
0011
0000
1000
0001
,
0100
0000
0000
0000
0010
0000
0000
1000
0000
0100
0000
0010
0000
0000
0001
0000
,
0101
0000
1100
0000
0110
0000
1000
0001
,
0100
0000
0000
0001
0000
0010
0000
0100
0000
1000
0000
0010
0000
0000
0000
0000
,
0200
0000
0000
1000
0000
0000
0002
0000
0303
0000
0000
0000
0000
0000
0000
0000
,
0020
0000
0000
0001
0000
0000
2000
0000
3030
0000
0000
0000
0000
0000
0000
0000
,
2000
0000
0000
0100
0000
0000
0020
0000
3030
0000
0000
0000
0000
0000
0000
0000
,
0002
0000
0000
0000
0000
0000
0000
0000
0000
0100
0000
0000
0000
0000
0000
0000
0000
0000
0013
0000
0000
0000
0000
0000
0001
0000
0000
0000
1000
0000
0000
0000
0001
0000
0000
0000
1000
0000
0000
0000
0000
0000
0110
0000
0000
0000
0000
0000
,
1000
0000
0100
0000
1000
0000
0100
0000
0001
0000
0100
0000
0010
0100
0000
0000
,
0001
0000
0100
0000
0001
0000
0100
0000
1000
0000
0100
0000
0010
0100
0000
0000
,
1000
0000
0001
0000
0100
0010
0000
0000
1000
0000
0001
0000
0010
0100
0000
0000
,
1000
0000
0000
0001
0000
0000
1000
0000
0000
0001
0000
0000
0100
0010
0100
0010
,
0100
0000
1100
0000
0101
0000
0010
1000
,
0001
0000
0000
0000
0010
0000
0000
0100
0000
1000
0000
0001
0000
0000
0100
0000
,
0011
0000
1010
0000
1001
0000
1000
0010
,
0100
0000
0000
0001
0000
0010
0000
0100
0000
1000
0000
0010
0000
0000
0000
0000
,
1001
0000
1100
0000
0101
0000
0100
0010
,
1000
0000
0000
0000
0100
0000
0000
0010
0000
0001
0000
1000
0000
0000
0000
0000
,
0110
0000
1001
0000
0110
0000
0001
0010
,
0100
0000
0000
1000
0000
0010
0000
0100
0000
0001
0000
1000
0000
0000
0000
0000
,
1100
0000
0011
0000
0101
0000
0010
1000
,
0100
0000
0000
0000
1000
0000
0000
0001
0000
0100
0000
0010
0000
0000
0000
0000
,
0110
0000
1001
0000
0110
0000
1000
0010
,
0100
0000
0000
0001
0000
1000
0000
0001
0000
0100
0000
0010
0000
0000
0000
0000
;

//--------------- dance-single - forcednature ----------------
#NOTES:
     dance-single:
     forcednature:
     Hard:
     11:
     0,0,0,0,0:
0000
0000
0000
0000
,
0000
0000
0000
0000
,
0000
0000
0000
0000
,
0000
0000
0000
0000
,
0000
0000
0000
0000
,
1001
0000
1000
0010
0000
1000
0000
0100
0000
0000
0010
0001
0000
0100
0010
0000
,
1000
0000
0001
0100
0000
0010
0000
1000
0000
0110
0000
0001
0100
0000
0000
0000
,
0010
0000
0000
0000
1000
0000
0001
0000
0000
0000
1000
0000
0000
0000
0100
0000
0000
0000
0000
0000
0000
0000
0010
0000
0001
0000
0000
0100
0000
0000
0010
0000
,
1010
0000
0000
0101
0000
1100
0000
1001
0000
0200
0000
0000
0000
0310
0100
0010
,
0100
0000
0001
0010
0100
1000
0100
0010
0001
0000
1000
0000
0000
0000
0001
0100
,
0001
1000
0010
1000
0001
0010
0100
1000
0000
0001
0100
0010
1000
0000
0110
0000
,
0000
1000
0100
0010
0001
0100
0010
1000
0001
0000
0000
1000
0010
0100
0001
0100
,
0010
0000
0000
1000
0001
0010
0100
0000
0110
0000
0000
1001
0000
1000
0010
1000
,
0001
0010
0001
0100
0010
1000
0000
0001
0100
0000
0010
1000
0010
1000
0000
0001
,
0010
0100
1000
0100
0010
0001
0100
0010
1000
0000
0100
0010
0100
0010
0000
0110
,
0000
1000
0001
0000
0010
0100
0000
1001
0000
1000
0010
1000
0001
0010
0001
0000
,
0000
0100
0010
1000
0100
0010
0001
0100
0010
0100
0010
0100
0010
1000
0001
0010
,
0100
0000
0000
0000
1100
0000
0000
0000
1001
0000
0000
0001
0000
0000
0100
0000
,
0010
0000
0000
0000
1010
0000
0000
1000
0000
0110
0000
0010
0000
0000
0001
0000
,
1001
0000
0000
0000
0110
0000
0000
1000
0100
0000
0010
0001
0000
0000
0100
0000
,
0110
0000
0010
1000
0000
0001
0000
1100
0000
1000
0000
0101
0000
0000
0000
0000
,
0110
0000
0000
0000
1001
0000
0000
1000
0010
0000
1000
0001
0000
0000
0010
0000
,
0110
0000
0000
0000
1001
0000
0000
0001
0000
0110
0000
1000
0000
0000
0000
0000
,
1001
0000
0000
0000
0110
0000
0000
1000
0010
1000
0001
0100
0000
0000
0001
0000
,
0110
0000
0100
1000
0000
0001
0000
0110
0000
1000
0000
0110
0010
0100
0010
0100
,
0020
0030
0000
0200
0300
0000
0020
0030
0000
0000
0000
0000
0000
0000
0000
0000
,
2000
3000
0000
0002
0003
0000
2000
3000
0000
0000
0000
0000
0000
0000
0000
0000
,
0200
0300
0000
0020
0030
0000
0200
0300
0000
0000
0000
0000
0000
0000
0000
0000
,
2000
0000
0000
3000
0000
0000
0000
0000
0000
0002
0000
0000
0000
0000
0000
0003
0000
0000
2000
0000
0000
3000
0000
0000
0010
0000
0000
0000
0100
0000
0000
0000
0010
0000
0000
0000
0100
0000
0000
0000
0000
0000
1001
0000
0000
0000
0000
0000
,
0001
0100
0001
0100
0010
0100
0010
0100
0010
1000
0010
1000
0001
1000
0000
0001
,
0010
0001
0010
0100
0010
0100
0010
0100
1000
0100
1000
0001
1000
0001
0000
1000
,
0010
1000
0010
0100
0001
0100
0000
0001
0010
0001
0010
0100
1000
0100
0000
0010
,
0100
0000
1000
0001
0000
0100
0010
0000
1000
0001
0000
0010
0100
0010
0100
0010
,
0100
0000
0000
0000
1001
0000
0000
0000
1100
0000
0000
0010
0000
0000
0001
0000
,
0101
0000
0000
0000
1010
0000
0000
0100
0000
1010
0000
0001
0000
0000
0010
0000
,
1001
0000
0000
0000
0110
0000
0000
1000
0010
0000
1000
0001
0000
0000
0010
0000
,
0110
0000
0100
1000
0000
0010
0000
1001
0000
0100
0000
1001
0000
0000
0000
0000
,
0101
0000
0000
0000
1100
0000
0000
0001
0010
0000
0100
1000
0000
0000
0010
0000
,
1001
0000
0000
0000
0101
0000
0000
1000
0000
0110
0000
0001
0000
0000
0000
0000
,
1001
0000
0000
0000
0110
0000
0000
1000
0010
1000
0001
0100
0000
0000
0001
0000
,
0010
0000
0100
1000
0000
0110
0000
1000
0000
0101
0000
0010
0000
0000
0000
0000
,
1001
0000
0000
0000
1100
0000
0000
0010
0001
0000
1000
0010
0000
0000
0100
0000
,
0011
0000
0000
0000
1100
0000
0000
0001
0000
0110
0000
1000
0000
0000
0000
0000
,
1001
0000
0000
0000
0110
0000
0000
0001
0100
0010
1000
0001
0000
0000
1000
0000
,
0100
0000
0010
0001
0000
0100
0000
1001
0000
0010
0000
1001
0000
0000
0000
0000
;

//--------------- dance-single - forcednature ----------------
#NOTES:
     dance-single:
     forcednature:
     Challenge:
     14:
     0,0,0,0,0:
0000
0000
0000
0000
,
0000
0000
0000
0000
,
0000
0000
0000
0000
,
0000
0000
0000
0000
,
0000
0000
0000
0000
,
1001
0000
0001
0100
1000
0000
0100
0010
0000
0000
1000
0100
0000
0001
0100
0000
,
0110
0000
0010
0001
0000
0110
0000
1001
0000
1000
0000
0010
0100
0000
0000
0000
,
1001
0000
0000
0000
0001
0000
0100
0000
0000
0000
0020
0000
0000
0000
0031
0000
0000
0000
1010
0000
0000
0000
0001
0000
0010
0000
0000
0100
1000
0000
0010
0000
,
0001
0000
0000
1100
0000
0011
0000
0110
0000
2000
0000
0000
0000
3010
1000
0100
,
1100
0000
1000
0100
0001
0000
0100
0010
1000
0000
0110
0000
0001
0100
0100
0010
,
0001
0010
1000
0100
0001
0100
0010
0001
0000
1000
0010
0100
0001
0000
0110
0000
,
0000
0001
0010
1000
0100
0010
0001
0100
1000
0000
0100
0001
0010
0100
1000
0010
,
0001
0000
0000
0000
0010
0000
1000
0000
0100
0000
0001
0000
0100
0000
0010
0000
1000
0000
0010
0000
0000
0000
0010
0000
0110
0000
0000
1001
0000
0000
0110
0000
,
0001
0100
1000
0100
0010
1000
0000
0100
0010
1000
0010
0001
1000
0010
0000
0100
,
1000
0100
0001
1000
0100
0001
1000
0010
0001
0000
0100
0010
0100
0010
0000
1000
,
0001
0010
0100
1000
0010
0001
0000
1000
0100
0001
0010
0100
1000
0001
0010
0000
,
1000
0000
0010
0000
0001
0000
1000
0000
0010
0000
0001
0000
1000
0000
0100
0000
0010
0000
1000
0000
0001
0000
0010
0000
0001
0100
0001
0100
0001
0000
1000
0000
,
1010
0000
0010
0010
0110
0200
0300
0101
0000
0000
0000
0001
0010
0010
0100
0000
,
1001
0000
0000
1100
1000
0020
0030
0110
0000
0100
0001
0001
0100
0200
0310
0000
,
1001
0000
0001
0100
1000
0200
0300
0010
1000
0100
0001
0100
0010
0000
0110
0010
,
0011
0000
0001
0100
0000
0110
0000
1001
0000
1010
1000
0001
0010
0100
0100
0010
,
0011
0000
1000
0100
1100
2000
3000
0010
0100
0000
1001
0001
0010
0100
1000
0010
,
0001
0000
0000
1100
0100
0002
0003
0110
0000
1001
0000
1000
0010
0200
0300
0000
,
1001
0000
0001
0010
0110
0200
0300
1000
0010
0001
1000
0100
0010
0000
1000
0000
,
0110
0000
0001
1001
1000
1010
0000
0101
0000
1000
0100
0010
0100
1000
1000
1000
,
0002
0003
0100
0002
0003
0100
0002
0003
1000
0000
0100
0000
0010
0000
0001
0000
,
2000
3000
0100
2000
3000
0100
2000
3000
0001
0000
0100
0000
0010
0000
1000
0000
,
0200
0300
0010
0200
0300
0010
0200
0300
1000
0000
0010
0000
0100
0000
0001
0000
,
0020
0000
0000
0000
0000
0000
0030
0000
0000
0000
0000
0000
0001
0000
0000
0000
0000
0000
0020
0000
0000
0000
0000
0000
0030
0000
0000
0000
0000
0000
0001
0000
0000
0000
0000
0000
0020
0000
0000
0000
0000
0000
0030
0000
0000
0000
0000
0000
0001
0000
0000
0000
0000
0000
0000
0000
1000
0000
0000
0000
0000
0000
0000
0000
0001
0000
0000
0000
0000
0000
0000
0000
1000
0000
0000
0000
0000
0000
0001
0000
0000
1000
0000
0000
0001
0000
0000
0000
0000
0000
0000
0000
0000
0000
0000
0000
,
1000
0010
0001
0010
1000
0100
0010
1000
0001
0100
0010
0001
1000
0010
0010
0000
,
0100
0000
1000
0000
0001
0000
0010
0000
1000
0000
0100
0000
0001
0000
1000
0000
0010
0000
0100
0000
1000
0001
1000
0000
0010
0000
0001
0010
0000
0000
0010
0000
,
1000
0100
0001
0100
0010
0001
0000
1000
0010
0100
1000
0001
0010
0100
0000
0001
,
0011
0000
0000
0000
1000
0000
1010
0000
0000
0000
0010
0000
0110
0000
0000
0000
1000
0000
1001
0000
0000
0000
0001
0100
0001
0000
0001
0000
0001
0000
0001
0010
,
0001
0000
0100
0100
0101
0002
0003
1001
0000
0001
0000
1000
0100
0100
0001
0000
,
0110
0000
0000
1010
0010
0002
0003
0101
0000
1000
0100
0100
0010
0002
1003
1000
,
1010
0000
1000
0010
0001
0020
0030
0100
0001
0010
1000
0001
0100
0000
1100
1000
,
1001
0000
0000
0000
0100
0000
0010
0000
0100
0000
0101
0000
0000
0000
1010
0000
0000
0000
0101
0000
0001
0000
0010
0000
0100
0000
0010
0001
0010
0000
0100
0000
,
1100
0000
0001
0100
0110
0020
0030
1000
0100
0010
0110
0010
0001
0100
1000
0001
,
0010
0000
0000
1010
0010
2000
3000
0110
0000
1001
0000
0010
0100
0020
0130
0100
,
0110
0000
0001
1000
1010
2000
3000
0001
0010
0100
0101
0100
1000
0000
1000
0000
,
0110
0000
1000
1001
0001
0110
0000
1001
0000
1000
1000
0100
0100
0001
0001
0100
,
0110
0000
0001
0010
0110
2000
3000
1001
0000
0000
0000
1000
0001
0001
0010
0000
,
1001
0000
0000
1001
0001
0020
0030
1100
0000
1000
1000
0010
0010
0200
1300
1000
,
1100
0000
0000
0000
0110
0000
0000
1000
0100
0001
0100
0010
0000
0000
0110
0000
,
1001
0000
1000
0010
0000
0011
0000
0101
0000
1100
0000
1010
0000
0000
0000
0000
;

//--------------- dance-double - forcednature ----------------
#NOTES:
     dance-double:
     forcednature:
     Easy:
     5:
     0,0,0,0,0:
00000000
00000000
00000000
00000000
,
00000000
00000000
00000000
00000000
,
00000000
00000000
00000000
00000000
,
00000000
00000000
00000000
00000000
,
00000000
00000000
00000000
00000000
,
00011000
00010000
00001000
01000000
,
00010000
00100000
00001000
00010000
,
00000100
00001000
00000010
00001000
,
00000100
00000100
00000000
00000000
,
00001000
00000100
00001000
00000000
00000010
00000000
00000100
00000000
,
00000001
00000010
00000001
00000000
00000100
00000000
00000010
00000000
,
00001000
00000100
00001000
00000000
00000010
00000000
00001000
00000000
,
00000100
00010000
00000100
00000000
00010000
00000000
00001000
00000000
,
01000000
00010000
01000000
00000000
00100000
10000000
00100000
00000000
,
10000000
00010000
10000000
00010000
10000000
00010000
10000000
00000000
,
00100000
01000000
00100000
00000000
01000000
00010000
01000000
00000000
,
00010000
00000000
00100000
00000000
00001000
00010000
00001000
00000000
,
00011000
00000100
00001000
00000010
,
00000100
00000001
00000010
00000000
00000100
00001000
00000010
00000000
,
00000110
00000100
00000001
00001000
,
00000100
00010000
00001000
00000000
00010000
00001000
01000000
00000000
,
01100000
01000000
10000000
00010000
,
10000000
00100000
01000000
00000000
00010000
00100000
01000000
00000000
,
01100000
00000000
00010000
00000000
00100000
00001000
00010000
00000000
,
00000010
00001000
00000100
00000000
00000010
00000001
00000100
00000000
,
00000010
00000000
00000000
00000100
00000000
00000000
00000010
00000000
00000000
00000000
00000000
00000000
00000000
00000000
00000000
00000000
,
00000100
00000000
00000000
00000010
00000000
00000000
00000100
00000000
00000000
00000000
00000000
00000000
00000000
00000000
00000000
00000000
,
00000010
00000000
00000000
00000100
00000000
00000000
00000010
00000000
00000000
00000000
00000000
00000000
00000000
00000000
00000000
00000000
,
00000100
00000000
00000000
00000010
00000000
00000000
00000100
00000000
00000000
00000000
00000000
00000000
00001001
00000000
00000000
00000000
,
00000010
00000100
00000010
00000100
00000010
00000100
00000010
00000000
,
00010000
00001000
00010000
00001000
00010000
00001000
00010000
00000000
,
00001000
00100000
00001000
00100000
00001000
00100000
00001000
00000000
,
01000000
00000000
00000000
01000000
00000000
00000000
01000000
00000000
00000000
01000000
00000000
00000000
01000000
00000000
00000000
00000000
,
01100000
10000000
00010000
00100000
,
00010000
01000000
00001000
00000000
00010000
00001000
01000000
00000000
,
01100000
00010000
00100000
00001000
,
00010000
00000010
00001000
00000000
00000010
00001000
00000100
00000000
,
00000110
00000010
00000001
00000100
,
00000010
00001000
00000100
00000000
00000010
00000001
00000100
00000000
,
00001001
00001000
00000100
00010000
,
00001000
01000000
00010000
00000000
10000000
00100000
01000000
00000000
,
01100000
00100000
10000000
01000000
,
00100000
00010000
01000000
00000000
00010000
00100000
00001000
00000000
,
00011000
00010000
00000010
00000100
,
00000001
00000000
00000000
00000010
00000000
00000100
00000000
00001000
00000000
00000010
00000000
00000100
00000000
00000000
00000000
00000000
;

//--------------- dance-double - forcednature ----------------
#NOTES:
     dance-double:
     forcednature:
     Medium:
     8:
     0,0,0,0,0:
00000000
00000000
00000000
00000000
,
00000000
00000000
00000000
00000000
,
00000000
00000000
00000000
00000000
,
00000000
00000000
00000000
00000000
,
00000000
00000000
00000000
00000000
,
00001000
00010000
00000100
00001000
,
00000001
00000010
00000100
00001000
,
00000100
00010000
00001000
01000000
,
00100000
00000000
00000000
10000000
00000000
00010000
00000000
10000000
00000000
00000000
00000000
00000000
00000000
00000000
00000000
00000000
,
01000000
10000000
01000000
00010000
01000000
00100000
00000000
00001000
,
00010000
00000100
00001000
00000010
00000100
00000001
00000010
00000100
,
00000000
00000010
00000001
00000100
00000110
00000000
00001000
00010000
,
00011000
00000000
00000000
00000000
01000000
00000000
00100000
00000000
10010000
00000000
00000000
01000000
00000000
00000000
10000000
00000000
,
00010000
10000000
01000000
00000000
00100000
00010000
01000000
00000000
,
00001000
00000000
00010000
00000000
00000100
00000000
00001000
00000000
00000010
00000000
00000100
00000010
00000100
00000010
00000000
00000000
,
00001000
00000000
00000001
00000000
00001000
00000100
00000000
00000000
00000010
00000000
00000001
00000000
00000100
00000000
00000100
00000000
,
00000010
00000000
00010000
00000000
00001000
00000000
00100000
00000000
00010000
10000000
00010000
10000000
00010000
00000000
10000000
00000000
,
11000000
00000000
01010000
00000000
10000000
01000000
00010000
00000000
,
01000000
00000000
00000000
00000000
00100000
00000000
00000000
00001000
00000000
00010000
00000000
00000010
00000000
00000000
00001000
00000000
,
00000001
00000000
00000100
00000000
00000010
00001000
00000100
00000010
,
00000001
00000000
00000000
00000100
00000000
00000010
00000000
00001000
00000000
00000100
00000000
00010000
00000000
00000000
00000000
00000000
,
00011000
00000000
01100000
00000000
10000000
01000000
00010000
00000000
,
01000000
00000000
00000000
00000000
10000000
00000000
00000000
00100000
00000000
01000000
00000000
00010000
00000000
00000000
00000000
00000000
,
01100000
00000000
00011000
00000000
00000010
00001000
00000100
00000010
,
00000001
00000000
00000000
00000100
00000000
00000010
00000000
00001000
00000000
00000001
00000000
00000100
00000000
00000000
00000000
00000000
,
00000200
00000000
00000000
00001000
00000000
00000000
00000002
00000000
00000303
00000000
00000000
00000000
00000000
00000000
00000000
00000000
,
00002000
00000000
00000000
00000010
00000000
00000000
00020000
00000000
00033000
00000000
00000000
00000000
00000000
00000000
00000000
00000000
,
02000000
00000000
00000000
10000000
00000000
00000000
00020000
00000000
03030000
00000000
00000000
00000000
00000000
00000000
00000000
00000000
,
00200000
00000000
00000000
00000000
00000000
00000000
00000000
00000000
00000000
10000000
00000000
00000000
00000000
00000000
00000000
00000000
00000000
00000000
00310000
00000000
00000000
00000000
00000000
00000000
00100000
00000000
00000000
00000000
01000000
00000000
00000000
00000000
00100000
00000000
00000000
00000000
01000000
00000000
00000000
00000000
00000000
00000000
10010000
00000000
00000000
00000000
00000000
00000000
,
10000000
00000000
01000000
00000000
00010000
00000000
01000000
00000000
00100000
00000000
00010000
00000000
01000000
00001000
00000000
00000000
,
00010000
00000000
00000100
00000000
00001000
00000000
00000001
00000000
00000100
00000000
00000010
00000000
00001000
00000100
00000000
00000000
,
00001000
00000000
00000001
00000000
00000100
00000010
00000000
00000000
00001000
00000000
00000100
00000000
00010000
00001000
00000000
00000000
,
00100000
00000000
00000000
00100000
00000000
00000000
00100000
00000000
00000000
00100000
00000000
00000000
01000000
10000000
01000000
10000000
,
01000000
00000000
10000000
00000000
00100000
01000000
00010000
00100000
,
00001000
00000000
00000000
00000000
00010000
00000000
00000000
00000010
00000000
00000100
00000000
00000001
00000000
00000000
00000000
00000000
,
00000110
00000000
00011000
00000000
00000001
00000100
00001000
00000100
,
00000010
00000000
00000000
00001000
00000000
00000100
00000000
00010000
00000000
00001000
00000000
01000000
00000000
00000000
00000000
00000000
,
01100000
00000000
10010000
00000000
10000000
01000000
00010000
01000000
,
00100000
00000000
00000000
00000000
00010000
00000000
00000000
01000000
00000000
00001000
00000000
00010000
00000000
00000000
00000000
00000000
,
00011000
00000000
00000110
00000000
00000001
00000100
00001000
00000100
,
00000010
00000000
00000000
00001000
00000000
00000100
00000000
00010000
00000000
00001000
00000000
01000000
00000000
00000000
00000000
00000000
,
01100000
00000000
10010000
00000000
10000000
00100000
00010000
00100000
,
10000000
00000000
00000000
00000000
00010000
00000000
00000000
01000000
00000000
00100000
00000000
01000000
00000000
00000000
00010000
00000000
,
00011000
00000000
00000110
00000000
00001000
00000010
00000001
00000010
,
00000100
00000000
00000000
00000001
00000000
00000010
00000000
00000100
00000000
00001000
00000000
00000010
00000000
00000000
00000000
00000000
;

//--------------- dance-double - forcednature ----------------
#NOTES:
     dance-double:
     forcednature:
     Hard:
     11:
     0,0,0,0,0:
00000000
00000000
00000000
00000000
,
00000000
00000000
00000000
00000000
,
00000000
00000000
00000000
00000000
,
00000000
00000000
00000000
00000000
,
00000000
00000000
00000000
00000000
,
00010000
00000000
00001000
01000000
00000000
00000000
00000000
00100000
00000000
00000000
10000000
01000000
00000000
00100000
00010000
00000000
,
01000000
00000000
00010000
00100000
00000000
00001000
00000000
00010000
00000000
00000100
00000000
00001000
00000001
00000000
00000000
00000000
,
00000010
00000000
00000000
00000000
00000001
00000000
00000100
00000000
00000000
00000000
00000000
00000000
00000000
00000000
00000010
00000000
00000000
00000000
00000000
00000000
00000000
00000000
00001000
00000000
00000001
00000000
00000000
00000100
00000000
00000000
00000010
00000000
,
00001000
00000000
00000000
00000110
00000000
00001001
00000000
00000110
00000000
00000000
00000000
00000000
00000000
00001000
00000001
00001000
,
00000010
00000000
00001000
00000010
00001000
00000000
00000100
00010000
00000100
00000000
00010000
00000000
00000000
00000000
00001000
01000000
,
00001000
01000000
00010000
00100000
00010000
00000000
10000000
00100000
00000000
10000000
01000000
00000000
00100000
00000000
10010000
00000000
,
10000000
00000000
00010000
00000000
01000000
00000000
00100000
01000000
00100000
00000000
00000000
10000000
00010000
00000000
00100000
00000000
,
00011000
00000000
00000000
00000010
00001000
00000000
00000100
00000000
00000110
00000000
00000000
00001001
00000000
00000001
00000010
00000001
,
00000010
00000100
00000010
00000100
00000010
00000100
00000000
00001000
00000001
00000000
00001000
00000010
00001000
00000010
00000000
00010000
,
00000100
00010000
00000100
00010000
00001000
00010000
00001000
01000000
00001000
00000000
00100000
01000000
00100000
01000000
00000000
10010000
,
00000000
10000000
00100000
00000000
01000000
00010000
00000000
01100000
00000000
10000000
01000000
00100000
00010000
01000000
00100000
00000000
,
00000000
10000000
01000000
00100000
00010000
01000000
00001000
00010000
00000100
00001000
00000100
00001000
00000010
00000100
00000001
00001000
,
00000010
00000000
00000000
00000000
00000110
00000000
00000000
00000000
00001001
00000000
00000000
00001000
00000000
00000000
00000100
00000000
,
00010000
00000000
00000000
00000000
00011000
00000000
00000000
01000000
00000000
10010000
00000000
00100000
00000000
00000000
10000000
00000000
,
01100000
00000000
00000000
00000000
00010000
00000000
00000000
10000000
00100000
00000000
01000000
00010000
00000000
00000000
00100000
00000000
,
10010000
00000000
10000000
01000000
00000000
00100000
00000000
00001000
00000000
00010000
00000000
00000010
00000000
00000000
00000000
00000000
,
00000110
00000000
00000000
00000000
00001001
00000000
00000000
00000001
00000100
00000000
00000010
00001000
00000000
00000000
00000100
00000000
,
00000010
00000000
00000000
00000000
00000110
00000000
00000000
00000100
00000000
00010000
00000000
00001000
00000000
00000000
00000000
00000000
,
01010000
00000000
00000000
00000000
10100000
00000000
00000000
00010000
10000000
01000000
00100000
00010000
00000000
00000000
01000000
00000000
,
00001000
00000000
00010000
00000100
00000000
00001000
00000000
00000101
00000000
00000001
00000000
00001100
00000000
00000000
00000000
00000000
,
00000002
00000000
00000000
00000003
00000000
00000000
00000200
00000000
00000000
00000300
00000000
00000000
00002000
00000000
00000000
00003000
00000000
00000000
00000000
00000000
00000000
00000000
00000000
00000000
00000000
00000000
00000000
00000000
00000000
00000000
00000000
00000000
,
00020000
00000000
00000000
00030000
00000000
00000000
00200000
00000000
00000000
00300000
00000000
00000000
20000000
00000000
00000000
30000000
00000000
00000000
00000000
00000000
00000000
00000000
00000000
00000000
00000000
00000000
00000000
00000000
00000000
00000000
00000000
00000000
,
20000000
00000000
00000000
30000000
00000000
00000000
02000000
00000000
00000000
03000000
00000000
00000000
00020000
00000000
00000000
00030000
00000000
00000000
00000000
00000000
00000000
00000000
00000000
00000000
00000000
00000000
00000000
00000000
00000000
00000000
00000000
00000000
,
00002000
00000000
00000000
00000000
00000000
00000000
00000000
00000000
00000000
00003000
00000000
00000000
00000000
00000000
00000000
00000000
00000000
00000000
00000020
00000000
00000000
00000000
00000000
00000000
00000000
00000000
00000000
00000030
00000000
00000000
00000000
00000000
00000000
00000000
00000000
00000000
00000002
00000000
00000000
00000000
00000000
00000000
00000000
00000000
00000000
00000003
00000000
00000000
00001000
00000000
00000000
00000000
00000000
00000000
00000000
00000000
00000001
00000000
00000000
00000000
00000000
00000000
00000000
00000000
00001000
00000000
00000000
00000000
00000000
00000000
00000000
00000000
00000001
00000000
00000000
00000000
00000000
00000000
00000000
00000000
00000000
00000000
00000000
00000000
00000110
00000000
00000000
00000000
00000000
00000000
00000000
00000000
00000000
00000000
00000000
00000000
,
00000001
00000100
00000001
00000100
00000010
00000100
00000010
00000100
00000010
00001000
00000010
00001000
00000001
00001000
00000000
00000100
,
00001000
00000100
00001000
00000100
00010000
00000100
00010000
00001000
00010000
00001000
00010000
00001000
01000000
00001000
00000000
10000000
,
00100000
10000000
00010000
10000000
00100000
10000000
00000000
00010000
00100000
01000000
00100000
00010000
00100000
01000000
00000000
00100000
,
00001000
00000000
00100000
00010000
00000000
00100000
00001000
00000000
00010000
00001000
00000000
00010000
00000010
00001000
00000010
00001000
,
00000010
00000000
00000000
00000000
00001001
00000000
00000000
00000000
00000110
00000000
00000000
00001000
00000000
00000000
00000100
00000000
,
00010000
00000000
00000000
00000000
01100000
00000000
00000000
10000000
00000000
10010000
00000000
00100000
00000000
00000000
01000000
00000000
,
10010000
00000000
00000000
00000000
01100000
00000000
00000000
00010000
01000000
00000000
00010000
00100000
00000000
00000000
00001000
00000000
,
00011000
00000000
00010000
00000010
00000000
00000100
00000000
00000011
00000000
00000010
00000000
00000110
00000000
00000000
00000000
00000000
,
00000101
00000000
00000000
00000000
00001010
00000000
00000000
00000001
00000100
00000000
00000010
00000100
00000000
00000000
00000010
00000000
,
00001000
00000000
00000000
00000000
00001100
00000000
00000000
00010000
00000000
00101000
00000000
01000000
00000000
00000000
00000000
00000000
,
01100000
00000000
00000000
00000000
10010000
00000000
00000000
10000000
01000000
00100000
00010000
01000000
00000000
00000000
00010000
00000000
,
00100000
00000000
00001000
00010000
00000000
00000110
00000000
00001000
00000000
00000101
00000000
00000010
00000000
00000000
00000000
00000000
,
00001001
00000000
00000000
00000000
00000110
00000000
00000000
00000001
00000100
00000000
00000010
00001000
00000000
00000000
00000100
00000000
,
00010000
00000000
00000000
00000000
00011000
00000000
00000000
00001000
00000000
01100000
00000000
10000000
00000000
00000000
00000000
00000000
,
10010000
00000000
00000000
00000000
01100000
00000000
00000000
10000000
00100000
01000000
00010000
01000000
00000000
00000000
00100000
00000000
,
10000000
00000000
00010000
00100000
00000000
01100000
00000000
00010000
00000000
00011000
00000000
00000100
00000000
00000000
00000000
00000000
;

//--------------- dance-double - forcednature ----------------
#NOTES:
     dance-double:
     forcednature:
     Challenge:
     14:
     0,0,0,0,0:
00000000
00000000
00000000
00000000
,
00000000
00000000
00000000
00000000
,
00000000
00000000
00000000
00000000
,
00000000
00000000
00000000
00000000
,
00000000
00000000
00000000
00000000
,
00011000
00000000
00010000
01000000
10000000
00000000
00100000
00010000
00000000
00000000
00001000
00000001
00000000
00000100
00000010
00000000
,
00001001
00000000
00001000
00000100
00000000
00011000
00000000
01100000
00000000
10000000
00000000
01000000
00010000
00000000
00000000
00000000
,
01100000
00000000
00000000
00000000
10000000
00000000
00100000
00000000
00000000
00000000
00020000
00000000
00000000
00000000
00031000
00000000
00000000
00000000
01100000
00000000
00000000
00000000
00010000
00000000
00001000
00000000
00000000
00000100
00000001
00000000
00001000
00000000
,
00000100
00000000
00000000
00000011
00000000
00000110
00000000
00001100
00000000
00000002
00000000
00000000
00000000
00000013
00000100
00001000
,
00001001
00000000
00000001
00000100
00001000
00000000
00000100
00000010
00001000
00000000
00000110
00000000
00000001
00001000
00001000
00000100
,
00010000
00001000
00100000
01000000
10000000
01000000
00100000
00010000
00000000
00001000
00000001
00000100
00000010
00000000
00001001
00000000
,
00000000
00001000
00000010
00001000
00010000
01000000
00010000
01000000
00100000
00000000
01000000
00001000
00100000
00010000
10000000
00100000
,
00010000
00000000
00000000
00000000
00001000
00000000
00000100
00000000
00000001
00000000
00001000
00000000
00000100
00000000
00000001
00000000
00001000
00000000
00000010
00000000
00000000
00000000
00000010
00000000
00000110
00000000
00000000
00001100
00000000
00000000
00000101
00000000
,
00000001
00001000
00000100
00010000
00001000
00100000
00000000
01000000
00100000
10000000
00010000
01000000
00100000
00010000
00000000
01000000
,
10000000
01000000
00010000
00100000
10000000
00010000
01000000
10000000
00100000
00000000
01000000
00001000
01000000
00001000
00000000
00010000
,
00001000
01000000
00100000
10000000
01000000
00010000
00000000
00001000
00000010
00000001
00001000
00000010
00000100
00001000
00010000
00000000
,
01000000
00000000
10000000
00000000
00100000
00000000
00010000
00000000
00100000
00000000
00010000
00000000
00001000
00000000
00000100
00000000
00000001
00000000
00001000
00000000
00000100
00000000
00001000
00000000
00000010
00000100
00000010
00000100
00000010
00000000
00001000
00000000
,
00001100
00000000
00010000
00010000
00011000
00002000
00003000
00101000
00000000
00000000
00000000
10000000
00100000
00100000
00010000
00000000
,
10010000
00000000
00000000
01100000
01000000
20000000
30000000
01010000
00000000
00001000
00010000
00010000
00000010
00002000
00003100
00000000
,
00011000
00000000
10000000
01000000
00100000
20000000
30000000
00010000
01000000
00100000
00010000
00001000
00000100
00000000
00000011
00000010
,
00001010
00000000
00010000
00001000
00000000
11000000
00000000
01010000
00000000
00110000
00100000
00001000
00010000
00000010
00000010
00000100
,
00001100
00000000
00000001
00000010
00000011
00000002
00000003
00000100
00000010
00000000
00001001
00001000
00000100
00001000
00010000
00100000
,
00010000
00000000
00000000
01100000
01000000
20000000
30000000
01010000
00000000
00011000
00000000
00000010
00010000
00000200
00000300
00000000
,
00000110
00000000
00000001
00000010
00000110
00000200
00000300
00001000
01000000
00100000
00010000
10000000
00100000
00000000
00010000
00000000
,
00011000
00000000
00010000
00010100
00000100
00001100
00000000
01010000
00000000
10000000
00010000
10000000
00010000
01000000
01000000
01000000
,
00200000
00300000
00010000
00200000
00300000
00010000
00200000
00300000
10000000
00000000
01000000
00000000
00100000
00000000
00010000
00000000
,
00002000
00003000
00000001
00002000
00003000
00000001
00002000
00003000
00000100
00000000
00010000
00000000
01000000
00000000
10000000
00000000
,
00020000
00030000
01000000
00020000
00030000
01000000
00020000
00030000
00000100
00000000
00000001
00000000
00000010
00000000
00001000
00000000
,
00200000
00000000
00000000
00000000
00000000
00000000
00300000
00000000
00000000
00000000
00000000
00000000
10000000
00000000
00000000
00000000
00000000
00000000
00200000
00000000
00000000
00000000
00000000
00000000
00300000
00000000
00000000
00000000
00000000
00000000
10000000
00000000
00000000
00000000
00000000
00000000
00200000
00000000
00000000
00000000
00000000
00000000
00300000
00000000
00000000
00000000
00000000
00000000
00010000
00000000
00000000
00000000
00000000
00000000
00000000
00000000
10000000
00000000
00000000
00000000
00000000
00000000
00000000
00000000
00010000
00000000
00000000
00000000
00000000
00000000
00000000
00000000
10000000
00000000
00000000
00000000
00000000
00000000
00010000
00000000
00000000
10000000
00000000
00000000
00010000
00000000
00000000
00000000
00000000
00000000
00000000
00000000
00000000
00000000
00000000
00000000
,
10000000
01000000
00100000
00010000
01000000
00100000
00010000
00001000
00100000
00010000
00001000
00000100
00010000
00001000
00001000
00000000
,
00000001
00000000
00000100
00000000
00000010
00000000
00001000
00000000
00000100
00000000
00000010
00000000
00001000
00000000
00010000
00000000
00000010
00000000
00001000
00000000
00000100
00010000
00000100
00000000
00010000
00000000
00001000
01000000
00000000
00000000
01000000
00000000
,
10000000
01000000
00010000
10000000
01000000
00010000
00000000
00001000
00000001
00000100
00001000
00000001
00000100
00001000
00000000
00010000
,
00011000
00000000
00000000
00000000
10000000
00000000
11000000
00000000
00000000
00000000
00010000
00000000
01010000
00000000
00000000
00000000
00001000
00000000
00011000
00000000
00000000
00000000
00000100
00000010
00000100
00000000
00000100
00000000
00000100
00000000
00000100
00000010
,
00000100
00000000
00000001
00000001
00001001
00002000
00003000
00000110
00000000
00001000
00000000
00010000
01000000
01000000
10000000
00000000
,
01100000
00000000
00000000
00110000
00100000
00002000
00003000
00001100
00000000
00000001
00000100
00000100
00000010
00020000
00031000
00001000
,
00101000
00000000
10000000
01000000
00010000
00002000
00003000
01000000
00010000
00100000
00001000
00000010
00001000
00000000
00011000
00001000
,
01001000
00000000
00000000
00000000
10000000
00000000
01000000
00000000
00100000
00000000
01100000
00000000
00000000
00000000
10010000
00000000
00000000
00000000
01010000
00000000
01000000
00000000
00001000
00000000
00010000
00000000
00000100
00000010
00000100
00000000
00010000
00000000
,
00011000
00000000
00010000
00000100
00000110
00000200
00000300
00000001
00001000
00000100
00001100
00000100
00010000
01000000
10000000
00010000
,
01000000
00000000
00000000
10100000
00100000
02000000
03000000
00110000
00000000
00011000
00000000
00000001
00000010
00000002
00000013
00000010
,
00001010
00000000
00000001
00000100
00000110
00000020
00000030
00010000
00001000
00100000
01100000
01000000
00010000
00000000
00001000
00000000
,
01100000
00000000
10000000
10100000
00100000
10100000
00000000
01010000
00000000
00010000
00010000
00000100
00000100
00000001
00000001
00000010
,
00000110
00000000
00000001
00000100
00000110
00000020
00000030
00011000
00000000
00000000
00000000
01000000
00100000
00100000
10000000
00000000
,
01100000
00000000
00000000
10010000
00010000
02000000
03000000
00110000
00000000
00001000
00001000
00010000
00010000
00000020
00000130
00000100
,
00001100
00000000
00000000
00000000
01010000
00000000
00000000
10000000
01000000
00010000
00001000
00000100
00000000
00000000
00000110
00000000
,
00001001
00000000
00000001
00000100
00000000
00011000
00000000
01100000
00000000
00011000
00000000
00000110
00000000
00000000
00000000
00000000
;
