#TITLE:Forgetting Machine;
#SUBTITLE:;
#ARTIST:TAKU INOUE;
#TITLETRANSLIT:;
#SUBTITLETRANSLIT:;
#ARTISTTRANSLIT:;
#GENRE:;
#CREDIT:;
#BANNER:Forgetting Machine.png;
#BACKGROUND:Forgetting Machine-bg.png;
#LYRICSPATH:;
#CDTITLE:;
#MUSIC:Forgetting Machine.ogg;
#OFFSET:-3.765819;
#SAMPLESTART:28.608000;
#SAMPLELENGTH:15.000000;
#SELECTABLE:YES;
#BPMS:0.000000=87.000000
,83.000000=43.500000
,85.750000=174.000000
,148.000000=87.000000
;
#STOPS:34.000000=0.690000,
85.750000=0.603000,
116.750000=0.345000
;
#BGCHANGES:;
#KEYSOUNDS:;
#ATTACKS:;

//---------------dance-single - ----------------
#NOTES:
     dance-single:
     :
     Hard:
     13:
     0.550377,0.741302,0.284291,0.098032,0.548977,393.000000,364.000000,29.000000,10.000000,0.000000,0.000000,0.550377,0.741302,0.284291,0.098032,0.548977,393.000000,364.000000,29.000000,10.000000,0.000000,0.000000:
// measure 0
0000
0000
0000
0000
,  // measure 1
2010
0000
0000
3002
,  // measure 2
0023
0000
0000
0030
,  // measure 3
0012
0000
0000
2003
,  // measure 4
3020
0000
0000
0000
0000
0000
0000
0000
1030
0000
0001
0100
0000
0001
1000
0000
,  // measure 5
0100
0100
1000
1000
0001
0001
0010
0010
,  // measure 6
0001
0001
0100
0100
0010
0010
1000
1000
,  // measure 7
0010
1000
0100
1000
0001
1000
0100
1000
0001
0010
0001
0100
0001
1000
0001
0010
,  // measure 8
0001
0100
0001
0000
1000
0100
1000
0000
0001
0010
0001
0000
1000
0010
1000
0000
0001
0000
0000
0000
0000
0000
0000
0000
1001
0000
1000
0000
0100
0000
1000
0000
,  // measure 9
0001
0100
0001
0010
0000
0001
1000
0100
0010
0100
1000
0001
0000
0100
0010
0100
,  // measure 10
0001
0010
0100
1000
0001
0100
0001
0100
0010
0100
0000
1000
0100
0010
1000
0001
,  // measure 11
1000
0100
1000
0001
0000
0010
0100
0001
0100
0010
0001
1000
0000
0010
1000
0100
,  // measure 12
1000
0001
0100
0001
0010
0000
0100
1000
0000
0001
1000
0000
1001
0000
0100
0001
,  // measure 13
1000
0001
0010
0100
0000
1000
0010
0100
1000
0100
0010
1000
0000
0001
1000
0010
,  // measure 14
0001
0010
0100
0001
0000
0010
0001
0010
0100
0010
0000
1000
0010
0001
1000
0010
,  // measure 15
1000
0001
0100
0001
0000
0010
0001
0100
0010
0001
0010
0100
0000
0001
1000
0100
,  // measure 16
0001
0100
1000
0001
1000
0000
0001
0100
0000
0001
1000
0000
2002
0000
0000
0000
,  // measure 17
0000
0000
0000
0000
0003
0000
0000
0000
0000
0000
3010
0000
0100
0001
1000
0000
,  // measure 18
0100
1000
0001
0000
0010
0001
1000
0000
0010
1000
0001
0000
0011
0000
0011
0000
,  // measure 19
0110
0000
0110
0000
1100
0000
1100
0000
1001
0000
1001
0000
0001
0100
0010
1000
,  // measure 20
0100
0000
0010
0000
0001
0000
1000
0000
0010
1000
0010
0000
0100
0010
0100
0000
0001
0100
0001
0000
1000
0001
1000
0000
0200
0000
0000
0000
0000
0000
0000
0000
,  // measure 21
0300
0000
0000
0000
0000
0000
0000
0000
0100
0000
1000
0100
0000
1000
0001
0000
0011
0000
0000
0000
0001
0000
0000
0000
0100
0000
0000
0000
0001
0000
0000
0000
,  // measure 22
1000
0000
0000
0000
0010
0000
1000
0000
0100
0000
1000
0001
1000
0000
0100
0000
,  // measure 23
0010
0000
0001
0100
1000
0100
0001
0010
,  // measure 24
0100
0000
0000
0000
1000
0000
0100
0000
0010
0000
0001
0100
0000
0001
0100
0000
,  // measure 25
0010
0100
0001
0000
1001
1000
0100
0010
,  // measure 26
0001
0000
0000
0000
0100
0000
0010
0000
0100
0000
0001
0010
0001
0000
1000
0000
,  // measure 27
0100
0000
1000
0010
0001
0010
1000
0001
,  // measure 28
0010
0000
0000
0000
0100
0000
1000
0001
1000
0000
0010
0000
0100
0000
0001
0000
,  // measure 29
0010
0100
0010
0100
1100
0000
1000
0000
0001
0000
0100
0000
0101
0000
0000
0000
,  // measure 30
0001
0000
1000
0000
0100
0000
1000
0010
1000
0000
0001
0000
0011
0000
0000
0000
,  // measure 31
0001
0010
1000
0010
0001
0100
0001
1000
,  // measure 32
0100
0000
1000
0000
0001
0000
0100
0010
0000
0100
0010
0000
1010
0000
0000
0000
,  // measure 33
0001
0100
0001
0100
1000
0100
1000
0100
,  // measure 34
0001
0010
0001
0010
1000
0010
1000
0010
,  // measure 35
0001
0100
0010
1000
0100
0010
0001
1000
,  // measure 36
0001
0000
1000
0100
0000
1000
0001
0000
,  // measure 37
1002
0000
0000
0000
0000
0000
0000
0000
0003
0000
0010
0001
0000
1000
0001
0001
,  // measure 38
0100
0010
1010
1000
0001
0011
1001
0100
,  // measure 39
0110
0010
1010
0001
1000
1100
0101
0010
,  // measure 40
0110
0000
0010
0000
1001
0000
0100
0000
1000
0000
0001
0100
0000
0001
1000
0000
;

//---------------dance-single - ----------------
#NOTES:
     dance-single:
     :
     Medium:
     9:
     0.452345,0.581021,0.176457,0.098032,0.230374,323.000000,305.000000,18.000000,10.000000,0.000000,0.000000,0.452345,0.581021,0.176457,0.098032,0.230374,323.000000,305.000000,18.000000,10.000000,0.000000,0.000000:
// measure 0
0000
0000
0000
0000
,  // measure 1
0012
0000
0000
2003
,  // measure 2
3020
0000
0000
0030
,  // measure 3
2010
0000
0000
3002
,  // measure 4
0023
0000
0000
0000
0000
0000
0000
0000
0031
0000
1000
0010
0000
1000
0001
0000
,  // measure 5
0010
0001
0010
0001
1000
0100
1000
0100
,  // measure 6
1000
0010
1000
0010
0100
0001
0100
0001
,  // measure 7
1000
0100
0001
0100
1000
0010
0001
0010
,  // measure 8
1000
0001
1000
0001
0010
0100
0010
0100
1000
0000
0000
0000
1001
0000
0001
0100
,  // measure 9
0001
0000
0010
0000
0100
0000
1000
0001
1000
0000
0100
0000
1000
0000
0010
1000
,  // measure 10
0010
0000
0100
0000
0010
0000
0100
0000
0001
1000
0000
0001
1000
0000
0100
1000
,  // measure 11
0100
0000
0010
0000
0001
0000
1000
0001
1000
0000
0001
0000
0100
0000
0010
0100
,  // measure 12
0010
0000
1000
0000
0001
0000
1000
0010
0000
1000
0001
0000
1001
0000
1000
0100
,  // measure 13
1000
0000
0001
0000
0010
0000
0100
0010
0100
0000
1000
0000
0010
0000
0100
0001
,  // measure 14
0100
0000
0010
0000
0001
0000
0010
0000
1000
0001
0000
1000
0001
0000
0010
0001
,  // measure 15
0010
0000
0100
0000
1000
0000
0001
1000
0001
0000
0100
0000
0010
0000
1000
0100
,  // measure 16
1000
0000
0001
0000
1000
0000
0001
0010
0000
0001
1000
0000
2002
0000
0000
0000
,  // measure 17
0000
0000
0000
0000
3000
0000
0000
0000
0000
0000
0013
0000
0001
0100
0001
0000
,  // measure 18
1000
0100
1000
0000
0001
0010
0001
0000
1000
0010
1000
0000
1010
0000
1000
0000
,  // measure 19
1001
0000
0001
0000
0011
0000
0010
0000
0110
0000
0100
0000
1000
0100
1000
0100
,  // measure 20
0010
0001
0010
0001
1000
0010
0100
0001
0010
0100
1000
0001
2000
0000
0000
0000
,  // measure 21
3000
0000
0000
0000
0000
0000
0000
0000
0001
0000
1000
0010
0000
1000
0001
0000
1000
0000
0000
0000
0100
0000
0000
0000
0010
0000
0000
0000
0100
0000
0000
0000
,  // measure 22
1000
0000
0001
0100
0010
1000
0001
0010
,  // measure 23
0001
0000
1000
0100
0010
0001
0100
0001
,  // measure 24
1000
0010
0100
0010
1000
0001
0010
0100
,  // measure 25
1000
0000
0001
0000
0100
0001
0010
0001
,  // measure 26
1000
0000
0010
1000
0001
1000
0100
1000
,  // measure 27
0001
0000
0010
0001
0100
0010
0100
0001
,  // measure 28
1000
0100
0010
0000
0001
0010
0000
0001
,  // measure 29
1000
0000
1010
0000
0010
1000
0001
0000
,  // measure 30
0010
0001
0010
0100
1000
0001
1000
0000
,  // measure 31
0010
1000
0100
1000
0001
0100
0001
1000
,  // measure 32
0100
0010
0001
0010
0100
1000
0001
0000
,  // measure 33
0100
0001
0100
0001
1000
0100
1000
0100
,  // measure 34
0010
0001
0010
0001
1000
0010
1000
0010
,  // measure 35
1000
0100
0010
0001
0100
0010
1000
0001
,  // measure 36
1000
0000
0001
0010
0000
0001
1000
0000
,  // measure 37
2001
0000
0000
0000
0000
0000
0000
0000
3000
0000
0010
0100
0000
0001
1000
0001
,  // measure 38
1000
0100
1100
1000
0001
0101
1001
0000
,  // measure 39
0001
0010
0110
0100
1000
1100
1001
0000
,  // measure 40
1000
0000
0100
0000
0110
0000
0010
0000
0001
0000
1000
0010
0000
1000
0001
0000
;

//---------------dance-single - ----------------
#NOTES:
     dance-single:
     :
     Easy:
     6:
     0.270287,0.340598,0.058819,0.098032,0.019606,193.000000,187.000000,6.000000,10.000000,0.000000,0.000000,0.270287,0.340598,0.058819,0.098032,0.019606,193.000000,187.000000,6.000000,10.000000,0.000000,0.000000:
// measure 0
0000
0000
0000
0000
,  // measure 1
2000
0000
0000
3002
,  // measure 2
0023
0000
0000
0030
,  // measure 3
0002
0000
0000
2003
,  // measure 4
3020
0000
0000
0000
0000
0000
0000
0000
1030
0000
0000
1000
0000
0000
1000
0000
,  // measure 5
0001
0001
0010
0010
,  // measure 6
0100
0100
1000
1000
,  // measure 7
0001
0001
1000
1000
0001
1000
0001
1000
,  // measure 8
0010
0100
0010
0100
0001
0000
1001
0000
,  // measure 9
0001
0100
0001
0010
0100
0000
1000
0100
,  // measure 10
0010
0100
1000
0001
1000
0000
0001
0000
,  // measure 11
0100
0001
1000
0100
1000
0000
0001
0010
,  // measure 12
0001
0000
1000
0000
0001
0000
0000
0001
0000
0000
0001
0000
1001
0000
0000
0000
,  // measure 13
1000
0100
1000
0010
0100
0000
0001
0100
,  // measure 14
0010
0100
0001
1000
0001
0000
1000
0000
,  // measure 15
0100
1000
0001
0100
0001
0000
1000
0010
,  // measure 16
1000
0000
0001
0000
1000
0000
0000
1000
0000
0000
1000
0000
0002
0000
0000
0000
,  // measure 17
0000
0000
0003
1000
,  // measure 18
0010
0000
0100
0000
0001
0000
1000
0100
,  // measure 19
1000
0100
0010
0001
0010
0001
1000
0010
,  // measure 20
0100
0001
1000
0100
0010
0001
2000
0000
,  // measure 21
3000
0002
1003
0001
,  // measure 22
0001
0100
0001
0010
,  // measure 23
0010
0100
1000
0010
,  // measure 24
0010
1000
0001
0100
,  // measure 25
0001
1000
0100
1000
,  // measure 26
1000
0001
0010
0100
,  // measure 27
0100
1000
0010
0100
,  // measure 28
0100
0000
0001
0000
0000
0001
0000
0000
,  // measure 29
0001
1001
0100
0100
,  // measure 30
0001
1000
0010
0010
,  // measure 31
1000
0100
0010
0010
,  // measure 32
0001
1000
0010
0010
,  // measure 33
1000
1000
0100
0100
,  // measure 34
0010
0010
0001
0001
,  // measure 35
1001
0100
0110
0010
,  // measure 36
1000
0000
0000
1000
0000
0000
1000
0000
,  // measure 37
1002
0000
0000
0000
0003
1000
0000
1000
,  // measure 38
0100
1000
0001
0000
0100
0001
1000
0000
,  // measure 39
0010
1000
0001
0000
0010
0001
1000
0000
,  // measure 40
0010
0000
1000
0000
0100
0000
0010
0000
0001
0000
0000
0001
0000
0000
0001
0000
;

//---------------dance-single - ----------------
#NOTES:
     dance-single:
     :
     Beginner:
     3:
     0.147047,0.180317,0.127441,0.088228,0.000000,105.000000,92.000000,13.000000,9.000000,0.000000,0.000000,0.147047,0.180317,0.127441,0.088228,0.000000,105.000000,92.000000,13.000000,9.000000,0.000000,0.000000:
// measure 0
0000
0000
0000
0000
,  // measure 1
0001
0000
0000
1000
,  // measure 2
0020
0000
0000
0030
,  // measure 3
1000
0000
0000
0001
,  // measure 4
0020
0030
1001
0000
,  // measure 5
1000
0000
0000
0001
,  // measure 6
0001
0000
0000
0100
,  // measure 7
0100
0000
0010
0000
,  // measure 8
0110
0000
1001
0010
,  // measure 9
0010
1000
1000
0001
,  // measure 10
0000
0001
0000
0010
,  // measure 11
0010
0001
0001
1000
,  // measure 12
0000
1001
0000
0100
,  // measure 13
0100
1000
1000
0001
,  // measure 14
0000
0001
0000
0100
,  // measure 15
0100
0001
0001
1000
,  // measure 16
0000
1001
0000
2002
,  // measure 17
0000
0000
3003
0001
,  // measure 18
0000
1000
0000
0010
,  // measure 19
0010
0100
0100
0001
,  // measure 20
1000
0001
1000
0002
,  // measure 21
0003
1001
0000
0001
,  // measure 22
0000
1000
0000
0100
,  // measure 23
0000
0100
0000
1000
,  // measure 24
0000
0001
0000
0100
,  // measure 25
0000
0100
0000
0001
,  // measure 26
0000
0001
0000
0010
,  // measure 27
0000
0010
0000
0100
,  // measure 28
0000
0110
0000
1001
,  // measure 29
0000
0000
0001
0000
,  // measure 30
1000
0000
1000
0000
,  // measure 31
0010
0000
0010
0000
,  // measure 32
0100
0000
0100
0000
,  // measure 33
0001
0000
1000
0000
,  // measure 34
0001
0000
1000
0000
,  // measure 35
0010
0000
0010
0000
,  // measure 36
0220
0000
0000
0330
,  // measure 37
2002
0000
3003
0000
,  // measure 38
0001
1000
0000
1000
,  // measure 39
0010
0010
0000
0100
,  // measure 40
0100
0000
0010
0000
1001
0000
0000
0110
;
