#TITLE:COSMIC☆WONDER☆REVOLUTION;
#SUBTITLE:;
#ARTIST:猫叉Master+;
#TITLETRANSLIT:;
#SUBTITLETRANSLIT:;
#ARTISTTRANSLIT:Nekomata Master+;
#GENRE:Cosmic Pop;
#CREDIT:;
#BANNER:[Week 1] - COSMIC WONDER REVOLUTION.png;
#BACKGROUND:[Week 1] - COSMIC WONDER REVOLUTION-bg.png;
#LYRICSPATH:;
#CDTITLE:cdtitle.png;
#MUSIC:[Week 1] - COSMIC WONDER REVOLUTION.ogg;
#OFFSET:-0.050950;
#SAMPLESTART:12.682529;
#SAMPLELENGTH:12.631577;
#SELECTABLE:YES;
#BPMS:0.000000=152.000000
;
#STOPS:
;
#BGCHANGES:;
#KEYSOUNDS:;
#ATTACKS:;

//---------------dance-single - ----------------
#NOTES:
     dance-single:
     :
     Challenge:
     12:
     0.535620,0.549903,0.249956,0.536943,0.069432,405.000000,378.000000,27.000000,58.000000,0.000000,0.000000,0.535620,0.549903,0.249956,0.536943,0.069432,405.000000,378.000000,27.000000,58.000000,0.000000,0.000000:
// measure 0
0000
0000
0000
0000
,  // measure 1
0000
0000
0000
0000
,  // measure 2
0000
0000
0000
0000
,  // measure 3
0000
0000
0000
0000
,  // measure 4
1000
0000
2000
3000
0001
0000
0002
0003
,  // measure 5
1000
0000
2000
3000
0001
0000
0002
0003
,  // measure 6
1000
0000
0200
0300
0001
0000
0200
0300
,  // measure 7
1000
0000
0002
0003
0100
0010
1001
0000
,  // measure 8
0001
0010
0001
0100
0000
0101
0000
1010
,  // measure 9
0000
0000
1000
0000
0000
0000
0100
1000
0100
0000
0010
0000
0001
0000
0100
0000
,  // measure 10
0000
0010
1000
0100
0000
1100
0000
0011
,  // measure 11
0000
0001
0000
1000
0100
0001
0100
1000
,  // measure 12
0000
0100
1000
0010
0000
1010
0000
0101
,  // measure 13
0000
0001
0000
1000
0010
0100
0001
1000
,  // measure 14
0100
0000
0100
0010
0000
0001
0200
0000
,  // measure 15
1000
0000
0310
0000
0100
0001
0001
0000
,  // measure 16
1000
0100
1000
0010
0000
1010
0000
1100
,  // measure 17
0000
0000
0001
0000
0000
0000
1000
0100
1000
0000
0010
0000
0100
0000
0001
0000
,  // measure 18
0000
0100
0001
0010
0000
0011
0000
0101
,  // measure 19
0000
1000
0000
0001
0100
1000
0100
0001
,  // measure 20
0000
0100
0001
0010
0000
0100
0000
0110
,  // measure 21
0000
1001
0000
0001
0010
0100
1000
0001
,  // measure 22
0100
0000
0100
0010
0000
1000
0200
0000
,  // measure 23
0000
0000
0000
0000
0300
0000
0000
0000
0100
0000
0010
0000
0100
0000
0010
0001
,  // measure 24
0010
0000
0001
0000
0100
0000
0001
0000
0100
0000
0000
0000
0010
1000
0020
0000
,  // measure 25
0000
1030
0100
1000
0100
0010
0100
2000
,  // measure 26
0000
3010
1000
0010
1000
0000
0010
0002
,  // measure 27
0000
0013
0100
0010
1000
0100
0010
0002
,  // measure 28
0000
0000
0103
0000
0001
0000
1000
0000
0001
0000
0010
0000
0001
1000
0002
0000
,  // measure 29
0000
1003
0010
1000
0001
1000
0100
0020
,  // measure 30
0000
0000
0031
0010
0001
0000
0200
0000
0000
0000
0310
0100
0010
0000
2000
0000
,  // measure 31
0000
0000
3100
1000
0100
0000
0010
0000
0001
0000
0100
0000
0010
0000
1020
0000
,  // measure 32
0000
0000
1030
0000
0100
0000
1000
0000
0100
0000
0000
0000
0010
0001
0020
0000
,  // measure 33
0000
0031
0100
0001
0100
0010
0100
0002
,  // measure 34
0000
0013
0001
0010
0001
0000
0010
2000
,  // measure 35
0000
3010
0100
0010
0001
0100
0010
2000
,  // measure 36
0000
0000
3100
0000
1000
0000
0010
0000
0100
0000
0001
0000
0010
0100
0020
0000
,  // measure 37
0000
0130
1000
0001
0100
0010
1000
0200
,  // measure 38
0000
0000
0001
0000
0010
0000
1300
0100
,  // measure 39
0002
0000
0203
0000
2300
0000
3010
0200
,  // measure 40
0000
0000
1000
0000
0010
0000
0301
0100
,  // measure 41
2000
0000
3200
0000
0302
0000
0013
0002
,  // measure 42
0000
0100
0103
0010
1000
0100
0010
0002
,  // measure 43
0000
0100
0103
0010
1000
0100
0010
0002
,  // measure 44
0000
0000
1003
0000
1000
0000
0001
0000
0100
0000
0010
0100
0010
0000
1000
0000
,  // measure 45
1001
0000
1001
0000
0010
0100
0010
2001
,  // measure 46
0000
0000
3100
0000
1000
0000
0001
0000
0100
0000
0010
1000
0010
0000
2000
0000
,  // measure 47
0000
3100
0000
0012
0000
0103
0010
2000
,  // measure 48
0000
3001
0100
0001
0100
1000
0100
0002
,  // measure 49
0000
0103
0100
0010
1000
0100
0010
0012
,  // measure 50
0000
0000
0013
0000
0100
0000
1000
0000
0001
0000
1000
0010
1000
0000
0200
0000
,  // measure 51
0000
0310
0001
0200
0000
0310
1000
0200
,  // measure 52
0000
0301
0100
1000
0010
0001
0010
2000
,  // measure 53
0000
3100
0010
0001
0100
0010
1000
2001
,  // measure 54
0000
0000
3100
0000
0001
0000
0100
0000
1000
0000
0010
1000
0010
0000
0002
0000
,  // measure 55
0000
0013
0000
2010
0000
3100
0010
0002
,  // measure 56
0000
1003
0100
1000
0100
0001
0100
2000
,  // measure 57
0000
3010
0010
0100
0001
1000
0100
1002
,  // measure 58
0000
0000
0103
0000
1000
0000
0100
0000
0001
0000
0010
0001
0010
0000
2000
0000
,  // measure 59
0000
3010
0001
2000
0000
3001
0100
0210
,  // measure 60
0000
0301
0100
1000
0100
0001
0010
0210
,  // measure 61
0000
1300
0100
0001
0100
1000
0010
0120
,  // measure 62
0000
0031
0010
1000
0100
0001
0100
0120
,  // measure 63
0000
1030
0010
0001
1000
0010
0001
0022
,  // measure 64
0000
0000
0000
0000
,  // measure 65
0000
0000
0000
0000
,  // measure 66
0033
0000
0000
0000
;

//---------------dance-single - ----------------
#NOTES:
     dance-single:
     :
     Hard:
     10:
     0.447011,0.458253,0.111092,0.462882,0.000000,338.000000,326.000000,12.000000,50.000000,0.000000,0.000000,0.447011,0.458253,0.111092,0.462882,0.000000,338.000000,326.000000,12.000000,50.000000,0.000000,0.000000:
// measure 0
0000
0000
0000
0000
,  // measure 1
0000
0000
0000
0000
,  // measure 2
0000
0000
0000
0000
,  // measure 3
0000
0000
0000
0000
,  // measure 4
1000
0000
2000
3000
0001
0000
0002
0003
,  // measure 5
1000
0000
2000
3000
0001
0000
0002
0003
,  // measure 6
1000
0000
0200
0300
0010
0000
0002
0003
,  // measure 7
0100
0000
0020
0030
1000
0001
1000
0000
,  // measure 8
0001
1000
0001
0010
0000
0001
0000
0100
,  // measure 9
0000
0100
0000
0001
0100
0010
1000
0001
,  // measure 10
0000
0001
1000
0010
0000
1000
0000
0100
,  // measure 11
0000
0100
0000
1000
0100
0010
0001
1000
,  // measure 12
0000
0001
0100
0010
0000
0100
0000
0100
,  // measure 13
0000
0001
0000
1000
0100
0010
0001
0010
,  // measure 14
0001
0000
0001
0100
0000
0010
2000
0000
,  // measure 15
0000
0000
3010
0000
1000
0001
0001
0000
,  // measure 16
1000
0001
1000
0100
0000
0001
0000
0001
,  // measure 17
0000
0010
0000
1000
0100
0010
0100
1000
,  // measure 18
0000
1000
0001
0100
0000
1000
0000
1000
,  // measure 19
0000
0010
0000
0001
0100
0010
0100
0001
,  // measure 20
0000
1000
0100
0010
0000
0010
0000
0110
,  // measure 21
0000
1001
0000
0001
0100
0001
0100
0010
,  // measure 22
1000
0000
1000
0100
0000
0010
0002
0000
,  // measure 23
0000
0003
0011
0011
,  // measure 24
1000
0010
1000
0000
1000
0000
0010
2000
,  // measure 25
0000
3001
0010
0000
0100
0010
0001
2000
,  // measure 26
0000
3001
0100
0000
0100
0000
0001
2000
,  // measure 27
0000
3001
0010
0000
0100
0010
0001
0200
,  // measure 28
0000
0310
1000
0000
1000
0000
0100
0020
,  // measure 29
0000
0130
1000
0000
1000
0100
0010
0002
,  // measure 30
0000
0103
0000
2000
0000
3100
0000
0002
,  // measure 31
0000
0013
0000
0001
1000
0010
1000
0002
,  // measure 32
0000
0013
0001
0000
0001
0000
0010
0002
,  // measure 33
0000
1003
0010
0000
0100
0010
1000
0002
,  // measure 34
0000
1003
0100
0000
0100
0000
1000
0002
,  // measure 35
0000
1003
0010
0000
0100
0010
1000
0200
,  // measure 36
0000
0310
0001
0000
0001
0000
0100
0020
,  // measure 37
0000
0130
0001
0000
0001
0100
0010
2000
,  // measure 38
0000
0000
0010
0000
0001
0000
3100
0010
,  // measure 39
0001
0000
0101
0000
1010
0000
1000
0002
,  // measure 40
0000
0000
0010
0000
1000
0000
0103
0010
,  // measure 41
1000
0000
1100
0000
0011
0000
0001
0200
,  // measure 42
0000
0010
0310
0000
1000
0100
0010
0002
,  // measure 43
0000
0103
0010
0000
1000
0100
0010
0002
,  // measure 44
0000
0103
0010
0000
1000
0100
0010
0001
,  // measure 45
1000
0000
1001
0000
1001
0000
0001
0020
,  // measure 46
0000
0031
0100
0001
1000
0000
1000
0200
,  // measure 47
0000
1300
0000
2010
0000
3010
1000
0200
,  // measure 48
0000
0310
0001
0000
0100
0010
1000
0200
,  // measure 49
0000
0310
0001
0000
1000
0010
1000
0002
,  // measure 50
0000
1003
0100
1000
0001
0000
0001
0200
,  // measure 51
0000
0310
1000
0002
0000
0013
0001
2000
,  // measure 52
0000
0010
3010
0000
1000
0100
0010
0002
,  // measure 53
0000
0010
0013
0000
0001
0100
0010
1000
,  // measure 54
0000
1000
0100
0010
0001
0000
0001
0200
,  // measure 55
0000
0301
0000
0012
0000
0013
0001
0200
,  // measure 56
0000
0310
1000
0000
0100
0010
0001
0200
,  // measure 57
0000
0310
1000
0000
0001
0010
0001
2000
,  // measure 58
0000
3001
0100
0010
1000
0000
1000
0200
,  // measure 59
0000
0310
0001
0200
0000
0301
0100
2000
,  // measure 60
0000
3100
0001
0100
0001
0000
0010
2000
,  // measure 61
0000
3010
0001
0010
0001
0000
0100
2000
,  // measure 62
0000
3100
0001
1000
0001
0000
0010
2000
,  // measure 63
0000
3010
0001
1000
0001
0100
1000
0200
,  // measure 64
0000
0000
0000
0000
,  // measure 65
0000
0000
0000
0000
,  // measure 66
0300
0000
0000
0000
;

//---------------dance-single - ----------------
#NOTES:
     dance-single:
     :
     Medium:
     8:
     0.358403,0.427703,0.240698,0.277729,0.000000,271.000000,245.000000,26.000000,30.000000,0.000000,0.000000,0.358403,0.427703,0.240698,0.277729,0.000000,271.000000,245.000000,26.000000,30.000000,0.000000,0.000000:
0000
0000
0000
0000
,
0000
0000
0000
0000
,
0000
0000
0000
0000
,
0000
0000
0000
0000
,
1000
0000
1000
0000
,
0001
0000
0001
0000
,
1000
0000
0001
0000
,
1000
0000
0000
0000
0001
1000
0001
0000
,
0000
0001
0010
0001
0000
0100
0000
0001
,
0000
0000
0101
0000
1000
0001
1000
0000
,
0000
1000
0010
1000
0000
0100
0000
1000
,
0000
0000
1100
0000
0001
1000
0001
0000
,
0000
0100
0010
0100
0000
0010
0000
0010
,
0000
0000
1001
0000
1000
0001
1000
0000
,
0100
0000
0000
0010
0000
0000
0220
0000
,
0000
0000
0330
0000
0000
0010
0010
0000
,
0000
0001
0100
0001
0000
0100
0000
1000
,
0000
0000
0110
0000
0001
0100
0001
0000
,
0000
1000
0100
1000
0000
0100
0000
0001
,
0000
0000
0110
0000
1000
0100
1000
0000
,
0000
0001
1000
0001
0000
1000
0000
1001
,
0000
0110
0000
0000
0001
1000
0001
0000
,
0010
0000
0000
0100
0000
0000
0220
0000
,
0000
0000
0330
0000
0100
0010
0100
0000
,
1000
0000
1000
0000
0010
0000
0100
0002
,
0000
0003
1000
0000
1000
0000
0010
2000
,
0000
3000
0001
0000
0001
0000
0010
0002
,
0000
0003
1000
0000
0001
0000
0100
0020
,
0000
0030
1000
0000
1000
0000
0100
0020
,
0000
0030
0001
0000
0001
0000
1000
0002
,
0000
0103
0000
0020
0000
1030
0000
2002
,
0000
0000
3003
0000
1000
0001
1000
0002
,
0000
0003
0010
0000
0010
0000
0100
2000
,
0000
3000
0001
0000
0001
0000
0010
0002
,
0000
0003
1000
0000
1000
0000
0010
2000
,
0000
3000
0001
0000
1000
0000
0100
0020
,
0000
0030
0001
0000
0001
0000
0100
0020
,
0000
0030
1000
0000
1000
0000
0001
1000
,
0200
0000
1000
0010
,
1300
0000
1100
0000
0011
0000
1000
0001
,
0200
0000
0001
0010
,
0301
0000
0101
0000
1010
0000
1000
0200
,
0000
0000
0300
0000
0011
0000
0001
0200
,
0000
0000
0300
0000
0110
0000
0001
2000
,
0000
0000
3000
0000
0100
0010
0100
0010
,
0100
0000
0110
0000
1001
0000
1000
0010
,
0000
1000
0010
0000
1000
0000
0100
0010
,
0000
0001
0000
0100
0000
0001
1000
0100
,
0000
0100
1000
0000
1000
0000
0001
0100
,
0000
0100
0001
0000
0001
0000
1000
0100
,
0000
1000
0100
0000
0010
0000
0001
0100
,
0000
0010
0100
0010
0000
1000
0010
1000
,
0000
0000
0010
1000
0001
0000
1000
0100
,
0000
0100
0010
0000
0001
0000
0000
1001
,
0000
0001
0010
0000
0001
0000
0100
0010
,
0000
1000
0000
0100
0000
1000
0001
0100
,
0000
0100
0001
0000
0001
0000
1000
0100
,
0000
0100
1000
0000
1000
0000
0001
0100
,
0000
0001
0100
0000
0010
0000
1000
0100
,
0000
0010
0100
0010
0000
0001
0000
0012
,
0000
0000
0103
0000
0001
0000
0000
2010
,
0000
0000
3100
0000
1000
0000
0000
1002
,
0000
0000
0013
0000
1100
0000
0000
2001
,
0000
0000
3010
0000
0101
0000
0000
0220
,
0000
0000
0000
0000
,
0000
0000
0000
0000
,
0330
0000
0000
0000
;

//---------------dance-single - ----------------
#NOTES:
     dance-single:
     :
     Easy:
     5:
     0.269794,0.336052,0.120349,0.083319,0.000000,204.000000,191.000000,13.000000,9.000000,0.000000,0.000000,0.269794,0.336052,0.120349,0.083319,0.000000,204.000000,191.000000,13.000000,9.000000,0.000000,0.000000:
0000
0000
0000
0000
,
0000
0000
0000
0000
,
0000
0000
0000
0000
,
0000
0000
0000
0000
,
1000
0000
1000
0000
,
0001
0000
0001
0000
,
1000
0000
0001
0000
,
1000
0000
1001
0000
,
0001
0010
0001
0010
,
0001
0000
0001
0001
,
1000
0010
1000
0010
,
1000
0000
0001
0001
,
1000
0100
1000
0100
,
1000
0000
0100
0010
,
0001
0000
0100
0000
,
0010
1000
0001
0000
,
1000
0010
0100
0010
,
1000
0000
1000
1000
,
0001
0010
0100
0010
,
0001
0000
1000
1000
,
0001
0100
0010
0100
,
0001
0000
0100
0010
,
1000
0000
0100
0220
,
0000
0330
0010
0010
,
0001
0100
0001
0000
,
0100
1000
0100
0000
,
0001
0010
0001
0000
,
0010
1000
0010
0000
,
0001
0100
0010
0000
,
1000
0100
0010
0000
,
0110
0000
1001
0000
,
0110
0000
0001
0001
,
1000
0010
1000
0000
,
0010
0001
0010
0000
,
1000
0100
1000
0000
,
0100
0001
0100
0000
,
1000
0001
0100
0000
,
0100
1000
0010
0001
,
0200
0000
0010
0310
,
0100
0001
1000
1000
,
0200
0000
0010
0310
,
0100
1000
0001
0001
,
0200
0300
0010
1000
,
0200
0300
0010
0001
,
0200
0300
0100
0010
,
1001
0110
1001
0000
,
0001
0010
0001
0010
,
1000
0010
1000
0010
,
0001
0100
1000
0000
,
1000
0100
0001
0000
,
1000
0100
1000
0100
,
0001
0001
0010
1000
,
0010
0100
0001
0000
,
0010
0100
1000
0000
,
1000
0010
1000
0010
,
0001
0010
0001
0010
,
1000
0100
0001
0000
,
0001
0100
1000
0000
,
0001
0100
0001
0100
,
1000
1000
0010
0001
,
0011
0001
0100
0000
,
1010
1000
0100
0000
,
0110
1000
0001
0000
,
0110
0000
0001
0000
1000
0000
0000
2002
,
0000
0000
0000
0000
,
0000
0000
0000
0000
,
3003
0000
0000
0000
;

//---------------dance-single - ----------------
#NOTES:
     dance-single:
     :
     Beginner:
     2:
     0.145477,0.236995,0.009258,0.055546,0.000000,110.000000,109.000000,1.000000,6.000000,0.000000,0.000000,0.145477,0.236995,0.009258,0.055546,0.000000,110.000000,109.000000,1.000000,6.000000,0.000000,0.000000:
0000
0000
0000
0000
,
0000
0000
0000
0000
,
0000
0000
0000
0000
,
0000
0000
0000
0000
,
0100
0000
0000
0000
,
0100
0000
0000
0000
,
0100
0000
0000
0000
,
0100
0000
0000
0000
,
1000
0000
1000
0000
,
1000
0000
0000
0000
,
0001
0000
0001
0000
,
0001
0000
0000
0000
,
1000
0000
1000
0000
,
1000
0000
0000
0000
,
0100
0000
0000
0000
,
0010
0000
0000
0000
,
0001
0000
0001
0000
,
0001
0000
0000
0000
,
1000
0000
1000
0000
,
1000
0000
0000
0000
,
0010
0000
0010
0000
,
0010
0000
0000
0000
,
0100
0000
0000
0200
,
0000
0000
0300
0000
,
0010
0000
0010
0000
,
1000
0000
1000
0000
,
0001
0000
0001
0000
,
0010
0000
0010
0000
,
0001
0000
0001
0000
,
1000
0000
1000
0000
,
0010
0000
0010
0000
,
0010
0000
0100
0000
,
0010
0000
0010
0000
,
1000
0000
1000
0000
,
0100
0000
0100
0000
,
0010
0000
0010
0000
,
0001
0000
0001
0000
,
0100
0000
0100
0000
,
0200
0000
0300
0000
,
0100
0000
0010
0000
,
0200
0000
0300
0000
,
0100
0000
0010
0000
,
2000
0000
3000
0000
,
0002
0000
0003
0000
,
2000
0000
3000
0000
,
0001
0001
0001
0000
,
1000
0000
1000
0000
,
0100
0000
0010
0000
,
0001
0000
0001
0000
,
1000
0000
1000
0000
,
0001
0000
0001
0000
,
0100
0000
0010
0000
,
1000
1000
1000
0000
,
0001
0001
0001
0000
,
0010
0000
0010
0000
,
0001
0000
0100
0000
,
0010
0000
0010
0000
,
0100
0000
0100
0000
,
0010
0000
0010
0000
,
1000
0000
0100
0000
,
0010
0010
0010
0000
,
0010
0010
0010
0000
,
0010
0010
0010
0000
,
0010
0010
0010
0000
,
0110
0000
0000
0000
;
