#TITLE:Bootleg Fireworks;
#SUBTITLE:(Burning Up);
#ARTIST:Dillon Francis;
#TITLETRANSLIT:;
#SUBTITLETRANSLIT:;
#ARTISTTRANSLIT:;
#GENRE:;
#CREDIT:;
#BANNER:;
#BACKGROUND:;
#LYRICSPATH:;
#CDTITLE:cdtitle.png;
#MUSIC:bootlegfireworks.ogg;
#OFFSET:0.000000;
#SAMPLESTART:58.928570;
#SAMPLELENGTH:18.214291;
#SELECTABLE:YES;
#BPMS:0.000000=112.000000
;
#STOPS:
;
#BGCHANGES:;
#KEYSOUNDS:;
#ATTACKS:;

//---------------dance-single - ----------------
#NOTES:
     dance-single:
     :
     Hard:
     13:
     0.420897,0.679106,0.201991,0.341295,0.431842,423.000000,394.000000,29.000000,49.000000,0.000000,0.000000,0.420897,0.679106,0.201991,0.341295,0.431842,423.000000,394.000000,29.000000,49.000000,0.000000,0.000000:
// measure 0
0000
0000
0000
0000
,  // measure 1
0000
0000
0000
0000
,  // measure 2
0000
0000
0000
0000
,  // measure 3
0000
0000
0000
0000
,  // measure 4
1000
0000
0000
1000
0001
0000
0100
0000
0001
0000
0000
0001
1000
0000
0010
0000
,  // measure 5
1000
0000
0000
1000
0001
0000
0010
0000
0001
0000
0000
0001
1000
0000
0100
0000
,  // measure 6
0010
0000
0000
0010
0100
0000
1000
0000
0010
0000
0000
0010
0100
0000
0001
0000
,  // measure 7
0100
0000
0000
0000
0000
0000
0000
0000
0000
0100
0000
0000
0010
0000
0000
0000
0000
0000
1000
0000
0000
0000
0000
0000
0100
0000
0000
0000
1000
0000
0000
0000
0000
1000
0000
0000
0100
0000
0000
0000
0000
0000
0010
0000
0000
0000
0000
0000
,  // measure 8
0002
0000
0000
0103
,  // measure 9
0000
0100
0001
1000
0100
0001
0010
0000
,  // measure 10
0000
0000
0000
0000
0100
0000
0001
1000
,  // measure 11
0010
0000
0000
1000
0001
0100
0010
0000
,  // measure 12
2000
0000
0000
3100
,  // measure 13
0000
0100
1000
0001
0100
1000
0010
0000
,  // measure 14
0000
0000
0000
0000
0100
0000
0001
1000
,  // measure 15
0010
0000
0000
1000
0001
0100
0010
0000
,  // measure 16
0102
0000
0000
0000
0000
0000
0000
0000
0000
0000
0000
0000
1003
0000
0000
0100
,  // measure 17
2000
0100
0001
0100
0001
0100
3010
0000
,  // measure 18
2010
0000
0000
0000
0001
0000
3001
0100
,  // measure 19
0210
0000
0000
0001
1000
0001
0310
0000
,  // measure 20
2001
0000
0000
0000
0000
0000
0000
0000
0000
0000
0000
0000
3001
0000
0000
0100
,  // measure 21
0002
0100
1000
0100
1000
0100
0013
0000
,  // measure 22
2100
0000
0000
0000
0100
0000
3100
1000
,  // measure 23
1020
0000
0000
1000
0001
1000
0100
0000
,  // measure 24
0100
0100
0100
0100
,  // measure 25
0130
0000
0010
0000
0010
0000
0000
0000
0100
0000
0000
0100
0000
0100
0010
0000
,  // measure 26
1000
0010
1000
0010
1000
0001
1000
0001
0100
0001
0100
0001
0010
0001
0010
0001
,  // measure 27
0010
0100
0010
0100
1000
0100
1000
0100
1000
0000
0001
0000
1000
0000
0010
0000
,  // measure 28
0110
0000
0000
0000
0101
0000
0000
0000
0101
0000
0000
0001
0100
0000
0001
0000
,  // measure 29
1000
0100
1000
0000
0010
0000
0000
0000
0110
0000
0000
0010
0100
0000
0010
0000
,  // measure 30
2000
0000
0000
0000
3100
0000
0000
0000
1100
0000
0000
1000
0100
0000
0010
0000
,  // measure 31
0100
0000
1000
0000
0001
0000
0000
0100
0001
0000
0100
0000
0010
0000
0020
0000
,  // measure 32
0200
0000
0330
0000
2002
0000
0000
3003
1001
0000
0000
1000
0001
0000
0010
0000
,  // measure 33
0100
0010
0100
0000
0220
0000
0000
0330
0110
0000
0000
0100
1000
0000
0001
0000
,  // measure 34
0200
0000
0000
0000
0020
0000
0000
0330
0110
0000
0000
0100
0010
0000
1000
0000
,  // measure 35
0001
0100
0002
0000
0103
0001
0010
0100
,  // measure 36
0110
0000
0000
0000
0011
0000
0000
0000
1001
0000
0000
1000
0001
0000
0100
0000
,  // measure 37
0001
0100
0010
0000
0100
0000
0000
0000
0110
0000
0000
0100
0010
0000
1000
0000
,  // measure 38
0020
0000
0000
0000
0130
0000
0000
0000
0101
0000
0000
0001
0010
0000
0100
0000
,  // measure 39
1000
0100
0001
0000
0100
0000
0000
1000
0000
0000
0010
0000
0100
0000
0020
0000
,  // measure 40
2000
0000
0000
3030
0202
0000
0000
0303
0101
0000
0000
0001
1000
0000
0001
0000
,  // measure 41
0100
1000
0100
0000
0020
0000
0000
0000
0130
0000
0000
0100
0001
0000
1000
0000
,  // measure 42
0002
0000
0000
0003
2200
0000
0000
3300
1100
0000
0000
1000
0001
0000
0010
0000
,  // measure 43
0001
0010
1000
0000
0020
0000
0000
0000
0130
0000
0000
0000
0010
0000
0100
0000
,  // measure 44
0220
0330
0000
0000
,  // measure 45
0000
0000
0000
0000
,  // measure 46
1000
0100
0010
0001
1000
0100
0010
0001
0100
0010
1000
0001
,  // measure 47
0100
0010
1000
0002
0000
0000
1003
0100
1000
0001
0100
0010
,  // measure 48
0220
0330
0100
0000
0001
0000
0010
0000
0100
0000
1000
0000
,  // measure 49
2200
3300
1000
0100
1000
0000
0020
0000
0000
0032
0000
0000
,  // measure 50
0013
0000
0100
0000
0010
0000
1000
0000
0010
0000
0100
0000
,  // measure 51
0001
0000
0100
0010
0000
1000
0000
0001
0010
0100
0010
0001
,  // measure 52
1000
0000
1000
0100
1000
0000
0010
0000
0100
0000
0001
0000
,  // measure 53
0100
0000
0100
0010
1000
0000
0200
0000
0000
0302
0000
0000
,  // measure 54
0103
0000
1000
0000
1000
0000
0010
0000
0001
0000
0001
0000
,  // measure 55
0100
0000
0100
0010
0000
0010
0001
1000
0100
1000
0001
0010
,  // measure 56
0022
0033
0001
0100
0010
0100
0001
0000
1000
0000
0010
0000
,  // measure 57
0100
0000
0010
1000
0100
0000
0020
0000
0000
2030
0000
0000
,  // measure 58
3010
0000
0010
0001
0100
0000
0010
0000
0100
0000
0010
0000
,  // measure 59
1000
0000
1000
0010
0100
0010
1000
0100
0010
0001
0010
0100
,  // measure 60
2000
3000
1000
0001
0100
0001
0010
0000
0100
0000
0010
0000
,  // measure 61
0001
0000
0001
1000
0010
0000
0200
0000
0000
2300
0000
0000
,  // measure 62
3100
0000
0001
0100
0000
1000
0100
0000
0001
0010
0000
1000
,  // measure 63
0010
0000
0001
0100
0000
1000
0010
0000
0001
1000
0000
0100
,  // measure 64
0020
0000
0000
0000
,  // measure 65
0030
0000
0000
0000
;
