#TITLE:Audio Attack;
#SUBTITLE:;
#ARTIST:megawolf77;
#TITLETRANSLIT:;
#SUBTITLETRANSLIT:;
#ARTISTTRANSLIT:;
#GENRE:;
#CREDIT:;
#BANNER:;
#BACKGROUND:;
#LYRICSPATH:;
#CDTITLE:;
#MUSIC:audioattack.ogg;
#OFFSET:-0.032000;
#SAMPLESTART:30.268999;
#SAMPLELENGTH:15.119000;
#SELECTABLE:YES;
#BPMS:0.000000=126.995003
,192.000000=126.850006
,196.000000=85.389000
,196.750000=69.231003
,197.500000=42.373001
,198.000000=63.492001
,202.000000=126.984001
;
#STOPS:
;
#BGCHANGES:;
#KEYSOUNDS:;
#ATTACKS:;

//---------------dance-single - ----------------
#NOTES:
     dance-single:
     :
     Hard:
     14:
     0.656592,0.718287,0.126636,0.141534,0.662977,617.000000,600.000000,17.000000,19.000000,0.000000,0.000000,0.656592,0.718287,0.126636,0.141534,0.662977,617.000000,600.000000,17.000000,19.000000,0.000000,0.000000:
// measure 0
0000
0000
0000
0000
,  // measure 1
0000
0000
0000
0000
,  // measure 2
1000
0000
0010
0000
0001
0000
0010
0000
1000
0000
0001
1000
0001
1000
0010
0000
,  // measure 3
0100
0001
0100
0010
1000
0010
0100
0001
1000
0100
0010
0001
0010
0100
1000
0001
,  // measure 4
1000
0000
1000
0000
0001
0000
0001
0000
0100
0010
0100
0010
0100
0010
0100
0010
,  // measure 5
2000
0000
0010
0000
0000
0000
0010
3000
0100
0001
0000
0001
0010
0001
0000
0001
,  // measure 6
1000
0010
0100
0000
0001
0100
0000
0100
0001
0010
0000
0010
0100
0000
1000
0000
,  // measure 7
0100
0000
0010
0000
0100
0000
1000
0000
0001
0000
1000
0000
0002
0000
0000
0000
0000
0000
0100
0000
0000
0100
0000
0000
,  // measure 8
0103
0010
1000
0010
0000
0010
1000
0010
0100
0001
0010
0000
0010
0000
0100
0000
,  // measure 9
1000
0000
0100
0000
0001
0000
0100
0000
1000
0001
1000
0001
0010
0000
0000
0000
,  // measure 10
0100
0010
0001
0010
0000
0010
0001
0010
0100
1000
0010
0000
0010
0000
0100
0000
,  // measure 11
0001
0000
0100
0000
1000
0000
0100
0000
0001
1000
0001
1000
0010
0000
0000
0000
,  // measure 12
0100
0001
0010
0001
0000
0001
0010
0001
1000
0010
0100
0000
0100
0000
0001
0000
,  // measure 13
0010
0000
0001
0000
0100
0000
0001
0000
0010
0100
0010
0100
1000
0000
0000
0000
,  // measure 14
0010
1000
0100
1000
0000
1000
0100
1000
0001
0100
0010
0000
0010
0000
1000
0000
,  // measure 15
0100
0000
1000
0000
0010
0000
1000
0000
0100
0010
0100
0010
0002
0000
0000
0000
,  // measure 16
0103
0000
0001
0000
0010
0000
0001
0000
0100
0001
0100
0001
1000
0010
1000
0010
,  // measure 17
1000
0100
0010
0001
0020
0000
0000
0000
0130
0000
0000
0000
0010
0000
0001
0000
,  // measure 18
1000
0000
1000
0000
0001
0000
0001
0000
0100
1000
0100
0001
0100
0000
0100
0000
,  // measure 19
0010
1000
0010
0001
0010
1000
0001
0100
,  // measure 20
0010
0000
1000
0000
0100
0000
1000
0000
0010
1000
0010
1000
0001
0100
0001
0100
,  // measure 21
0001
0010
0100
1000
0200
0000
0000
0000
0310
0000
0000
0000
0100
0000
1000
0000
,  // measure 22
0001
0000
0001
0000
1000
0000
1000
0000
0010
1000
0010
0001
0010
0000
0010
0000
,  // measure 23
1000
0000
0000
0001
0000
0000
1000
0000
0000
0001
0000
0000
0100
0000
0010
0000
0100
0000
0010
0000
0100
0000
0010
0000
,  // measure 24
1001
0000
0010
0000
1001
0000
0000
0000
0001
0010
0100
1000
0001
0100
0010
1000
,  // measure 25
0010
0100
0001
1000
0100
0010
0001
1000
0020
0000
0000
0000
0130
0000
0000
0000
,  // measure 26
0100
0001
0010
0000
0001
0010
0000
0100
1000
0010
1000
0100
0010
0001
0010
0100
,  // measure 27
1000
0001
1001
0000
0120
0000
1030
0001
,  // measure 28
0011
0000
1000
0000
0101
0000
0000
0000
1000
0010
0100
0001
1000
0100
0010
0001
,  // measure 29
0010
0100
1000
0001
0100
0010
1000
0001
0020
0000
0000
0000
0130
0000
0000
0000
,  // measure 30
0100
1000
0010
0000
1000
0010
0000
0100
0001
0010
0001
0100
0010
1000
0010
0100
,  // measure 31
0010
0000
0010
0000
1000
0001
1000
0002
2000
0000
0000
0000
0000
0000
3003
0000
,  // measure 32
0002
0010
0000
0010
,  // measure 33
0023
0100
0000
0100
,  // measure 34
0230
1000
0000
1000
,  // measure 35
0320
0000
0100
0000
0130
1000
0001
0000
,  // measure 36
1010
0000
0000
0000
0001
0000
0000
0000
0011
0000
0000
1000
0100
0000
0100
0000
,  // measure 37
0110
0000
0000
0000
1000
0000
0000
0000
0110
0000
0000
0001
0010
0000
0010
0000
,  // measure 38
0011
1010
0011
1010
,  // measure 39
0001
0000
1000
0000
0001
0000
1000
0000
0010
0100
0010
0100
0010
0100
0010
0100
,  // measure 40
0001
0010
0001
1000
0001
0010
0100
1000
,  // measure 41
0010
0100
0010
1000
0010
0100
0001
0010
,  // measure 42
0100
1000
0100
0010
0100
1000
0010
0100
,  // measure 43
0001
0010
0001
1000
0001
0010
0100
1000
,  // measure 44
0001
1000
0000
1000
0100
0000
0100
0000
0010
0001
0000
0001
1000
0000
1000
0000
,  // measure 45
0100
0010
0000
0010
0001
0000
0001
0000
0100
0010
0000
0010
1000
0000
1000
0000
,  // measure 46
0001
0010
0001
0000
0001
1000
0001
0000
0001
0010
0001
0000
0001
1000
0001
0000
,  // measure 47
0100
0000
0010
0000
0100
0000
0010
0000
1000
0001
1000
0001
1000
0001
1000
0001
,  // measure 48
2000
0010
0000
0010
,  // measure 49
0000
0000
0000
0010
0000
0000
3000
0000
0010
0010
1001
0000
0001
0001
0011
0000
,  // measure 50
1000
1000
2000
3010
1000
0010
0100
0001
,  // measure 51
1000
0000
0001
0000
1000
0000
0001
0000
1000
0000
0001
0000
0010
0000
0000
0100
0000
0000
1000
0000
0000
0100
0000
0000
,  // measure 52
0010
0001
0010
0000
0100
0000
0000
0000
1000
0100
0010
0100
1000
0000
0000
0000
,  // measure 53
0001
0100
1000
0000
0100
0000
0000
0000
0001
0000
0001
0000
1000
0000
1000
0000
,  // measure 54
0100
0000
0010
0000
0001
1000
0001
1000
0001
0000
0100
0000
0010
0000
1000
0000
,  // measure 55
0001
0000
1000
0000
0001
0000
1000
0000
0001
0000
1000
0000
0010
0000
0000
0100
0000
0000
0001
0000
0000
0100
0000
0000
,  // measure 56
0010
1000
0010
0000
0100
0000
0000
0000
0001
0100
0010
0100
0001
0000
0000
0000
,  // measure 57
1000
0100
0001
0000
0100
0000
0000
0000
1000
0000
0010
0000
0100
0000
0001
0000
,  // measure 58
0020
0000
0100
0000
0130
0000
0000
0000
0100
0010
0001
0010
0000
0010
0001
0010
,  // measure 59
0100
1000
0010
0000
0010
0000
0100
0000
0001
0000
0100
0000
1000
0000
0100
0000
,  // measure 60
0001
1000
0001
1000
0010
0000
0000
0000
0100
0010
1000
0010
0000
0010
1000
0010
,  // measure 61
0100
0001
0010
0000
0010
0000
0100
0000
1000
0000
0100
0000
0001
0000
0100
0000
,  // measure 62
1000
0001
1000
0001
0010
0000
0000
0000
0100
1000
0010
1000
0000
1000
0010
1000
,  // measure 63
0001
0010
0100
0000
0100
0000
1000
0000
0010
0000
1000
0000
0100
0000
1000
0000
,  // measure 64
0010
0100
0010
0100
0001
0000
0000
0000
0100
0001
0010
0001
0000
0001
0010
0001
,  // measure 65
1000
0010
0100
0000
0100
0000
0001
0000
0010
0000
0001
0000
0100
0000
0001
0000
,  // measure 66
1000
0001
1000
0002
2000
0000
3003
0000
0110
0000
0000
0000
0000
0000
0000
0000
;

//---------------dance-single - ----------------
#NOTES:
     dance-single:
     :
     Medium:
     10:
     0.409705,0.495370,0.312865,0.029797,0.026072,385.000000,343.000000,42.000000,4.000000,0.000000,0.000000,0.409705,0.495370,0.312865,0.029797,0.026072,385.000000,343.000000,42.000000,4.000000,0.000000,0.000000:
0000
0000
0000
0000
,
0000
0000
0000
0000
,
1000
0000
1000
0000
0001
0010
0001
1000
,
0010
0100
0010
0100
0001
1000
0001
1000
,
0001
0001
0001
0001
0001
0000
0000
0000
,
1000
0000
1000
0000
0001
0010
1000
0000
,
0010
0001
0010
0000
0100
1000
0010
0000
,
1000
0000
1000
0000
2000
0000
0010
3010
,
0100
0001
0100
0001
0010
0001
0010
0000
,
0011
0000
1001
0000
1000
0001
0100
0000
,
0010
1000
0010
1000
0100
1000
0100
0000
,
1100
0000
1001
0000
1000
0001
0010
0000
,
0100
1000
0010
1000
0100
0010
0100
0000
,
0110
0000
1100
0000
0001
0001
0001
0000
,
0100
0001
0010
0001
0100
0010
0100
0000
,
0110
0000
0101
0000
1000
1000
1000
0000
,
0010
0000
1000
0000
0001
0010
0001
0000
,
1000
0100
0110
1001
,
1000
0010
0001
0010
1000
0000
0001
0001
,
0001
1000
0011
1001
,
0001
0000
0010
0000
0001
1000
0001
0000
,
1000
0010
0101
0011
,
0001
0010
1000
0010
0001
0000
1000
1000
,
1000
0000
0000
0001
0000
0000
0100
0010
0100
0010
0100
0010
,
0100
0000
0001
0000
1000
1000
1000
0000
,
0001
0010
0011
1010
,
0001
0000
0001
0000
1000
0100
0010
0001
,
0100
0100
1001
1010
,
1000
0000
0001
0000
0100
0100
0100
0000
,
0001
0010
0011
1010
,
0001
0000
0001
0000
0001
0010
0100
1000
,
0100
0100
1001
0000
,
2000
0010
0000
0010
,
3000
0010
0000
0100
,
0002
0010
0000
0010
,
0003
0000
0010
0000
0000
0001
1000
0000
,
0010
1000
0010
0100
,
0010
0001
0010
0100
,
0001
1000
0001
1000
,
0010
0100
0010
0100
0010
0100
0010
0100
,
0110
0000
0001
0000
0001
0000
0001
0001
,
0011
0000
1000
0000
1000
0000
1000
1000
,
1010
0000
0001
0000
1000
0000
0100
0100
,
0110
0000
1000
0000
0001
0000
0100
0100
,
0110
0000
0001
0001
0001
0000
1000
1000
,
1000
0000
0010
0010
0010
0000
0100
0100
,
0001
1000
0001
1000
0001
1000
0001
1000
,
0001
0001
0001
0001
0002
0000
0000
0000
,
0013
0000
0000
0010
,
0000
0000
0000
0010
0000
0000
0000
0000
0001
0001
0001
0000
1000
1000
1000
0000
,
1001
0110
1001
0000
1000
0010
0001
0010
,
1000
1000
0011
0101
,
0001
0010
0001
0000
0100
0000
0010
0000
,
1000
0010
1000
0000
0001
0000
0001
0000
,
0001
0001
0001
0000
1000
0100
0001
0100
,
1000
1000
1010
1100
,
1000
0010
1000
0000
0100
0000
0010
0000
,
0001
0010
0001
0000
1000
0000
1000
0000
,
1000
1000
1000
0000
0010
1000
0010
1000
,
0100
1000
0100
0000
1100
0000
1001
0000
,
0001
1000
0010
0000
0100
0001
0100
0001
,
0010
0001
0010
0000
0011
0000
1001
0000
,
0001
1000
0010
0000
0100
0001
0010
0001
,
0100
0010
0100
0000
0110
0000
0101
0000
,
1000
1000
1000
0000
0100
1000
0010
1000
,
0100
0010
0100
0000
0110
0000
1100
0000
,
0001
0001
0001
0000
1001
0000
0000
0000
;

//---------------dance-single - ----------------
#NOTES:
     dance-single:
     :
     Easy:
     6:
     0.268170,0.321991,0.037246,0.067043,0.000000,252.000000,247.000000,5.000000,9.000000,0.000000,0.000000,0.268170,0.321991,0.037246,0.067043,0.000000,252.000000,247.000000,5.000000,9.000000,0.000000,0.000000:
0000
0000
0000
0000
,
0000
0000
0000
0000
,
1000
1000
0010
0100
,
0002
0000
2003
0000
,
3001
0001
0010
0000
,
0100
1000
0100
0000
,
1000
1000
0001
0001
,
0010
0010
0020
0000
,
0031
0000
0001
0000
1000
1000
1000
0000
,
0010
0100
0001
0001
,
1000
0000
1000
0000
0010
0010
0010
0000
,
1000
0100
0001
0100
,
1000
0000
1000
0000
0001
0001
0001
0000
,
0010
0100
1000
1000
,
0001
0000
0001
0000
0010
0010
0010
0000
,
0001
0010
0100
1000
,
0010
0000
1000
0000
0001
1000
0100
0000
,
0020
0031
1001
0000
,
0001
0000
0001
0000
0010
0001
0010
0000
,
0100
1000
0010
0000
,
1000
0000
0001
0000
0010
0001
1000
0000
,
0200
0310
1001
0000
,
1000
0000
1000
0000
0001
0100
0001
0000
,
0010
0001
1000
0000
,
0010
0000
0010
0000
1000
0001
0100
0000
,
0010
1000
0010
0100
,
0001
0001
0010
0100
,
1000
0001
0110
1000
,
0100
0000
0100
0000
1000
0001
0010
0000
,
0100
1000
0100
0010
,
0001
0001
0100
0010
,
1000
1000
1001
0000
,
0002
0000
0000
0000
,
0010
0000
0000
0003
,
2000
0000
0000
0000
,
0010
0000
0000
3000
,
0001
0000
0001
0000
,
1000
0000
1000
0000
,
0001
0001
0001
0001
,
0010
0100
0010
0100
,
1000
0010
0001
0100
,
1000
0010
0001
0100
,
1000
0100
0001
0010
,
1000
0100
0001
0010
,
1000
0100
0001
0100
,
1000
0010
0001
0010
,
1000
1000
1000
1000
,
0001
0001
0001
0001
0001
0001
0001
0001
,
0002
0000
0000
0000
,
0000
0000
0000
0003
0001
0000
1000
0000
,
0010
0010
0010
0000
0100
0000
0001
0000
,
1000
0100
0010
0001
,
1000
0001
0100
0010
,
1000
0010
0100
0100
,
0001
1000
0001
0000
0010
0000
0001
0000
,
1000
0010
0100
0001
,
1000
0001
0010
0100
,
1000
0100
0010
0010
,
0020
0000
0031
0001
,
1000
1000
1000
0000
0010
0000
0100
0000
,
0001
0001
1000
1000
,
0010
0010
0010
0000
1000
0000
0100
0000
,
0001
0100
1000
1000
,
0001
0001
0001
0000
0010
0000
0100
0000
,
1000
1000
0001
0001
,
0010
0010
0010
0000
0001
0000
0100
0000
,
0010
1000
1001
0000
;

//---------------dance-single - ----------------
#NOTES:
     dance-single:
     :
     Beginner:
     3:
     0.161754,0.222917,0.074492,0.014898,0.000000,152.000000,142.000000,10.000000,2.000000,0.000000,0.000000,0.161754,0.222917,0.074492,0.014898,0.000000,152.000000,142.000000,10.000000,2.000000,0.000000,0.000000:
0000
0000
0000
0000
,
0000
0000
0000
0000
,
0001
0000
0001
0000
,
2000
0000
3000
0000
,
0010
0010
0010
0000
,
0100
0000
0000
0000
,
0001
0000
1000
0000
,
1001
0000
0000
0000
,
0001
0000
0010
0000
,
0001
0001
0001
0000
,
1000
0000
0010
0000
,
0100
0100
0100
0000
,
0001
0000
0010
0000
,
0001
0001
0001
0000
,
1000
0000
0010
0000
,
0100
0100
0100
0000
,
0001
0000
0100
0000
,
1000
0000
0100
0000
,
0001
0001
0001
0001
,
0001
0000
1001
0000
,
1000
0000
0010
0000
,
0001
0000
0010
0000
,
1000
1000
1000
1000
,
1000
0000
1001
0000
,
0001
0001
0000
0001
,
0000
0100
0000
0010
,
0000
1000
1000
1000
,
1000
0000
0110
0000
,
1000
1000
0000
1000
,
0000
0100
0000
0010
,
0000
0001
0001
0001
,
0001
0000
1001
0000
,
1000
0000
0000
0000
,
0010
0000
0000
0000
,
0001
0000
0000
0000
,
0100
0000
0000
0000
,
1000
0000
1000
0000
,
0001
0000
0001
0000
,
0010
0010
0010
0010
,
0010
0010
0010
0000
,
1001
0000
0000
0000
,
1001
0000
0000
0000
,
0110
0000
0000
0000
,
1001
0000
0000
0000
,
1000
0000
1000
0000
,
0001
0000
0001
0000
,
0010
0010
0010
0010
,
0020
0000
0000
0000
,
0030
0000
0000
0000
,
0000
0000
0001
0001
,
0001
0000
1000
1000
,
1000
0000
0010
0000
,
0001
0000
0010
0000
,
1000
0000
0001
0001
,
0001
0001
0001
0000
,
0001
0000
0100
0000
,
1000
0000
0100
0000
,
0001
0000
1000
1000
,
1000
0000
0001
0000
,
0010
0000
0001
0001
,
0001
0000
1000
0000
,
0010
0000
0100
0100
,
0100
0000
0001
0000
,
0010
0000
0001
0001
,
0001
0000
1000
0000
,
0010
0000
0100
0100
,
0100
0000
1001
0000
;
