#TITLE:petits fours;
#SUBTITLE:;
#ARTIST:kamome sano;
#TITLETRANSLIT:;
#SUBTITLETRANSLIT:;
#ARTISTTRANSLIT:;
#GENRE:;
#CREDIT:;
#BANNER:petits fours.png;
#BACKGROUND:petits fours-bg.png;
#LYRICSPATH:;
#CDTITLE:;
#MUSIC:petits fours.ogg;
#OFFSET:-0.570000;
#SAMPLESTART:17.995029;
#SAMPLELENGTH:15.000000;
#SELECTABLE:YES;
#DISPLAYBPM:111.000000:222.000000;
#BPMS:0.000000=111.000000
,30.750000=55.500000
,31.000000=222.000000
,152.000000=111.000000
,152.250000=222.000000
,152.500000=444.000000
,153.000000=222.000000
,153.500000=111.000000
,153.750000=222.000000
,154.000000=444.000000
,154.500000=222.000000
,155.000000=111.000000
,155.250000=222.000000
,155.500000=444.000000
,156.000000=222.000000
,292.500000=111.000000
,316.500000=222.000000
;
#STOPS:33.000000=0.270000,
34.000000=0.270000,
287.000000=0.270271,
288.000000=0.270271
;
#BGCHANGES:;
#KEYSOUNDS:;
#ATTACKS:;

//---------------dance-single - ----------------
#NOTES:
     dance-single:
     :
     Hard:
     15:
     0.842623,1.000000,0.425177,0.525673,0.170071,640.000000,55.000000,68.000000,0.000000,0.000000,0.000000,0.842623,1.000000,0.425177,0.525673,0.170071,640.000000,55.000000,68.000000,0.000000,0.000000,0.000000:
0000
0000
0000
0000
,
0000
0000
0000
0000
,
0000
0000
0000
0000
,
0000
0000
0000
0000
,
1000
0000
0001
0000
1000
0100
1000
0100
0010
0000
1100
0000
0011
0000
0010
0100
,
1000
0000
0010
0100
0001
0100
0010
1000
0001
0000
0001
1000
0020
0000
0030
0000
,
1000
0000
0001
0000
1000
0100
1000
0001
0100
0000
1010
0000
0101
0000
0001
0100
,
0010
0000
1000
0100
0010
0100
1000
0001
0010
0000
0100
0220
0000
0000
0000
0000
,
0330
1100
1001
0101
,
0200
0000
0320
0000
1030
0001
0000
0001
,
0100
0000
0100
0001
1000
0100
0010
0100
,
0010
0001
0000
0001
1000
0010
0000
1000
,
0001
0000
0100
0010
0100
0001
1000
0000
,
0110
0000
0001
1000
0001
0010
0000
0010
,
0200
0000
1000
1300
0000
1100
0000
0100
,
0010
0001
1000
0001
0100
0020
0000
0000
,
0030
1000
0010
0100
0001
2000
0000
0000
,
3000
0100
1000
0001
0010
0100
0000
0100
,
1000
0010
0010
0100
0001
0010
0000
0100
,
0200
0000
0300
1000
0100
0020
0000
0130
,
0010
0002
0000
0013
0001
2000
0000
3001
,
1000
0010
0000
0101
0000
1001
0000
1000
,
0100
0001
1000
0010
0001
1000
0100
0001
,
1000
0010
0001
0010
0001
0100
0000
0001
,
0100
1000
0001
0010
1000
0001
0100
1000
,
0001
0010
1000
0001
0010
0100
1000
2000
,
3000
1000
0001
0002
0003
0001
0100
0100
,
0001
0001
1000
1000
0010
0010
0000
1000
,
1000
0100
0100
0010
0000
0010
0001
0001
,
0100
0100
0010
1000
0001
0020
0000
0130
,
1000
0010
0100
0001
0010
0100
1000
0010
,
0100
0001
0010
0001
1000
0200
0000
0310
,
0001
0100
0010
1000
0100
0010
0001
0100
,
0010
1000
0001
1000
0100
0020
0000
0130
,
0100
0100
1000
0100
1000
0020
0000
0130
,
0100
0100
0001
1000
0001
0200
0000
0301
,
1000
0200
0000
1300
0001
0010
0000
0010
,
0001
0000
1000
0001
0000
0220
0330
0000
,
2002
0000
0003
0200
0000
0300
0002
0000
,
0003
3010
1000
0001
0100
0001
0000
0001
,
1000
0000
0010
0000
0100
0001
1000
0100
,
1000
0000
0100
1000
0001
0020
0030
0000
,
0110
0000
1001
0001
1000
0001
0100
0010
,
0100
0000
0100
0001
1000
0020
0000
1030
,
0001
0100
0001
0010
0100
0020
0000
0230
,
0000
1300
0100
1000
0001
0020
0030
0000
,
0011
0000
1010
1000
0010
0100
0002
0000
,
0013
0100
1000
0001
0000
2200
3300
0000
,
0100
0000
1000
0001
0100
0010
0000
0010
,
0010
0010
0100
0001
0010
0200
0300
0000
,
0110
0000
0100
1000
0010
0200
0300
0000
,
0110
0000
0010
0100
0001
0020
0000
0000
,
0000
0000
0000
0030
,
0100
0000
1000
0001
0000
1001
0000
0000
,
0001
0100
0010
1000
0001
0010
0100
0010
,
0000
1100
0000
0011
0000
0110
0000
0100
,
1000
0100
0010
0001
0000
1000
0001
0100
,
0010
1000
0010
0100
0001
0020
0000
0000
,
0130
0000
0100
1000
0001
1000
0000
1010
,
0000
1001
0000
0101
0000
1001
0000
1000
,
0010
0000
0010
0100
0010
1000
0001
0010
,
0000
0010
0100
0100
0000
1001
0000
0000
,
1000
0100
0010
0001
1000
0010
0100
0010
,
0000
0101
0000
1010
0000
0011
0000
0010
,
0100
0010
0001
0010
0000
0100
1000
0001
,
1000
0010
0100
0001
0100
0010
0000
0010
,
0100
0000
0100
0001
0010
0100
0000
0100
,
0010
0000
0010
0001
0100
0010
0000
1000
,
0100
0010
0000
0010
0001
0200
0000
0000
,
0301
0000
0100
0010
0000
1001
0000
1100
,
1000
0000
0101
0001
0000
1010
1000
0000
,
0011
0001
0000
0001
1000
0001
0101
0000
,
1001
1100
0200
0320
,
0031
0000
1000
0000
1000
0010
0000
0010
1000
0001
0010
0100
0010
0100
1000
0000
,
1000
0001
0100
0000
0001
1000
0000
0100
0010
0100
1000
0001
0000
0110
0000
1000
,
0001
1000
0010
0000
0010
0200
0000
0001
0301
0000
0101
0000
0100
0010
1000
0001
,
1000
0100
0020
0000
0000
0030
0001
0010
0100
1000
0002
0000
0000
0003
0100
0001
,
1000
0100
0010
0000
0010
0001
0100
0100
0010
1000
0010
0000
0100
0200
0000
0300
,
0001
1000
0020
0000
1030
0010
0200
0000
0310
0100
0002
0000
0103
0001
1000
0000
,
1100
1001
0000
0001
0010
1000
0010
0001
,
1000
0010
0000
1010
0000
0201
0000
0301
,
0100
0010
0000
0100
0010
0100
0001
1000
,
0001
0010
0000
0001
1000
0020
0000
0030
,
0000
0110
0000
0100
0010
1000
0001
0010
,
0100
1000
0000
1001
0000
1200
0000
1300
,
0100
0010
0000
0100
1000
0010
0000
1000
,
0001
0010
0000
0001
1000
0001
0000
0100
,
0010
0110
0000
0010
1000
0010
0100
0001
,
0010
0001
0000
0011
0000
1010
0000
0010
,
0100
0001
0000
0001
0100
0010
0100
1000
,
0100
0001
0010
0100
0010
1000
0010
0001
,
1000
0020
0000
0000
0030
0010
0100
0001
,
1000
0200
0000
0000
0300
0100
1000
0001
,
0100
0010
0000
0010
1000
0001
1000
0100
,
0010
0002
0000
0013
0100
2000
0000
3100
,
0010
0100
0000
1000
0100
1000
0000
0001
,
0100
0001
0000
1000
0010
1000
0000
0001
,
0010
0200
0000
0310
0100
2000
0000
3100
,
1000
0002
0000
1003
0001
0020
0000
0031
,
0010
0200
0000
0310
0100
2000
0000
3100
,
1000
0002
0000
1003
0001
0200
0300
0100
,
0001
0020
0000
0031
0010
0200
0000
1300
,
0100
0020
0000
0031
1000
0001
0000
0101
,
0000
2020
0000
0000
3030
0000
0000
0000
;

//---------------dance-single - ----------------
#NOTES:
     dance-single:
     :
     Medium:
     12:
     0.565430,0.640084,0.177801,0.371063,0.100496,441.000000,23.000000,48.000000,0.000000,0.000000,0.000000,0.565430,0.640084,0.177801,0.371063,0.100496,441.000000,23.000000,48.000000,0.000000,0.000000,0.000000:
0000
0000
0000
0000
,
0000
0000
0000
0000
,
0000
0000
0000
0000
,
0000
0000
0000
0000
,
1000
0100
1000
0001
1000
0010
1000
0000
,
0001
0100
1000
0100
,
0001
0100
0001
1000
0001
0010
0001
0000
,
1000
0000
0000
0000
0010
0000
0000
0000
0001
0000
1000
0002
0000
0000
0000
0000
,
0000
0003
1001
0000
0110
0000
1001
0000
,
1000
0000
0010
0000
0100
0002
0000
0000
,
0103
0000
0010
0000
0100
0000
0010
1000
,
0010
1000
0000
0001
0010
0002
0000
0000
,
1003
0000
0000
0100
0000
1000
0001
0000
,
0001
0000
0001
1000
0000
0100
0000
0000
,
0110
0000
0100
1000
0000
1000
0000
1000
,
0001
0000
1000
0000
0100
0010
0000
0000
,
1000
0000
0001
0000
0100
0010
0000
0000
,
0001
0000
1000
0000
0001
0010
0000
0000
,
0100
0000
0100
0000
1000
0001
0000
0001
,
2000
0000
3000
0001
0100
0001
0000
1000
,
0100
1000
0000
0001
0010
0001
0000
1000
,
0010
0100
0000
0100
0000
0110
0000
0000
,
0001
0100
0010
0100
,
1000
0100
0002
0003
,
1000
0100
0010
0100
,
0001
0000
0100
0000
2000
0000
3001
0100
,
0000
0000
1000
0100
0000
0000
0001
0100
,
0001
0000
1000
0100
1000
0000
0001
0100
,
0010
0000
1000
0100
0010
0000
0100
0000
,
0100
0000
0100
0010
0000
1001
0000
0000
,
1000
0010
0100
0010
,
0001
0010
2000
3000
,
0001
0010
0100
0010
,
1000
0000
0010
0000
0001
1000
0000
0000
,
1100
0000
1001
0000
0001
0100
0000
0000
,
0101
0000
1001
0000
1000
0010
0000
0100
,
0010
0100
0000
0100
0010
0000
1000
0000
,
1000
0000
0001
1000
0000
0001
0000
0000
,
0200
0000
0000
0320
0000
0000
0230
0000
,
0000
0310
1000
0000
1000
0002
0000
0000
,
1003
0010
1000
0100
,
0010
0000
0001
0010
0001
0010
0000
0000
,
0200
1300
0100
0010
,
0100
0000
1000
0001
0000
0020
0000
0000
,
0031
0000
1000
0000
0000
0020
0000
1030
,
0000
0000
1000
0010
1000
0010
0000
0000
,
0200
0301
0001
2000
,
3001
0000
0010
0001
0000
2000
0000
0000
,
3100
0000
0010
0100
0010
0000
0100
0000
,
0100
0000
1000
0001
1000
0001
0000
0000
,
0100
0000
0100
0000
0001
0010
0000
0000
,
0100
0000
0100
0000
1000
0020
0000
0000
,
0000
0000
0000
0030
,
1000
0000
0001
1000
0000
1001
0000
0000
,
0001
0000
0100
0000
0001
0000
1000
0001
,
0000
0001
0000
1000
0000
0010
0000
0010
,
0100
0001
0001
0100
,
1000
0000
1000
0000
0001
2000
0000
0000
,
3100
0000
0010
0000
0010
0001
0000
0010
,
0000
0100
0000
1000
0000
0100
0000
0100
,
0010
0000
0001
0000
1000
0001
0000
0000
,
0000
0001
0100
0001
0000
0020
0000
0000
,
0130
0000
1000
0000
0001
0000
0100
0001
,
0000
0100
0000
0010
0000
1000
0000
0010
,
0100
0001
0001
1000
,
0100
0000
0100
0000
0010
0002
0000
0000
,
0013
0000
0100
0000
0100
2000
0000
0000
,
3000
0000
0001
0000
1000
0010
0000
0010
,
0000
0100
0000
0100
0000
0002
0000
0000
,
1003
0000
0001
1000
0000
0010
0000
1000
,
1000
0000
0001
0001
0000
1000
1000
0000
,
0001
0001
0000
1000
0010
0000
0110
0000
,
1001
0110
0010
1000
,
1000
0000
0001
0000
0000
0001
0000
1000
0000
1000
0000
0100
0000
0100
0000
0010
,
0000
0010
0001
0000
0000
0001
0000
0100
0000
0100
0000
0010
0000
0100
0000
0010
,
1000
0000
0001
0000
0000
0100
0000
0001
1000
0000
0020
0000
0000
0030
0000
1000
,
0000
1000
0100
0000
0000
0000
0000
0001
0000
0001
0100
0000
0000
0000
0000
0010
,
0000
0010
1000
0000
0000
0001
0000
1000
0000
0001
0010
0000
0010
0100
0000
0000
,
0100
0010
0001
0010
0100
1000
0010
0100
,
0001
1001
0000
0000
1000
0000
0010
0000
,
0100
0010
0000
0010
0000
0220
0000
0000
,
0330
0001
0100
1000
,
0100
0001
0010
1000
,
0010
0001
0000
0000
0001
0000
0010
0000
,
0100
0010
0000
0010
0000
0220
0000
0000
,
0330
0100
1000
0010
,
1000
0001
0100
0001
,
0010
0001
0000
0000
1000
0000
0001
0000
,
0010
0001
0000
1000
0000
2002
0000
0000
,
3003
0001
0010
0100
,
0010
0001
1000
0010
,
0100
0020
0000
0000
0030
0000
1000
0001
,
1000
0002
0000
0000
0003
0000
0010
0100
,
0010
0200
0000
0000
0310
0000
0001
1000
,
0001
2000
0000
3100
0010
0200
0000
0300
,
0000
0220
0000
0330
0000
2002
0000
3003
,
0000
0022
0000
0033
0000
2200
0000
3300
,
0000
0001
0000
1000
0000
1000
0000
0100
,
0000
0100
0000
0010
0000
0010
0000
0001
,
1000
0001
0000
0100
0001
0100
0000
0010
,
1000
0010
0000
1000
0001
1000
0000
0100
,
1000
0002
0000
1003
0001
0200
0000
0301
,
1000
0020
0000
1030
0001
0010
0000
0010
,
0000
2002
0000
0000
3003
0000
0000
0000
;

//---------------dance-single - ----------------
#NOTES:
     dance-single:
     :
     Easy:
     8:
     0.335724,0.360047,0.139149,0.185532,0.050248,262.000000,18.000000,24.000000,0.000000,0.000000,0.000000,0.335724,0.360047,0.139149,0.185532,0.050248,262.000000,18.000000,24.000000,0.000000,0.000000,0.000000:
0000
0000
0000
0000
,
0000
0000
0000
0000
,
0000
0000
0000
0000
,
0000
0000
0000
0000
,
1000
1000
0001
0001
,
0200
0300
0200
0300
,
0001
0001
1000
1000
,
0200
0000
0000
0000
0300
0000
0000
0000
0010
0000
0000
0020
0000
0000
0000
0000
,
0030
0001
1000
0001
,
0000
0000
1000
0000
0000
1001
0000
0000
,
0000
0001
0001
0100
,
0000
0010
0010
1000
,
0000
1000
0001
0010
,
0000
0001
1000
0100
,
0000
0000
0010
0000
0000
0010
0000
0000
,
0000
0000
0001
0000
0000
0001
0000
0000
,
0000
0000
1000
0000
0000
1000
0000
0000
,
0000
0000
0100
0000
0000
0100
0000
0000
,
0000
0000
1000
0000
0000
0001
0000
0000
,
1001
0000
0000
0000
0000
0001
0000
0000
,
0000
0100
0000
0000
0000
0010
0000
0000
,
0000
1000
0000
0000
0000
1001
0000
0000
,
0001
0100
0001
0100
,
0001
0000
0100
0000
0000
0010
0000
0000
,
1000
0100
1000
0100
,
1000
0000
0100
0000
0000
0010
0000
0000
,
0000
0100
0000
0010
,
0000
0100
0000
1000
,
0000
0001
0000
1000
,
0010
0100
0001
0000
,
0001
0010
0001
0010
,
0001
0000
0010
0000
0000
0100
0000
0000
,
1000
0010
1000
0010
,
1000
0000
0010
0000
0000
0100
0000
0000
,
0100
0000
0001
0000
0000
0010
0000
0000
,
0010
0000
0001
0000
0000
0100
0000
0000
,
0000
0100
0000
0000
0000
0220
0000
0000
,
0000
0000
0000
0330
0000
0010
0000
0000
,
1000
0000
0000
1000
0000
0000
1000
0000
,
0000
1000
0000
0000
0000
1001
0000
0000
,
0000
0001
0100
1000
,
0100
0000
0001
0000
0000
0010
0000
0000
,
0100
1000
1000
0000
,
0001
0000
0100
0000
0000
0010
0000
0000
,
0100
0000
0001
0000
0000
0010
0000
0100
,
0000
0000
1000
0000
0000
1001
0000
0000
,
0001
0000
0000
0001
0000
0000
0001
0000
,
1000
0000
0001
0000
0000
0010
0000
0000
,
0001
0100
0000
0010
,
1000
0000
0010
0000
0000
0010
0000
0000
,
1000
0000
0001
0000
0000
0010
0000
0000
,
0001
0000
1000
0000
0000
0200
0000
0000
,
0000
0000
0000
0300
,
0000
0000
0000
0000
0000
0220
0000
0000
,
0000
0330
0000
1000
,
0000
0100
0000
0000
0000
0010
0000
0000
,
0001
0010
0000
1000
,
0010
0000
0000
0000
0000
0100
0000
0000
,
0001
0000
0001
0000
0000
1000
0000
0000
,
0000
0001
0000
0000
0000
0010
0000
0000
,
0020
0000
0000
0030
,
0000
0000
0001
0000
0000
2002
0000
0000
,
0000
3003
0000
0001
,
0000
0100
0000
0000
0000
0010
0000
0000
,
1000
0010
0000
0001
,
0010
0000
0000
0000
0000
0100
0000
0000
,
1000
0000
0000
0000
0000
0001
0000
0000
,
0100
0000
0000
0000
0000
0100
0000
0000
,
0000
0010
0000
0000
0000
1000
0000
0000
,
1000
0000
0001
0000
0000
0220
0000
0000
,
0000
0000
0000
0000
,
0000
0330
0000
1000
,
0001
1000
0000
0001
,
0000
0000
1001
0000
0000
0000
0000
0001
0000
0000
0000
0001
0000
0000
0000
0100
,
0000
0000
0000
0100
0000
0000
0000
0010
0000
0000
0000
0010
0000
0000
0000
1000
,
0000
0000
1000
0000
0000
0000
0000
0001
0000
0000
0001
0000
0000
0000
0000
0010
,
0000
0000
0010
0000
0000
0000
0000
0100
0000
0000
0100
0000
0000
0000
0000
1000
,
0000
0000
0100
0000
0000
0000
0000
0010
0000
0000
0002
0000
0000
0003
0000
0000
,
0000
0001
0000
0100
0000
0010
0000
1000
,
0000
1001
0000
0000
0001
0000
0000
0000
,
0001
0100
0000
0100
0000
0100
0000
0000
,
0000
0010
0000
0000
1000
0000
0001
0000
,
0000
0010
0000
0001
0000
1000
0000
0000
,
0000
1001
0000
0000
1000
0000
0000
0000
,
1000
0100
0000
0100
0000
0100
0000
0000
,
0000
0020
0000
0030
0000
0200
0000
0300
,
0000
2000
0000
3000
0000
0002
0000
0003
,
0000
0100
0000
0000
0001
0000
0000
0000
,
0001
0010
0000
0010
0000
0010
0000
0000
,
0000
0100
0000
0000
1000
0000
0001
0000
,
0100
0001
1000
0100
,
0000
0110
0000
0000
0100
0000
1000
0000
,
0000
0010
0000
0000
0000
0000
0100
0000
,
0001
0010
0000
0000
0000
0000
0100
0000
,
0100
2000
0000
3000
0000
0002
0000
0003
,
0000
0020
0000
0000
0000
0000
0000
0000
,
0000
0030
0000
0000
,
0000
1001
0000
0000
0000
1100
0000
0000
,
0000
1001
0000
0000
0000
0101
0000
0000
,
0000
0001
0000
0100
0000
0001
0000
1000
,
0000
0001
0000
0010
0000
0001
0000
1000
,
0000
0100
0000
1000
0000
0001
0000
1000
,
0000
0010
0000
1000
0000
0001
0000
1000
,
0000
2002
0000
0000
3003
0000
0000
0000
;

//---------------dance-single - ----------------
#NOTES:
     dance-single:
     :
     Beginner:
     4:
     0.189949,0.239162,0.061844,0.015461,0.034787,162.000000,8.000000,2.000000,0.000000,0.000000,0.000000,0.189949,0.239162,0.061844,0.015461,0.034787,162.000000,8.000000,2.000000,0.000000,0.000000,0.000000:
// measure 0
0000
0000
0000
0000
,  // measure 1
0000
0000
0000
0000
,  // measure 2
0000
0000
0000
0000
,  // measure 3
0000
0000
0000
0000
,  // measure 4
1000
0000
1000
0000
,  // measure 5
0001
0000
0001
0000
,  // measure 6
1000
0000
1000
0000
,  // measure 7
0001
0000
0001
0000
,  // measure 8
0000
1000
0001
1000
,  // measure 9
0000
0000
0000
0000
0000
0001
0000
0000
,  // measure 10
0000
0000
0000
0100
,  // measure 11
0000
0000
0000
0010
,  // measure 12
0000
0000
0000
1000
,  // measure 13
0000
0000
0000
0000
0000
0001
0000
0000
,  // measure 14
0000
0000
0000
0000
0000
1000
0000
0000
,  // measure 15
0000
0000
0000
0000
0000
1000
0000
0000
,  // measure 16
0000
0000
0000
0000
0000
0100
0000
0000
,  // measure 17
0000
0000
0000
0000
0000
0010
0000
0000
,  // measure 18
0000
0000
0000
0000
0000
0001
0000
0000
,  // measure 19
0000
0000
0000
0000
0000
0001
0000
0000
,  // measure 20
0000
0001
0000
0000
0000
1000
0000
0000
,  // measure 21
0000
1000
0000
0000
0000
1001
0000
0000
,  // measure 22
0000
0001
0000
0100
,  // measure 23
0000
0001
0000
0000
,  // measure 24
0000
1000
0000
0100
,  // measure 25
0000
1000
0000
0001
,  // measure 26
0000
0010
0000
0001
,  // measure 27
0000
1000
0000
0010
,  // measure 28
0000
1000
0000
0001
,  // measure 29
0000
1000
0000
0000
,  // measure 30
0000
0001
0000
0010
,  // measure 31
0000
0001
0000
0000
,  // measure 32
0000
1000
0000
0010
,  // measure 33
0000
1000
0000
0000
,  // measure 34
0001
0000
0000
0000
,  // measure 35
1000
0000
0000
0000
0000
0010
0000
0000
,  // measure 36
0000
0010
0000
0000
0000
0020
0000
0000
,  // measure 37
0000
0000
0000
0030
0000
1001
0000
0000
,  // measure 38
0000
0000
0000
0000
,  // measure 39
0000
0000
0000
0000
0000
1001
0000
0000
,  // measure 40
0000
1000
0000
0100
,  // measure 41
0000
0000
1000
0000
0000
0001
0000
0000
,  // measure 42
0000
0001
0000
0100
,  // measure 43
0000
0000
0001
0000
0000
0010
0000
0000
,  // measure 44
0000
0000
0100
0000
0000
0010
0000
0000
,  // measure 45
0000
0000
0001
0000
0000
1000
0000
0000
,  // measure 46
0000
0001
0000
0100
,  // measure 47
0000
0000
0001
0000
0000
1000
0000
0000
,  // measure 48
0000
1000
0000
0100
,  // measure 49
0000
0000
1000
0000
0000
0010
0000
0000
,  // measure 50
0000
0000
0100
0000
0000
0010
0000
0000
,  // measure 51
0000
0000
1000
0000
0000
0002
0000
0000
,  // measure 52
0000
0000
0000
0003
,  // measure 53
0000
0000
0000
0000
0000
1001
0000
0000
,  // measure 54
0000
0000
0000
1000
,  // measure 55
0000
0100
0000
0010
,  // measure 56
0000
0000
0000
0001
,  // measure 57
0000
0000
0100
0000
0000
0010
0000
0000
,  // measure 58
0000
0000
0000
0000
0000
0100
0000
0000
,  // measure 59
0000
0001
0000
0000
0000
1000
0000
0000
,  // measure 60
0100
0000
0000
0100
,  // measure 61
0000
0000
0010
0000
0000
0110
0000
0000
,  // measure 62
0000
0000
0000
0100
,  // measure 63
0000
1000
0000
0010
,  // measure 64
0000
0000
0000
0100
,  // measure 65
0000
0000
0001
0000
0000
0010
0000
0000
,  // measure 66
0000
0000
0000
0000
0000
0100
0000
0000
,  // measure 67
0000
0000
0000
0000
0000
0010
0000
0000
,  // measure 68
0000
0001
0000
0000
0000
1000
0000
0000
,  // measure 69
0000
0000
0010
0000
0000
0110
0000
0000
,  // measure 70
0000
0000
0000
0000
,  // measure 71
0000
0000
0000
0001
,  // measure 72
1000
0001
0000
0000
,  // measure 73
0000
0000
1000
0000
0000
0000
0000
0000
0000
0000
0000
0001
0000
0000
0000
0000
,  // measure 74
0000
0000
0000
1000
0000
0000
0000
0000
0000
0000
0000
0100
0000
0000
0000
0000
,  // measure 75
0000
0000
0000
0010
0000
0000
0000
0000
0000
0000
0000
0001
0000
0000
0000
0000
,  // measure 76
0000
0000
0000
0100
0000
0000
0000
0000
0000
0000
0000
0010
0000
0000
0000
0000
,  // measure 77
0000
0000
0000
1000
0000
0000
0000
0000
0000
0000
0000
0001
0000
0000
0000
0000
,  // measure 78
0000
0001
0000
0100
0000
0010
0000
1000
,  // measure 79
0000
1001
0000
0000
0000
0000
0000
0000
,  // measure 80
0000
0001
0000
0001
0000
0001
0000
0000
,  // measure 81
0000
0010
0000
0000
0000
0000
0100
0000
,  // measure 82
0000
1000
0000
0000
0000
0100
0000
0000
,  // measure 83
0000
0010
0000
0000
0000
0000
0000
0000
,  // measure 84
0000
1000
0000
1000
0000
1000
0000
0000
,  // measure 85
0000
0010
0000
0000
0000
0100
0000
0000
,  // measure 86
0000
0001
0000
0000
0000
0100
0000
0000
,  // measure 87
0000
0010
0000
0000
0000
0000
0000
0000
,  // measure 88
0000
0001
0000
0001
0000
0001
0000
0000
,  // measure 89
0000
0010
0000
0000
0000
0000
0001
0000
,  // measure 90
0000
1000
0000
0010
,  // measure 91
0000
1000
0000
0000
0000
0000
0000
0000
,  // measure 92
0000
0001
0000
0000
0000
0000
0000
0000
,  // measure 93
0000
0010
0000
0000
0000
0000
0000
0000
,  // measure 94
0000
0100
0000
0000
0000
0010
0000
0000
,  // measure 95
0000
0001
0000
0000
0000
0000
0000
0000
,  // measure 96
0000
0001
0000
0000
0000
0000
0000
0000
,  // measure 97
0000
1000
0000
0000
0000
0000
0000
0000
,  // measure 98
0000
1000
0000
0000
0000
0000
0000
0000
,  // measure 99
0000
0001
0000
0000
0000
0100
0000
0000
,  // measure 100
0000
0001
0000
0000
0000
0100
0000
0000
,  // measure 101
0000
0010
0000
0000
0000
1000
0000
0000
,  // measure 102
0000
0001
0000
0000
0000
1000
0000
0000
,  // measure 103
0000
1001
0000
0000
0000
0000
0000
0000
;
