#TITLE:Shining Sprinter;
#SUBTITLE:;
#ARTIST:megawolf77;
#TITLETRANSLIT:;
#SUBTITLETRANSLIT:;
#ARTISTTRANSLIT:;
#GENRE:;
#CREDIT:;
#BANNER:;
#BACKGROUND:;
#LYRICSPATH:;
#CDTITLE:;
#MUSIC:shiningsprinter.ogg;
#OFFSET:-0.036550;
#SAMPLESTART:69.854736;
#SAMPLELENGTH:12.000000;
#SELECTABLE:YES;
#BPMS:0.000000=165.000000
;
#STOPS:
;
#BGCHANGES:;
#KEYSOUNDS:;
#ATTACKS:;

//---------------dance-single - ----------------
#NOTES:
     dance-single:
     :
     Hard:
     14:
     0.736871,0.776140,0.282968,0.161696,0.505300,638.000000,603.000000,35.000000,20.000000,0.000000,0.000000,0.736871,0.776140,0.282968,0.161696,0.505300,638.000000,603.000000,35.000000,20.000000,0.000000,0.000000:
// measure 0
0000
0000
0000
0000
,  // measure 1
0000
0000
0000
0000
,  // measure 2
0000
0000
0000
0000
,  // measure 3
0000
0000
0000
0000
,  // measure 4
2000
0000
0000
0010
0000
0000
3010
0000
,  // measure 5
0100
0001
0010
0000
,  // measure 6
0200
0000
0000
1000
0000
0000
1300
0000
,  // measure 7
0001
0100
0010
1000
,  // measure 8
0001
0000
0010
0000
1000
0000
0010
0000
0001
0000
1000
0001
0000
1000
0001
0000
,  // measure 9
1000
0010
0100
0001
0010
0001
0100
0010
,  // measure 10
1000
0000
0100
0000
0001
0000
0100
0000
1000
0000
0001
1000
0000
0001
1000
0000
,  // measure 11
0001
0100
0010
1000
0100
1000
0010
0100
,  // measure 12
0001
0000
0010
0000
1000
0000
0010
0000
0001
0000
1000
0001
0000
1000
0001
0000
,  // measure 13
1000
0010
0100
0001
0010
0001
0100
0010
,  // measure 14
1000
0100
0010
0001
0100
0010
1000
0001
,  // measure 15
1000
0010
1000
0000
0001
1000
0001
1000
0100
0000
0000
0000
0110
0000
0000
0000
,  // measure 16
0001
0000
1000
0000
0100
0010
0000
0001
0010
0001
0010
0000
0100
0000
1000
0000
,  // measure 17
0010
0001
0010
1000
0001
0010
0110
0000
,  // measure 18
1000
0000
0001
0000
0100
0010
0000
1000
0010
1000
0010
0000
0100
0000
0001
0000
,  // measure 19
0010
1000
0010
0001
1000
0010
0110
0000
,  // measure 20
0001
0000
1000
0000
0010
0100
0000
0001
1000
0001
1000
0000
0100
0000
0010
0000
,  // measure 21
0001
0010
1000
0010
0001
1000
1001
0000
,  // measure 22
2000
0000
0000
0010
0000
0000
3010
0000
0000
0000
0100
0010
0100
0000
0001
0000
,  // measure 23
1000
0100
0010
0001
0011
0000
1010
0000
,  // measure 24
1000
0000
0100
0000
0002
0000
0000
0100
0000
0103
0000
0000
1000
0000
1000
0000
,  // measure 25
0001
0000
0100
0000
2000
0000
0000
0100
0000
3100
0000
0000
0001
0000
0001
0000
,  // measure 26
1000
0000
0100
0000
0010
0000
0001
1000
0000
1000
0000
0010
0100
0000
0100
0000
,  // measure 27
0001
0000
0100
0000
1000
0000
0100
0000
0001
0010
0001
0010
0100
0000
0000
0000
,  // measure 28
1000
0000
0010
0000
0002
0000
0000
0010
0000
0013
0000
0000
1000
0000
1000
0000
,  // measure 29
0001
0000
0010
0000
2000
0000
0000
0010
0000
3010
0000
0000
0001
0000
0001
0000
,  // measure 30
1000
0000
0010
0000
0100
0000
0001
1000
0000
1000
0000
0100
0010
0000
0010
0000
,  // measure 31
0002
0010
0013
0000
1001
1010
0000
0110
,  // measure 32
0001
0000
1000
0000
0001
0000
0010
1000
0000
1000
0000
0010
0001
0000
0001
0000
,  // measure 33
1000
0000
0001
0000
1000
0000
0010
0001
0000
0001
0000
0010
1000
0000
1000
0000
,  // measure 34
0001
0000
0100
0000
1000
0000
0100
0001
0000
0001
0000
1000
0100
0000
0100
0000
,  // measure 35
0010
0001
0010
0001
0100
0000
0010
1000
0010
1000
0100
0000
0010
0000
0100
0000
,  // measure 36
1000
0000
0001
0000
1000
0000
0010
0001
0000
0001
0000
0010
1000
0000
1000
0000
,  // measure 37
0001
0000
1000
0000
0001
0000
0010
1000
0000
1000
0010
0000
0001
0000
0001
0000
,  // measure 38
1001
0000
0000
0000
1000
0010
1000
0010
0100
0001
0100
0001
0010
0001
0010
0001
,  // measure 39
2000
0001
3001
0000
1100
0101
0000
1001
,  // measure 40
1000
0000
0100
0000
0010
0000
0001
1000
0001
1000
0000
0100
0010
0000
0100
0000
,  // measure 41
2000
0000
0000
0000
3010
0000
0000
0100
0001
0000
0100
0000
0010
0000
0100
0000
,  // measure 42
0002
0000
0000
0000
0013
0000
0000
0100
1000
0000
0100
0000
0010
0000
0100
0000
,  // measure 43
2000
0000
0000
0000
3010
0000
0000
0100
0001
0000
0100
0000
1000
0000
0100
0000
,  // measure 44
0001
0000
0100
0000
0010
0000
1000
0001
1000
0001
0000
0010
0100
0000
0010
0000
,  // measure 45
0002
0000
0000
0000
0103
0000
0000
0010
1000
0000
0010
0000
0100
0000
0010
0000
,  // measure 46
2000
0000
0000
0000
3100
0000
0000
0010
0001
0000
0010
0000
0100
0000
1000
0000
,  // measure 47
2002
0000
0000
3003
0110
0000
1001
0000
,  // measure 48
0001
0000
0100
0000
1000
0000
0100
0000
0001
0000
1000
0001
0000
1000
0001
0000
,  // measure 49
0000
0000
1000
0000
0100
0000
0010
0000
0001
0010
0001
0000
1001
0000
0000
0000
,  // measure 50
1000
0000
0010
0000
0001
0000
0010
0000
1000
0000
0001
1000
0000
0001
1000
0000
,  // measure 51
0000
0000
0001
0000
0010
0000
0100
0000
1000
0100
1000
0100
0010
0001
0010
0001
,  // measure 52
0100
0000
0010
0000
0100
0000
0001
0000
1000
0000
0100
0010
0000
0100
0010
0000
,  // measure 53
0000
0001
0010
0001
0100
0001
0010
0100
,  // measure 54
1000
0000
0100
0001
0000
0100
1000
0000
0000
0000
0001
0000
0100
0000
0010
0000
,  // measure 55
1000
0000
0010
0001
0000
0010
1000
0000
1010
0000
0000
0000
0011
0000
0000
0000
,  // measure 56
0001
0000
0010
0000
0100
0000
1000
0000
0001
0000
0100
0010
0000
0100
0010
0000
,  // measure 57
0000
0000
1000
0000
0001
0000
1000
0000
0100
0010
0100
0000
0110
0000
0000
0000
,  // measure 58
1000
0000
0100
0000
0010
0000
0001
0000
1000
0000
0010
0100
0000
0010
0100
0000
,  // measure 59
0000
0000
0001
0000
1000
0000
0001
0000
0010
0001
0010
0001
1000
0100
1000
0100
,  // measure 60
0010
0000
0001
0000
0100
0000
0001
0000
0010
0000
0100
0010
0000
0100
0010
0000
,  // measure 61
0000
0100
1000
0010
1000
0100
0010
0001
,  // measure 62
1000
0000
0100
0001
0000
0100
1000
0000
0000
0000
0001
0000
1000
0000
0001
0000
,  // measure 63
0101
0000
0000
1100
0000
0000
0101
0000
1001
0000
0000
0000
0110
0000
0000
0000
,  // measure 64
1000
0000
0001
0000
0100
0010
0000
1000
0010
1000
0010
0000
0100
0000
0001
0000
,  // measure 65
0010
1000
0010
0001
1000
0010
0110
0000
,  // measure 66
0001
0000
1000
0000
0100
0010
0000
0001
0010
0001
0010
0000
0100
0000
1000
0000
,  // measure 67
0010
0001
0010
1000
0001
0010
0110
0000
,  // measure 68
1000
0000
0001
0000
0010
0100
0000
1000
0001
1000
0001
0000
0010
0000
0100
0000
,  // measure 69
1000
0100
0001
0100
1000
0001
1001
0000
,  // measure 70
2000
0000
0000
0010
0000
0000
3010
0000
0000
0000
0100
0000
0001
0000
0010
0000
,  // measure 71
0100
1000
0001
1000
1001
0000
0110
0000
,  // measure 72
1000
0000
0001
0000
1000
0100
0000
0001
0100
0001
0100
0000
1000
0000
0001
0000
,  // measure 73
0100
0010
1000
0010
0100
0001
0101
0000
,  // measure 74
0001
0000
1000
0000
0001
0100
0000
1000
0100
1000
0100
0000
0001
0000
1000
0000
,  // measure 75
0100
0010
0001
0010
0100
1000
1100
0000
,  // measure 76
1000
0000
0001
0000
1000
0010
0000
0001
0010
0001
0010
0000
1000
0000
0001
0000
,  // measure 77
0100
0010
1000
0010
0100
0001
1001
0000
,  // measure 78
2000
0000
0000
0001
0000
0000
3001
0000
0000
0000
0010
0001
0010
0000
0100
0000
,  // measure 79
1000
0100
1000
0100
0001
0100
0001
0100
0110
0000
0000
0000
2002
0000
0000
0000
,  // measure 80
3003
0000
0000
0000
;

//---------------dance-single - ----------------
#NOTES:
     dance-single:
     :
     Medium:
     10:
     0.519737,0.517427,0.129357,0.137441,0.068721,450.000000,434.000000,16.000000,17.000000,0.000000,0.000000,0.519737,0.517427,0.129357,0.137441,0.068721,450.000000,434.000000,16.000000,17.000000,0.000000,0.000000:
0000
0000
0000
0000
,
0000
0000
0000
0000
,
0000
0000
0000
0000
,
0000
0000
0000
0000
,
2000
0000
0000
0010
0000
0000
0010
0000
,
3002
0000
0013
0000
,
0200
0000
0000
1000
0000
0000
1000
0000
,
2300
0000
3001
0000
,
0001
0000
0100
0000
1000
0000
0100
0000
0001
0000
0000
0001
0000
0000
0001
0000
,
0100
0010
0100
0001
1000
0100
0010
0000
,
0001
0000
0010
0000
1000
0000
0010
0000
0001
0000
0000
0001
0000
0000
0001
0000
,
0010
0100
0010
0001
0010
0100
1000
0000
,
0010
0000
1000
0000
0100
0000
1000
0000
0010
0000
0000
0010
0000
0000
0010
0000
,
0100
0001
0010
0001
0100
0010
1000
0000
,
0001
0000
1000
0000
0001
0000
1000
0000
0010
0000
0000
0010
0000
0000
0010
0000
,
0020
0000
0000
0030
1010
0000
0011
0000
,
1000
0010
1000
0000
0001
0010
0100
1000
,
0001
0100
1000
0100
0001
0000
1000
0000
,
0001
0010
0001
0000
1000
0010
0100
0001
,
1000
0100
0001
0100
1000
0000
0001
0000
,
0010
0100
0010
0000
0001
1000
0001
0100
,
0010
1000
0100
1000
0010
0000
0100
0000
,
0001
0000
0000
0001
0000
0000
0001
0000
0000
0000
1000
0000
0001
0000
0100
0000
,
0010
0100
0001
1000
1001
0000
0110
0000
,
2000
0000
0010
0000
3010
0100
0010
1000
,
0002
0000
0010
0000
0013
0100
0010
0001
,
1000
0010
1000
0001
0010
1000
0010
0001
,
2000
0000
3010
1001
,
0002
0000
0100
0000
0103
0010
0100
0001
,
2000
0000
0100
0000
3100
0010
0100
1000
,
0001
0100
0001
1000
0100
0001
0100
1000
,
0000
0001
0001
0000
1000
1000
0000
0001
,
0001
0100
0010
0000
1000
0010
0001
0010
,
1000
0100
0010
0000
0001
0010
1000
0010
,
0001
1000
0001
0100
0010
0100
0001
0000
,
1000
0100
0010
0001
0100
0010
1000
0000
,
0001
0010
0100
0000
1000
0100
0001
0100
,
1000
0010
0100
0000
0001
0100
1000
0100
,
0001
0000
1000
0001
1000
0001
1000
0000
,
0000
0001
0001
0000
1000
1000
0000
0100
,
0010
0000
0001
0000
1000
0001
1000
0000
,
0002
0000
0010
0000
0013
0000
0010
0100
,
2000
0000
0010
0000
3010
0000
0010
0100
,
0001
0010
0011
1001
,
1000
0000
0001
0000
1000
0010
1000
0000
,
0002
0000
0100
0000
0103
0000
0100
0010
,
2000
0000
0100
0000
3100
0000
0100
0010
,
0002
0000
0000
0003
0011
0000
1001
0000
,
1000
0000
0001
0000
1000
0000
0000
0000
0010
0000
0000
0010
0000
0000
0010
0000
,
0000
0010
0100
0001
1000
0000
1000
0000
,
0001
0000
1000
0000
0001
0000
0000
0000
0010
0000
0000
0010
0000
0000
0010
0000
,
0000
0010
0100
1000
0000
0000
1001
0000
,
0001
0000
0100
0000
0010
0000
0000
0000
1000
0000
0000
1000
0000
0000
1000
0000
,
0000
0001
0010
0100
0000
0000
0010
0000
,
0001
0000
0000
1000
0000
0000
0001
0000
0000
0000
0000
0000
0100
0000
0100
0000
,
0100
0000
0000
0010
0000
0000
0100
0000
0000
0000
0000
0000
1001
0000
0000
0000
,
1000
0000
0100
0000
0001
0000
0000
0000
0100
0000
0000
0100
0000
0000
0100
0000
,
0000
0100
1000
0001
1000
0000
1000
0000
,
0001
0000
0100
0000
1000
0000
0000
0000
0100
0000
0000
0100
0000
0000
0100
0000
,
0000
0001
0010
0100
0000
0000
1001
0000
,
1000
0000
0010
0000
0001
0000
0000
0000
0010
0000
0000
0010
0000
0000
0010
0000
,
0000
0010
1000
0100
0000
0000
0010
0000
,
0001
0000
0000
1000
0000
0000
0001
0000
0000
0000
0000
0000
0100
0000
0100
0000
,
0100
0000
0000
0010
0000
0000
0100
0000
0110
0000
0000
0000
1001
0000
0000
0000
,
0001
0010
0001
0000
1000
0010
0100
0001
,
1000
0100
0001
0100
1000
0000
0001
0000
,
1000
0010
1000
0000
0001
0010
0100
1000
,
0001
0100
1000
0100
0001
0000
1000
0000
,
0001
0100
0001
0000
1000
0100
0010
0001
,
1000
0010
0001
0010
1000
0000
1000
0000
,
0001
0000
0000
0001
0000
0000
0001
0000
0000
0000
0100
0000
0010
0000
0100
0000
,
0001
1000
0100
0010
0001
0000
1001
0000
,
1000
0010
1000
0000
0001
1000
0100
0010
,
0001
0100
0001
0010
0001
0000
1000
0000
,
0001
0100
0001
0000
1000
0001
0100
0010
,
1000
0100
1000
0010
1000
0000
0001
0000
,
1000
0001
1000
0000
0100
0010
0100
1000
,
0001
0100
0001
0010
0001
0000
0100
0000
,
0010
0000
0000
0010
0000
0000
0010
0000
0000
0000
1000
0000
0100
0000
1000
0000
,
0001
0100
0010
1000
0001
0000
2002
0000
,
3003
0000
0000
0000
;

//---------------dance-single - ----------------
#NOTES:
     dance-single:
     :
     Easy:
     7:
     0.369591,0.420409,0.121272,0.072763,0.000000,320.000000,305.000000,15.000000,9.000000,0.000000,0.000000,0.369591,0.420409,0.121272,0.072763,0.000000,320.000000,305.000000,15.000000,9.000000,0.000000,0.000000:
0000
0000
0000
0000
,
0000
0000
0000
0000
,
0000
0000
0000
0000
,
0000
0000
0000
0000
,
2000
0000
0000
0000
,
3002
0000
0013
0000
,
0200
0000
0000
0000
,
2300
0000
3001
0000
,
0001
0001
0100
0010
,
1000
0010
0001
0010
,
1000
1000
0100
0010
,
0001
0010
1000
0010
,
0100
0010
0100
1000
,
0001
0100
0010
1000
,
0001
0010
1000
0010
,
0001
0001
0001
0000
0011
0000
1010
0000
,
0001
0000
1000
0000
0010
0100
0010
0000
,
1000
1000
0100
0010
,
0001
0000
0001
0000
0100
0010
0100
0000
,
0001
0001
1000
0010
,
0100
0000
0001
0000
1000
0001
1000
0000
,
0001
0001
0010
0100
,
1000
1000
1000
0000
,
0001
0001
0011
1001
,
1000
2000
0010
3001
,
0001
0002
0010
1003
,
1000
0100
0001
0100
,
1000
0000
1000
0000
0001
0001
0001
0000
,
0100
0020
1000
0130
,
0010
0200
0001
0310
,
1000
0001
1000
0100
,
0010
0000
1001
0000
,
0001
0000
0010
0000
0001
0100
0010
0000
,
1000
0000
0010
0000
1000
0100
0010
0000
,
0001
0000
1000
0000
0001
1000
0001
0000
,
0010
0100
1000
0001
,
1000
0000
0100
0000
1000
0010
0100
0000
,
0001
0000
0100
0000
0001
0010
0100
0000
,
1000
1000
0001
0001
,
0200
0000
0310
0000
,
1000
0010
0001
0010
,
1000
1000
0001
0010
,
0100
0100
1000
0010
,
0100
0100
0001
1001
,
1000
0100
0001
0100
,
1000
1000
0001
0100
,
0010
0010
1000
0001
,
1001
0000
1000
1000
,
0010
0100
0001
0100
,
0010
0010
1000
0001
,
0010
0100
1000
0100
,
0010
0000
0010
0000
0001
0001
0001
0000
,
1000
0100
0001
0100
,
1000
1000
0001
0100
,
0010
0010
0010
0000
,
0100
0100
1001
1001
,
0001
0100
1000
0100
,
0001
0001
1000
0100
,
0010
0001
0010
0100
,
0010
0000
0010
0000
0001
0001
0001
0000
,
0100
0010
1000
0010
,
0100
0100
0001
1000
,
0100
0100
0100
0000
,
0010
0010
1001
1001
,
0001
0000
1000
0000
0010
0100
0010
0000
,
1000
1000
0100
0010
,
0001
0000
0001
0000
0100
0010
0100
0000
,
0001
0010
0100
1000
,
0001
0000
1000
0000
0010
0100
0010
0000
,
1000
0100
0010
0001
,
1000
1000
1000
0000
,
0001
0001
0011
0011
,
0010
0000
0100
0000
1000
0001
1000
0000
,
0100
0010
0001
0010
,
0100
0000
0010
0000
0001
1000
0001
0000
,
0100
0010
1000
0010
,
0100
0000
0010
0000
1000
0001
1000
0000
,
0001
0100
0010
1000
,
0001
0001
0001
0000
,
1000
0001
1000
0001
0100
0000
0110
0000
,
1001
0000
0000
0000
;
