#VERSION:0.83;
#TITLE:Ruby;
#SUBTITLE:;
#ARTIST:BilliumMoto;
#TITLETRANSLIT:;
#SUBTITLETRANSLIT:;
#ARTISTTRANSLIT:;
#GENRE:;
#ORIGIN:;
#CREDIT:;
#BANNER:banner.png;
#BACKGROUND:background.png;
#PREVIEWVID:;
#JACKET:jacket.png;
#CDIMAGE:;
#DISCIMAGE:;
#LYRICSPATH:;
#CDTITLE:;
#MUSIC:BilliumMoto - Ruby.ogg;
#OFFSET:-0.325521;
#SAMPLESTART:35.190140;
#SAMPLELENGTH:15.932949;
#SELECTABLE:YES;
#BPMS:0.000=120.505;
#STOPS:;
#DELAYS:;
#WARPS:;
#TIMESIGNATURES:0.000=4=4;
#TICKCOUNTS:0.000=4;
#COMBOS:0.000=1;
#SPEEDS:0.000=1.000=0.000=0;
#SCROLLS:0.000=1.000;
#FAKES:;
#LABELS:0.000=Song Start;
#BGCHANGES:1.750=Ruby.avi=1.000=0=0=0=StretchNoLoop====,
99999=-nosongbg-=1.000=0=0=0 // don't automatically add -songbackground-
;
#KEYSOUNDS:;
#ATTACKS:
;

//---------------dance-single - ----------------
#NOTEDATA:;
#CHARTNAME:;
#STEPSTYPE:dance-single;
#DESCRIPTION:;
#CHARTSTYLE:;
#DIFFICULTY:Challenge;
#METER:18;
#RADARVALUES:0.896034,0.942861,0.236306,0.054013,1.384078,929.000000,894.000000,35.000000,8.000000,0.000000,0.000000,0.000000,0.000000,0.000000,0.896034,0.942861,0.236306,0.054013,1.384078,929.000000,894.000000,35.000000,8.000000,0.000000,0.000000,0.000000,0.000000,0.000000;
#CREDIT:Daniel Van Eden;
#NOTES:
0000
0000
0000
0000
,
0000
0000
0000
0000
,
0000
0000
0000
0000
,
0000
0000
0000
0000
,
0000
0000
0000
0000
0000
0000
0000
0000
0000
0000
0010
0000
0000
0000
0010
1000
,
0100
0000
1000
0010
0100
0000
0001
0000
1000
0000
1000
0000
0001
0000
0010
0000
,
0001
0000
0001
0000
1000
0020
0000
0000
1030
0000
0000
0000
1010
0000
0010
0000
,
1000
0000
0000
0001
0000
0000
0101
0000
0000
0100
0001
1000
0001
0000
0000
0001
0000
0000
1000
0000
0000
0010
0000
0000
,
1000
0000
1000
0000
0001
0020
0000
0000
0031
0000
0100
0000
0000
0000
0100
0001
,
0010
0000
0100
0010
0001
0000
1000
0000
0100
1000
1000
0001
1000
0000
0020
0000
,
0000
0000
0130
0000
0001
0000
1000
0000
0010
1000
0001
1000
0010
0000
0000
1000
,
0010
0100
0001
0010
0100
0000
1000
0100
0010
0001
0001
1000
0001
0000
0200
0000
,
0000
0000
0310
0000
1000
0000
0001
0000
1000
0100
0010
0001
0010
0000
0000
0100
,
0010
0000
0001
0000
0100
0000
0001
0000
1000
0010
1000
0001
0100
0000
0001
0000
0010
0000
0010
0000
0100
0000
1000
0000
0100
0000
0000
0000
2000
0000
0000
0000
,
0000
0000
0000
0000
3010
0000
0000
0000
0100
0000
0000
0000
0001
0000
0000
0000
0100
0000
0001
0000
1000
0000
0100
0000
0010
0000
0000
0000
0000
0000
0001
0010
,
0100
1000
0010
0000
0100
0001
1000
0100
0010
0100
0100
1000
0100
0000
1000
0010
,
0100
0000
0001
0000
0010
0000
0000
0000
0100
0000
0000
0000
0010
0001
1000
0100
0010
0000
0100
1000
0001
0000
0100
0010
1000
0000
0010
0000
0100
0000
0001
0000
,
0010
0001
1000
0100
0001
1000
0010
0001
0100
0000
0100
0000
0010
1000
0100
1000
,
0010
0000
0010
0000
1000
1100
0000
0000
0011
0000
0000
0000
0010
0000
0001
0000
,
1001
0000
0000
0000
1000
0100
0010
0001
1000
0000
0010
0000
0100
0000
0000
0000
0010
0000
0000
0000
0010
0000
0000
0000
0100
0000
0001
0000
0010
0000
0001
0010
,
0100
0000
0000
0000
0000
0000
1000
0100
0010
0000
0011
0000
0000
0000
0000
0000
1100
0000
0000
0000
1000
0000
0000
0000
1001
0000
0000
0000
0001
0000
0010
0000
,
1000
0000
0001
0100
1000
0000
0010
0000
1010
0000
1000
0000
0001
0010
0100
0010
,
0001
0000
0000
0000
0001
0000
0000
0000
0100
0000
0101
0000
0000
0000
0000
0000
1010
0000
0000
0000
0000
0000
0000
0000
0010
1000
0001
0100
0010
0100
0001
1000
,
0010
0000
0000
0000
1000
0100
0010
0001
1000
0000
0001
0000
0100
0000
0000
0000
0001
0000
0000
0000
0001
0000
0000
0000
1000
0000
0100
0000
0010
0000
0100
0000
,
1000
0000
0000
0000
0001
0000
0010
0100
1000
0000
1010
0000
0000
0000
0000
0000
0101
0000
0000
0000
1000
0000
0000
0000
1001
0000
0000
0000
0001
0000
0100
0000
,
1000
0000
0001
0010
1000
0000
0100
0000
0011
0000
0001
1000
0000
0100
0000
1000
,
0010
0100
0001
0000
1001
0000
1000
0010
1000
0000
0001
0010
0000
0100
0000
0010
,
0001
0000
1000
0000
0100
0000
0000
0000
1100
0000
0000
0000
1000
0000
0000
0000
0010
0100
0010
0000
1000
0000
0001
0000
0000
0000
0100
0000
0000
0000
0001
0000
,
1000
0000
0000
0010
0000
0000
0100
0000
0000
0000
0000
0000
0010
0000
1000
0000
0100
0000
0010
0000
0000
0001
0000
0000
1000
0000
0000
0000
0000
0000
0001
0000
0000
0010
0000
0000
0000
0000
0000
0100
0000
0000
0000
0000
0000
1000
0000
0000
,
0010
0000
1000
0000
0100
0000
0010
0001
1000
0000
0001
0000
0100
0000
0010
1000
0001
0000
0000
0000
1000
0000
0001
0000
0000
0000
0100
0000
0000
0000
0001
0000
,
0010
0000
0100
0000
1000
0000
0000
0000
1001
0000
0000
1000
0010
0000
0100
0000
0010
0000
0000
0000
0100
0000
0001
0000
0000
0000
0100
0000
0000
0000
0010
0000
,
1000
0000
0001
0000
0100
0000
0000
0000
0101
0000
0000
0000
0001
0000
0000
0000
0010
0100
0010
0000
0001
0000
1000
0000
0000
0000
0001
0000
0000
0000
1000
0000
,
0010
0000
0000
0100
0000
0000
0001
0000
0000
0000
0000
0000
0100
0000
0001
0000
1000
0000
0010
0000
0000
1000
0000
0000
0100
0000
0000
0000
0000
0000
0010
0000
0000
0001
0000
0000
0000
0000
0000
1000
0000
0000
0000
0000
0000
0001
0000
0000
,
0010
0100
1000
0010
0001
1000
0100
0001
0010
0000
0010
0000
0100
1000
0010
1000
,
0100
0000
0100
0000
1000
1010
0000
0000
0101
0000
0100
0010
1000
0000
0001
0000
,
0010
0000
0100
0010
0001
0000
1000
0000
0010
0000
0000
0000
1000
0000
0000
0000
0100
0000
1000
0001
1000
0000
0010
0000
0100
0000
0001
0000
0010
0000
0000
0000
,
0001
0000
0010
0000
0001
0000
1000
0010
0100
0000
0101
0000
0000
0000
0000
0000
1010
0000
0000
0000
0100
0000
0000
0000
1001
0000
0000
0000
1000
0000
0100
0000
,
0001
0000
1000
0010
0001
0000
0100
0000
0010
0000
0010
0000
0100
0001
0010
0001
,
0100
0000
0100
0000
0010
1010
0000
0000
1100
0000
0100
1000
0001
0000
0010
0000
,
0001
0000
0100
0010
1000
0000
0001
0000
0010
0000
0000
0000
0001
0000
0000
0000
0100
0000
0001
1000
0001
0000
0010
0000
0100
0000
1000
0000
0010
0000
0000
0000
,
1000
0000
0010
0000
1000
0000
0100
0010
0001
0000
0011
0000
0000
0000
0000
0000
0101
0000
0000
0000
0001
0100
0000
0000
0010
0000
1000
0000
0100
0000
0010
0000
,
0110
0000
0000
0000
0000
0000
0000
0000
1001
0000
0000
0000
0000
0001
0100
0010
1000
0000
0000
0000
0010
0000
1000
0000
0001
0000
0000
0000
0010
0000
0001
0000
,
0100
0000
1000
0000
0100
0000
0001
0000
0010
0000
0100
0000
0000
0000
1000
0000
0010
0000
0100
0000
0001
1000
0001
1000
0010
0000
0100
0000
0001
0100
0010
0000
,
1000
0000
0100
0000
0010
0000
0001
0000
0100
0000
0010
0000
1000
0000
0001
0000
0100
0000
0000
0000
0001
0000
1000
0000
0100
0000
0000
0000
1000
0001
0010
0000
,
0000
0000
0001
0000
1000
0000
0100
1000
0100
0000
0010
0000
0001
0000
0100
0001
0100
0000
0001
0000
0010
0000
0010
0000
0100
0000
1000
0000
0000
0000
0010
0000
,
1000
0000
0001
0000
0100
0000
0001
0000
0010
0100
1000
0000
0001
0000
0100
0000
0001
0000
0000
0000
0010
0000
0001
0000
1000
0000
0000
0000
1000
0000
0010
0000
,
0000
0000
0010
0000
0100
0000
0010
0000
1000
0000
0001
0000
0000
0000
1000
0000
0000
0000
1000
0000
0001
0010
0001
0010
0100
0000
1000
0000
0010
1000
0001
0000
,
0100
0000
0001
0000
0010
0000
0100
0000
1000
0100
0010
0000
0001
0000
0100
0010
1000
0000
0000
0000
0010
0000
1000
0000
0001
0000
0000
0000
1000
0001
0010
0000
,
0100
0000
0010
0000
0001
0000
0010
0100
1000
0000
0000
0000
0001
0000
1000
0001
1000
0000
0010
0000
1000
0000
0100
0000
0010
0000
0000
0000
0001
0000
0010
0000
,
0100
0000
1000
0010
0100
0000
0001
0000
0100
0001
0001
1000
0001
0000
0020
0000
,
0000
0000
0130
0000
1000
0000
0001
0000
0010
0001
1000
0001
0010
0000
0000
0001
,
0010
0100
1000
0010
0100
0000
0001
0100
0010
1000
1000
0001
1000
0000
0200
0000
,
0000
0000
0310
0000
0001
0000
1000
0000
0001
0100
0010
1000
0010
0000
0000
0100
,
0010
0000
1000
0000
0100
0000
1000
0000
0001
0010
0001
1000
0100
0000
1000
0000
0010
0000
0010
0000
0100
0000
0001
0000
0100
0000
0000
0000
0002
0000
0000
0000
,
0000
0000
0000
0000
0013
0000
0000
0000
0100
0000
0000
0000
1000
0000
0000
0000
0100
0000
1000
0000
0001
0000
0100
0000
0010
0000
0000
0000
0000
0000
1000
0010
,
0100
0001
0010
0000
0100
1000
0001
0100
0010
0100
0100
0001
0100
0000
0001
0010
,
0100
0000
1000
0000
0010
0000
0000
0000
0100
0000
0000
0000
0010
1000
0001
0100
0010
0000
0100
0001
1000
0000
0100
0010
0001
0000
0010
0000
0100
0000
1000
0000
,
0010
0000
1000
0000
0001
0000
0100
0000
1000
0000
0001
0000
0010
0000
1000
0000
0100
0000
0010
0100
0010
0000
0000
0000
0001
0000
0010
0000
0100
0000
1000
0000
,
0010
0000
1000
0001
1000
0000
0000
0000
0100
0000
0001
0000
0100
0000
1000
0000
0010
0000
1000
0000
0001
0000
0100
0000
0010
0000
1000
0000
0001
0000
0010
0000
,
0100
0000
0000
0000
1000
0000
0001
0000
0010
0000
0001
0000
0100
0001
0100
0010
1000
0000
0001
1000
0001
0000
0000
0000
0010
0000
0001
0000
0100
0000
0010
0000
,
1000
0000
0001
1000
0001
0000
1000
0010
0100
0000
1000
0000
0100
0000
0001
0000
0010
0000
0000
0000
0001
0000
1000
0000
0100
0000
1000
0000
0010
1000
0010
0100
,
0001
0000
0000
0000
0100
0000
0010
0000
1000
0000
0000
0000
0001
0000
0000
0000
0010
0000
0100
1000
0100
0000
0000
0000
1000
0000
0010
0000
0100
0000
0001
0000
,
0010
0000
0001
0100
0001
0000
0000
0000
0100
0000
1000
0000
0100
0000
0001
0000
0010
0000
0001
0000
1000
0000
0100
0000
0010
0000
0001
0000
1000
0000
0010
0000
,
0100
0000
0000
0000
0001
0000
1000
0000
0010
0000
1000
0000
0100
1000
0100
0010
0001
0000
1000
0001
1000
0000
0000
0000
0010
0000
1000
0000
0100
0000
0010
0000
,
0001
0000
1000
0001
1000
0000
0001
0010
0100
0000
0001
0000
0100
0000
1000
0000
0010
0000
0000
0000
1000
0000
0001
0000
0100
0000
0001
0000
0010
0001
0010
0100
,
1000
0000
0100
0010
0001
0000
1000
0000
1100
0000
1000
0001
0000
0010
0000
0001
,
0100
0010
1000
0000
1001
0000
0001
0100
0001
0000
1000
0100
0000
0010
0000
0100
,
1000
0000
0001
0000
0010
0000
0000
0000
0011
0000
0000
0000
0001
0000
0000
0000
0100
0010
0100
0000
0001
0000
1000
0000
0000
0000
0010
0000
0000
0000
1000
0000
,
0001
0000
0000
0100
0000
0000
0010
0000
0000
0000
0000
0000
0100
0000
0001
0000
0010
0000
0100
0000
0000
1000
0000
0000
0001
0000
0000
0000
0000
0000
1000
0000
0000
0100
0000
0000
0000
0000
0000
0010
0000
0000
0000
0000
0000
0001
0000
0000
,
0100
0000
0001
0000
0010
0100
0010
0001
1000
0000
0001
0000
0010
0000
0100
1000
0001
0000
0000
0000
1000
0000
0001
0000
0000
0000
0010
0000
0000
0000
0001
0000
,
0100
0000
0010
0000
1000
0000
0000
0000
1001
0000
0000
0001
0100
0000
0010
0000
0100
0000
0000
0000
0010
0000
1000
0000
0000
0000
0010
0000
0000
0000
0100
0000
,
0001
0000
1000
0000
0010
0000
0000
0000
1010
0000
0000
0000
1000
0000
0000
0000
0100
0010
0100
0000
1000
0000
0001
0000
0000
0000
1000
0000
0000
0000
0001
0000
,
0100
0000
0000
0010
0000
0000
1000
0000
0000
0000
0000
0000
0010
0000
1000
0000
0001
0000
0100
0000
0000
0001
0000
0000
0010
0000
0000
0000
0000
0000
0100
0000
0000
1000
0000
0000
0000
0000
0000
0001
0000
0000
0000
0000
0000
1000
0000
0000
,
0100
0010
0001
0100
1000
0001
0010
1000
0100
0000
0000
0000
0000
0000
0000
0000
;

//---------------dance-single - ----------------
#NOTEDATA:;
#CHARTNAME:;
#STEPSTYPE:dance-single;
#DESCRIPTION:;
#CHARTSTYLE:;
#DIFFICULTY:Beginner;
#METER:6;
#RADARVALUES:0.239200,0.272933,0.060764,0.310574,0.000000,248.000000,239.000000,9.000000,46.000000,0.000000,0.000000,0.000000,0.000000,0.000000,0.239200,0.272933,0.060764,0.310574,0.000000,248.000000,239.000000,9.000000,46.000000,0.000000,0.000000,0.000000,0.000000,0.000000;
#CREDIT:Daniel Van Eden;
#NOTES:
0000
0000
0000
0000
,
0000
0000
0000
0000
,
0000
0000
0000
0000
,
0000
0000
0000
0000
,
0000
0000
0000
0000
,
0000
0000
0000
0000
0010
0010
0000
0000
,
1000
1000
0000
0000
0001
0000
0000
0000
,
0001
0000
0000
0000
0010
0010
0000
0000
,
0001
0001
0000
0000
1000
0000
0000
0000
,
0001
0000
1000
0000
0100
0000
0000
0100
,
0000
0000
0100
0000
0010
0000
0000
0001
,
0000
0000
0001
0000
0100
0000
0000
0100
,
0000
0000
0100
0000
0010
0000
0000
1000
,
0000
0000
1000
0000
0010
0000
0000
0100
,
0000
0000
0010
0000
1000
0000
0000
0001
,
0000
0000
1000
0000
0100
0000
0000
0010
,
0000
0100
0010
0010
,
0010
0000
0002
2003
,
3002
2003
3000
0100
,
0010
0001
0200
0320
,
2030
0000
3001
0000
0000
0010
0000
0010
,
0001
1001
2000
3002
,
2003
3002
0003
0100
,
0010
1000
0200
0320
,
0032
0000
1003
0000
0000
0010
0000
0010
,
1000
1001
0001
0100
,
0001
0000
1000
0100
,
1000
0010
1000
0001
,
1000
0000
0001
0010
,
0001
0100
0001
1000
,
0001
0000
1000
0010
,
1000
0100
1000
0001
,
1000
0000
0001
0010
,
0100
1000
0020
2030
,
3020
2030
3000
0001
,
1000
1000
1000
0000
0002
0000
0203
0000
,
0320
0000
2030
0000
3000
0001
0000
0001
,
0010
0110
0020
0032
,
0023
0032
0003
1000
,
0001
0001
0001
0000
0200
0000
0320
0000
,
2030
3002
0003
0010
,
1001
0110
1001
0000
,
1000
0010
0100
0000
,
0010
0100
0001
0000
,
1000
0001
0010
0000
,
0001
0010
0100
0000
,
0010
0100
1000
0000
,
0010
1000
0001
0000
,
0100
0000
0010
0000
0000
1000
0000
1000
,
0001
0000
1000
0000
0100
0000
0000
0100
,
0000
0000
0100
0000
0010
0000
0000
0010
,
0000
0000
0001
0000
0100
0000
0000
0100
,
0000
0000
0100
0000
0010
0000
0000
0010
,
0000
0000
1000
0000
0001
0000
0000
1000
,
0000
0000
0001
0000
0010
0000
0000
0100
,
0000
0000
0010
0000
0001
0000
0000
0100
,
0000
0010
1000
0100
,
0010
0001
0200
0320
,
0230
0000
0320
0000
0030
1000
0000
0001
,
1000
1000
0000
0100
2000
0000
3200
0000
,
0320
0000
0032
0000
0003
0010
0000
0010
,
0100
1001
0200
0320
,
0230
0000
0320
0000
0030
1000
0000
0001
,
0100
0100
0000
0001
2000
0000
3200
0000
,
0320
0000
0032
0000
0003
0010
0000
0010
,
0100
1001
1000
0100
,
0010
0000
0001
0100
,
0010
0100
0001
0010
,
0100
0000
1000
0100
,
0010
0100
1000
0010
,
0100
0000
0001
1000
,
0100
0010
0001
1000
,
0001
0000
0100
0010
,
1000
0001
1001
0000
;

//---------------dance-single - ----------------
#NOTEDATA:;
#CHARTNAME:;
#STEPSTYPE:dance-single;
#DESCRIPTION:;
#CHARTSTYLE:;
#DIFFICULTY:Easy;
#METER:8;
#RADARVALUES:0.309609,0.347370,0.087771,0.108026,0.000000,321.000000,308.000000,13.000000,16.000000,0.000000,0.000000,0.000000,0.000000,0.000000,0.309609,0.347370,0.087771,0.108026,0.000000,321.000000,308.000000,13.000000,16.000000,0.000000,0.000000,0.000000,0.000000,0.000000;
#CREDIT:Daniel Van Eden;
#NOTES:
0000
0000
0000
0000
,
0000
0000
0000
0000
,
0000
0000
0000
0000
,
0000
0000
0000
0000
,
0000
0000
0000
0000
,
0000
0000
0000
0000
0000
0000
0010
1000
,
0010
0010
1000
1000
,
0100
0000
0010
0000
0001
0000
0001
0010
,
0001
0000
1000
0000
0100
1000
0000
1000
,
0100
0010
0001
0000
0100
0000
0000
0010
,
0000
0010
1000
0001
,
1000
0000
0100
0000
0010
0000
0000
0100
,
0000
0100
1000
0010
,
0100
0000
0001
0000
1000
0000
0000
0100
,
0000
0010
0001
0100
,
0010
0100
0001
1000
,
0100
0010
0001
1000
,
0001
0010
0100
1000
0020
0000
1030
0000
,
2000
3001
0010
0001
,
0100
0010
0100
0000
0020
0000
1030
0000
,
2000
0000
3001
0000
0001
1000
0000
1000
,
0010
0100
0001
0000
0020
0000
0130
0000
,
2000
3100
0010
0001
,
1000
0001
1000
0000
0020
0000
0130
0000
,
0002
0000
1003
0000
0100
1000
0000
1000
,
0100
0010
0001
0000
1001
0000
1000
0000
,
0010
1000
0010
0000
0100
0000
0001
0000
,
1000
0010
1010
1000
,
0001
0100
0001
0000
0010
0000
0100
0000
,
1000
0100
0110
0010
,
0001
1000
0001
0000
0010
0000
0100
0000
,
1000
0001
1001
1000
,
0001
0010
0001
0000
1000
0000
0010
0000
,
1000
0001
1000
0001
2000
0000
3100
0000
,
0002
0103
1000
0001
,
0010
0010
0001
0000
0200
0000
0310
0000
,
0020
0000
1030
0000
1000
0001
0000
0001
,
0010
0100
1000
0000
0020
0000
1030
0000
,
2000
3001
0010
0001
,
1000
1000
0010
0000
2000
0000
3001
0000
,
0002
0000
0013
0000
0100
0000
1000
0001
,
1000
1001
0010
0100
,
0010
0001
1000
0010
,
1000
0100
0010
0000
0001
0000
0100
0000
,
0001
1000
0010
0100
,
0010
1000
0010
0000
1000
0000
0100
0000
,
0010
0001
1000
0001
,
0100
0001
0100
0000
0010
0000
1000
0000
,
0100
0000
0010
0000
0001
1000
0000
1000
,
0010
0100
0001
0000
0010
0000
0000
0010
,
0000
0001
1000
0001
,
0100
0000
0010
0000
1000
0000
0000
0001
,
0000
0001
0010
0001
,
0100
0000
0010
0000
0100
0000
0000
0001
,
0000
0100
0010
1000
,
0100
0010
0001
1000
,
0010
1000
0001
0100
,
0001
0010
0100
1000
0001
0000
1001
0000
,
1000
1001
0001
0010
,
0001
1000
0001
0000
0100
0000
0110
0000
,
0010
0000
0110
0000
0100
0001
0000
0001
,
0010
0100
1000
0000
0010
0000
1010
0000
,
0100
0101
0001
1000
,
0010
0100
0010
0000
1000
0000
1100
0000
,
0001
0000
0011
0000
0010
0001
0000
0001
,
0010
0100
1000
0000
0010
0000
1000
0000
,
0001
1000
0001
0000
0010
0000
0100
0000
,
1000
0010
1000
0001
,
0100
0010
0100
0000
0001
0000
0010
0000
,
0100
1000
0010
1000
,
0001
1000
0001
0000
0010
0000
0100
0000
,
0010
0001
0100
0010
,
1000
0001
1000
0000
0010
0000
1000
0000
,
0001
0010
0100
1000
0001
0000
0000
0000
;

//---------------dance-single - ----------------
#NOTEDATA:;
#CHARTNAME:;
#STEPSTYPE:dance-single;
#DESCRIPTION:;
#CHARTSTYLE:;
#DIFFICULTY:Medium;
#METER:11;
#RADARVALUES:0.454286,0.421806,0.101274,0.054013,0.168790,471.000000,456.000000,15.000000,8.000000,0.000000,0.000000,0.000000,0.000000,0.000000,0.454286,0.421806,0.101274,0.054013,0.168790,471.000000,456.000000,15.000000,8.000000,0.000000,0.000000,0.000000,0.000000,0.000000;
#CREDIT:Daniel Van Eden;
#NOTES:
0000
0000
0000
0000
,
0000
0000
0000
0000
,
0000
0000
0000
0000
,
0000
0000
0000
0000
,
0000
0000
0000
0000
,
0000
0000
0000
0000
1000
1000
0001
0010
,
0001
0000
0001
0000
0000
1000
0000
0000
0020
0000
0000
0000
0030
0000
0000
0000
,
0020
0000
0030
0000
0100
0100
0001
0010
,
0100
0000
0100
0000
0000
0010
0000
0000
0001
0000
0010
0000
0000
0000
0001
0000
,
0100
0010
1000
0001
0100
0001
0100
0020
,
0000
1030
0001
1000
0100
0010
0001
0000
,
0100
0010
1000
0000
0010
1000
0010
0200
,
0000
0301
1000
0001
0010
0100
1000
0000
,
0010
1000
0100
0010
0001
1000
0001
0200
,
0000
0310
1000
0001
0010
0100
1000
0000
,
0100
0010
0100
0010
0001
1000
1000
0001
,
0100
0010
0100
0001
0010
0100
0010
0100
,
1000
0100
0010
0001
0100
0100
0001
0000
,
0001
0000
0001
0000
1000
0010
0000
0000
1000
0000
0000
0000
0011
0000
0000
0000
,
0010
0100
1001
0000
0100
0100
1000
0000
,
1000
0000
1000
0000
0001
0010
0000
0000
0001
0000
0000
0000
0101
0000
0100
0000
,
0110
0000
1010
0000
1000
1000
0010
0000
,
0100
0000
0100
0000
0010
1000
0000
0000
0001
0000
0000
0000
0011
0000
0000
0000
,
0010
0100
1001
0000
0001
0001
0010
0000
,
0100
0000
0100
0000
0010
0001
0000
0000
1000
0000
0000
0000
1010
0000
0010
0000
,
0110
0000
0000
0000
0101
0000
0000
0000
0001
0000
0000
1000
0000
0001
0000
0000
,
1000
0000
0100
0000
0010
0000
0000
0000
0001
0000
0000
1000
0000
0001
0000
0000
,
1000
0000
0100
0000
0010
0000
0001
0000
1000
0000
0000
0001
0000
1000
0000
0000
,
0001
0000
0100
0000
0010
0000
0000
0000
1000
0000
0000
0001
0000
1000
0000
0000
,
0001
0000
0100
0000
1000
0000
0100
0000
0001
0000
0000
0010
0000
0100
0000
0000
,
0010
0000
0001
0000
1000
0000
0000
0000
0001
0000
0000
0010
0000
0100
0000
0000
,
0010
0000
0001
0000
0100
0000
0010
0000
1000
0000
0000
0010
0000
0100
0000
0000
,
0010
0000
1000
0000
0100
0000
0010
0000
0001
0000
0000
1000
0000
0001
0000
0000
,
0010
0001
0100
0010
1000
1000
0010
0100
,
0001
0000
0001
0000
0010
0100
0000
0000
0010
0000
0000
0000
0011
0000
0000
0000
,
0001
1000
1001
0000
0001
0001
0010
0100
,
1000
0000
1000
0000
0010
0100
0000
0000
0010
0000
1000
0000
0000
0000
1000
0000
,
0100
0010
0001
1000
0010
0010
1000
0100
,
0010
0000
0010
0000
0001
0100
0000
0000
0010
0000
0000
0000
1010
0000
0000
0000
,
1000
0001
1001
0000
0010
0010
0001
0100
,
0010
0000
0010
0000
1000
0100
0000
0000
0010
0000
0001
0000
0010
0000
0100
0000
,
1000
0000
0000
0000
1001
0000
0000
0000
0001
0000
0000
1000
0000
0000
0000
0000
,
0010
1000
0100
0000
0010
0001
1000
0000
,
0001
0000
0100
0000
0010
0000
1000
0000
0001
0000
0000
1000
0000
0000
0000
0000
,
0100
0010
0001
0000
0100
0010
1000
0000
,
0001
0000
0010
0000
0001
0000
0100
0000
0010
0000
0000
1000
0000
0000
0000
0000
,
0001
1000
0100
0000
1000
0001
0100
0000
,
0010
0000
0100
0000
0001
0000
0010
0000
0100
0000
0000
1000
0000
0000
0000
0000
,
0100
0010
0001
1000
0010
0100
0000
0100
,
0010
1000
0100
0010
0001
1000
0001
0020
,
0000
0130
1000
0000
0001
1000
0010
0000
,
1000
0001
0010
0000
1000
0001
1000
0020
,
0000
1030
0100
0000
0010
0001
0100
0000
,
0010
0100
0001
1000
0010
0100
0010
2000
,
0000
3001
0010
0100
1000
0001
0010
0000
,
0001
1000
0010
0100
0010
1000
1000
0001
,
1000
0100
0010
0001
0100
0010
0100
0010
,
1000
0100
0010
0001
1000
1000
0010
0100
,
0001
0000
0001
0000
1000
0001
0000
0000
0010
0000
0100
0000
1000
0000
0100
0000
,
0010
0100
1000
0010
0100
0100
0001
0010
,
0100
0000
0100
0000
1000
0010
0000
0000
1000
0000
0001
0000
0000
0000
0001
0000
,
0010
0001
0100
0010
1000
1000
0100
0010
,
0001
0000
0001
0000
0010
0100
0000
0000
0010
0000
0001
0000
0100
0000
0001
0000
,
0010
0100
1000
0100
0010
0010
0001
0100
,
0010
0000
0010
0000
1000
0100
0000
0000
0010
0000
0001
0000
0000
0000
0001
0000
,
0100
0000
0010
0000
1000
0000
0001
0000
0010
0000
0000
0100
0000
0100
0000
0000
,
0010
0000
0001
0000
1000
0000
0000
0000
0010
0000
0000
0100
0000
0100
0000
0000
,
0010
0000
1000
0000
0001
0000
0010
0000
0100
0000
0000
0010
0000
0010
0000
0000
,
0001
0000
1000
0000
0010
0000
0000
0000
0100
0000
0000
0010
0000
0010
0000
0000
,
1000
0000
0100
0000
0001
0000
0100
0000
1000
0000
0000
0001
0000
0001
0000
0000
,
0010
0000
0100
0000
1000
0000
0000
0000
0001
0000
0000
1000
0000
1000
0000
0000
,
0001
0000
0100
0000
0010
0000
1000
0000
0010
0000
0000
0100
0000
0100
0000
0000
,
0001
0000
0010
0000
0100
0000
1000
0000
0001
0000
0000
1000
0000
0001
0000
0000
,
0010
0001
0100
0010
1000
0000
0000
0000
;

//---------------dance-single - ----------------
#NOTEDATA:;
#CHARTNAME:;
#STEPSTYPE:dance-single;
#DESCRIPTION:;
#CHARTSTYLE:;
#DIFFICULTY:Hard;
#METER:15;
#RADARVALUES:0.815015,0.793988,0.175542,0.060764,1.124142,845.000000,819.000000,26.000000,9.000000,0.000000,0.000000,0.000000,0.000000,0.000000,0.815015,0.793988,0.175542,0.060764,1.124142,845.000000,819.000000,26.000000,9.000000,0.000000,0.000000,0.000000,0.000000,0.000000;
#CREDIT:Daniel Van Eden;
#NOTES:
// measure 0
0000
0000
0000
0000
,  // measure 1
0000
0000
0000
0000
,  // measure 2
0000
0000
0000
0000
,  // measure 3
0000
0000
0000
0000
,  // measure 4
0000
0000
0000
0000
0000
0000
0000
0000
0000
0000
0010
0000
0000
0000
0010
1000
,  // measure 5
0100
0000
1000
0010
0100
0000
0001
0000
1000
0000
1000
0000
0001
0000
0010
0000
,  // measure 6
0001
0000
0001
0000
1000
0020
0000
0000
1030
0000
0000
0000
1010
0000
0010
0000
,  // measure 7
1000
0000
0000
0001
0000
0000
0101
0000
0000
0100
0001
1000
0001
0000
0000
0001
0000
0000
1000
0000
0000
0010
0000
0000
,  // measure 8
1000
0000
1000
0000
0001
0020
0000
0000
0031
0000
0100
0000
0000
0000
0100
0001
,  // measure 9
0010
0000
0100
0010
0001
0000
1000
0000
0100
1000
1000
0001
1000
0000
0020
0000
,  // measure 10
0000
0000
0130
0000
0001
0000
1000
0000
0010
1000
0001
1000
0010
0000
0000
1000
,  // measure 11
0010
0100
0001
0010
0100
0000
1000
0100
0010
0001
0001
1000
0001
0000
0200
0000
,  // measure 12
0000
0000
0310
0000
1000
0000
0001
0000
1000
0100
0010
0001
0010
0000
0000
0100
,  // measure 13
0010
0001
0100
0001
1000
0010
0100
0001
0010
0010
0100
1000
0100
0000
2000
0000
,  // measure 14
0000
0000
3010
0000
0100
0000
0001
0000
0100
0001
1000
0100
0010
0000
0000
0010
,  // measure 15
0100
1000
0010
0000
0100
0001
1000
0100
0010
0100
0100
1000
0100
0000
1000
0010
,  // measure 16
0100
0001
0010
0000
0100
0000
0010
0001
0010
0100
1000
0010
0100
0001
0010
0100
,  // measure 17
0010
0001
1000
0100
0010
0100
1000
0001
0010
0000
0010
0000
0001
1000
0100
1000
,  // measure 18
0010
0000
0010
0000
1000
0100
0000
0000
1010
0000
0000
0000
0010
0000
1000
0000
,  // measure 19
1001
0000
1000
0010
0100
0001
0010
0000
0100
0000
0100
0000
1000
0001
0100
0001
,  // measure 20
0010
0000
0010
0000
0001
1000
0000
0000
1100
0000
1000
0000
1001
0000
0001
0010
,  // measure 21
0100
0000
1000
0100
0010
0000
0001
0000
1001
0000
1000
0000
0001
0010
0100
0010
,  // measure 22
0001
0000
0001
0000
0100
0001
0000
0000
1010
0000
0000
0000
0010
1000
0001
1000
,  // measure 23
0010
0000
1000
0100
0010
0001
0100
0000
0001
0000
0001
0000
1000
0100
0010
0100
,  // measure 24
1000
0000
1000
0000
0001
0100
0000
0000
0101
0000
0001
0000
1001
0000
1000
0100
,  // measure 25
0010
0000
0001
0010
0100
0000
1000
0000
1001
0000
0001
1000
0000
0100
0000
1000
,  // measure 26
0010
0100
0001
0000
1001
0000
1000
0010
1000
0000
0001
0010
0000
0100
0000
0010
,  // measure 27
0001
1000
0100
0000
1100
0000
1000
0000
0010
0100
0010
1000
0000
0100
0000
1000
,  // measure 28
0010
0000
0000
0100
0000
0000
0001
0000
0000
0000
0000
0000
0010
0000
0001
0000
1000
0000
0100
0000
0000
1000
0000
0000
0010
0000
0000
0000
0000
0000
1000
0000
0000
0010
0000
0000
0000
0000
0000
0100
0000
0000
0000
0000
0000
0001
0000
0000
,  // measure 29
0010
0001
0100
0010
1000
0001
0100
0010
1000
0000
0001
0010
0000
0100
0000
0010
,  // measure 30
0001
1000
0001
0000
1001
0000
1000
0100
0010
0000
0100
1000
0000
0100
0000
0010
,  // measure 31
0001
1000
0100
0000
1100
0000
1000
0000
0010
0100
0001
1000
0000
0001
0000
1000
,  // measure 32
0010
0000
0000
0100
0000
0000
0001
0000
0000
0000
0000
0000
0100
0000
0001
0000
1000
0000
0010
0000
0000
1000
0000
0000
0100
0000
0000
0000
0000
0000
0010
0000
0000
0001
0000
0000
0000
0000
0000
1000
0000
0000
0000
0000
0000
0001
0000
0000
,  // measure 33
0010
0100
1000
0001
0010
0001
1000
0100
0010
0000
0010
0000
0100
1000
0010
1000
,  // measure 34
0100
0000
0100
0000
1000
0010
0000
0000
0101
0000
0100
0001
1000
0000
0001
0000
,  // measure 35
0010
0100
1000
0010
0100
0000
0001
0000
0100
0001
1000
0010
0100
0001
0010
0000
,  // measure 36
0001
0010
0001
1000
0010
0100
0000
0000
1010
0000
0100
0000
1001
0000
1000
0100
,  // measure 37
0010
0000
0001
0010
0100
0000
1000
0000
0010
0000
0010
0000
0100
0001
0010
0001
,  // measure 38
0100
0000
0100
0000
0010
1000
0000
0000
1100
0000
0100
1000
0001
0000
0010
0000
,  // measure 39
0001
0100
0010
1000
0100
0000
1000
0000
0100
1000
0001
0010
0100
1000
0010
0000
,  // measure 40
1000
0010
1000
0100
0010
0001
0000
0000
0101
0000
0100
0000
0010
1000
0100
0010
,  // measure 41
0110
0000
0000
0000
1001
0000
0002
0000
1003
0000
0010
1000
0001
0000
0010
0001
,  // measure 42
0100
1000
0100
0001
0010
0100
0000
1000
0010
0100
0001
1000
0010
0100
0001
0100
,  // measure 43
0010
1000
0100
0010
0001
0100
0010
1000
0001
0000
1000
0100
0010
0000
0001
0010
,  // measure 44
0000
0001
1000
0100
1000
0010
0100
0001
0100
0001
0010
0010
0100
1000
0000
0010
,  // measure 45
1000
0001
0100
0001
0010
0100
1000
0001
0100
0000
0010
1000
0001
0000
1000
0010
,  // measure 46
0000
0010
0100
0010
1000
0001
0000
1000
0000
1000
0001
0010
0100
1000
0010
1000
,  // measure 47
0001
0100
0001
0010
0100
0010
0001
0100
0010
0000
0010
1000
0001
0000
1000
0001
,  // measure 48
0100
0001
0010
0100
1000
0000
0001
1000
0001
0010
0001
0000
1000
0000
0001
0010
,  // measure 49
0100
0000
1000
0010
0100
0000
0001
0000
0100
0001
0001
1000
0001
0000
0020
0000
,  // measure 50
0000
0000
0130
0000
1000
0000
0001
0000
0010
0001
1000
0001
0010
0000
0000
0001
,  // measure 51
0010
0100
1000
0010
0100
0000
0001
0100
0010
1000
1000
0001
1000
0000
0200
0000
,  // measure 52
0000
0000
0310
0000
0001
0000
1000
0000
0001
0100
0010
1000
0010
0000
0000
0100
,  // measure 53
0010
1000
0100
1000
0001
0010
0100
1000
0010
0010
0100
0001
0100
0000
0002
0000
,  // measure 54
0000
0000
0013
0000
0100
0000
1000
0000
0100
1000
0001
0100
0010
0000
0000
1000
,  // measure 55
0010
0100
0001
0000
0100
0001
1000
0100
0010
0100
0100
1000
0100
0000
1000
0010
,  // measure 56
0100
0001
0010
0000
0100
0000
0010
0001
0010
0100
1000
0100
0010
0001
0010
0100
,  // measure 57
1000
0010
0100
0001
0010
0001
0100
0010
1000
0001
1000
0000
0001
0010
0100
1000
,  // measure 58
0001
1000
0001
0000
0100
0001
0100
0001
0010
0001
1000
0100
0010
0001
1000
0010
,  // measure 59
0100
0000
0001
0100
0001
0010
0100
1000
0010
0100
0010
0000
1000
0001
0010
0100
,  // measure 60
1000
0000
0001
0000
1000
0000
0100
0000
0010
0000
0001
0000
0100
0000
0001
0000
0010
0000
0000
0000
0001
0000
1000
0000
0100
0000
1000
0000
0010
0100
0010
0100
,  // measure 61
0001
0000
0100
0010
1000
0000
0010
1000
0001
1000
0001
0000
1000
0100
0010
0001
,  // measure 62
1000
0001
1000
0000
0010
1000
0010
1000
0100
1000
0001
0010
0100
1000
0001
0100
,  // measure 63
0010
0000
1000
0010
1000
0100
0010
0001
0100
0010
0100
0000
0001
1000
0100
0010
,  // measure 64
0001
0000
1000
0000
0001
0000
0010
0000
0100
0000
1000
0000
0010
0000
1000
0000
0100
0000
0000
0000
1000
0000
0001
0000
0010
0000
0001
0000
0100
0010
0100
0010
,  // measure 65
1000
0000
0010
0100
0001
0000
1000
0000
0001
0000
1000
0001
0000
0010
0000
0001
,  // measure 66
0100
0010
1000
0000
1001
0000
0001
0100
0001
0000
1000
0100
0000
0010
0000
0100
,  // measure 67
1000
0001
0010
0000
0011
0000
0001
0000
0100
0010
0100
0001
0000
0010
0000
0001
,  // measure 68
0100
0000
0000
0010
0000
0000
1000
0000
0000
0000
0000
0000
0100
0000
1000
0000
0001
0000
0010
0000
0000
0001
0000
0000
0100
0000
0000
0000
0000
0000
0001
0000
0000
0100
0000
0000
0000
0000
0000
0010
0000
0000
0000
0000
0000
1000
0000
0000
,  // measure 69
0100
1000
0010
0100
0001
1000
0010
0100
0001
0000
1000
0100
0000
0010
0000
0100
,  // measure 70
1000
0001
1000
0000
1001
0000
0001
0010
0100
0000
0010
0001
0000
0010
0000
0100
,  // measure 71
1000
0001
0010
0000
0011
0000
0001
0000
0100
0010
1000
0001
0000
1000
0000
0001
,  // measure 72
0100
0000
0000
0010
0000
0000
1000
0000
0000
0000
0000
0000
0010
0000
1000
0000
0001
0000
0100
0000
0000
0001
0000
0000
0010
0000
0000
0000
0000
0000
0100
0000
0000
1000
0000
0000
0000
0000
0000
0001
0000
0000
0000
0000
0000
1000
0000
0000
,  // measure 73
0100
0010
0001
1000
0100
1000
0001
0010
0100
0000
0000
0000
0000
0000
0000
0000
;
