#VERSION:0.83;
#TITLE:Red Dress;
#SUBTITLE:(VIP);
#ARTIST:Srav3R;
#TITLETRANSLIT:;
#SUBTITLETRANSLIT:;
#ARTISTTRANSLIT:;
#GENRE:FUTURE BASS;
#ORIGIN:;
#CREDIT:;
#BANNER:;
#BACKGROUND:;
#PREVIEWVID:;
#JACKET:;
#CDIMAGE:;
#DISCIMAGE:;
#LYRICSPATH:;
#CDTITLE:;
#MUSIC:Red Dress (VIP).ogg;
#OFFSET:-1.000000;
#SAMPLESTART:66.828568;
#SAMPLELENGTH:10.971428;
#SELECTABLE:YES;
#BPMS:0.000=175.000;
#STOPS:;
#DELAYS:;
#WARPS:;
#TIMESIGNATURES:0.000=4=4;
#TICKCOUNTS:0.000=4;
#COMBOS:0.000=1;
#SPEEDS:0.000=1.000=0.000=0;
#SCROLLS:0.000=1.000;
#FAKES:;
#LABELS:0.000=Song Start;
#BGCHANGES:;
#KEYSOUNDS:;
#ATTACKS:
;

//---------------dance-single - ----------------
#NOTEDATA:;
#CHARTNAME:;
#STEPSTYPE:dance-single;
#DESCRIPTION:;
#CHARTSTYLE:;
#DIFFICULTY:Hard;
#METER:12;
#RADARVALUES:0.495596,0.613711,0.383570,0.579616,0.051143,407.000000,362.000000,45.000000,68.000000,0.000000,0.000000,0.000000,0.000000,0.000000,0.495596,0.613711,0.383570,0.579616,0.051143,407.000000,362.000000,45.000000,68.000000,0.000000,0.000000,0.000000,0.000000,0.000000;
#CREDIT:Pandemonium X;
#NOTES:
0000
0000
0000
0000
,
0000
0000
0000
0000
,
0000
0000
0000
0000
,
0000
0000
0000
0000
,
0000
0000
0000
0000
,
0000
0000
0000
0000
,
0000
0000
0000
0000
,
0000
0000
0000
0000
,
1000
0000
0000
0001
0100
0000
0000
0100
,
0001
1000
0001
0000
,
0010
0000
0000
0100
1000
0000
0000
1000
,
0010
0000
0100
0000
0010
0000
1000
0100
,
0010
0000
0000
0100
1000
0000
0000
1000
,
0001
1000
0001
0000
,
0100
0000
0000
0010
0100
0000
0000
0100
,
0010
0000
1000
0000
0100
0000
0010
0001
,
1000
0000
0001
0000
0100
0010
0100
0001
,
0000
1000
0000
0100
0000
0010
0001
1000
,
0000
0000
0001
0000
0100
0001
0010
0100
,
0000
0010
0000
0100
0000
0010
0001
1000
,
0000
0000
0100
0000
0010
0100
1000
0001
,
0000
0100
0000
0001
0000
0010
0100
1000
,
0000
0100
1000
0100
0010
0001
1000
0001
,
0000
0200
0300
0020
0030
0100
0010
1000
,
0001
1010
0001
1010
,
0001
1010
0001
1001
,
1000
0011
1000
0011
,
1000
0011
1000
1001
,
0001
1100
0001
1100
,
0001
1100
0001
1001
,
1000
0101
1000
0101
,
2000
3002
2003
3002
0013
0000
1100
0000
,
0102
0000
0013
0000
0000
0100
0000
0010
,
0001
0000
0100
0010
0100
0100
0010
0100
,
0000
0000
1001
0000
0000
1000
0100
0100
,
1000
0000
0000
0000
0010
0000
0000
0000
0100
0000
0000
0100
0000
0000
0100
0000
,
0001
0000
1000
0000
0100
0010
0001
1000
,
0010
0000
0010
0100
0001
0001
2000
0000
,
3100
0000
1000
1000
0000
0001
0000
0100
,
0010
1000
0010
0001
0010
1000
0001
0000
,
2000
3010
0100
0002
,
0013
0000
0100
0010
0001
0100
1000
0100
,
0020
0130
0001
2000
,
3100
0000
0000
0000
0000
0000
0100
0000
0010
0000
0000
0010
0000
0000
0010
0000
,
0100
0000
0011
0000
0010
0001
1000
0100
,
0000
1000
0000
0010
0000
0100
0010
1000
,
1100
0000
0000
1100
0000
0000
0011
0000
0000
0011
0000
0000
2002
0000
0000
0000
,
0000
0000
0000
3003
0010
0010
0100
0001
,
0000
0000
1200
0000
0310
0100
1000
0020
,
0000
2030
0000
3200
0000
0310
0001
1000
,
0000
0000
0120
0000
1030
0100
1000
0002
,
0000
0023
0000
0031
0000
0100
0001
1000
,
0000
0000
0021
0000
0130
0010
0001
2000
,
0000
3020
0000
0230
0000
0310
1000
0100
,
0000
0010
0100
1000
0001
0100
1000
0200
,
0000
0320
0000
2030
0000
3010
0100
0001
,
2000
3002
0023
0000
0130
0010
0001
2000
,
0000
3002
0000
0203
0000
0310
1000
0100
,
0000
0000
0210
0000
1300
0010
0100
0020
,
0000
0230
0000
0301
0000
0010
0100
1000
,
0000
0000
2001
0000
3100
0010
0100
2000
,
0000
3020
0000
0230
0000
0310
0100
0001
,
1001
0000
0000
0011
0000
0000
1001
0000
0000
1010
0000
0000
2002
0000
0000
0000
,
0000
0000
0000
3003
0100
0100
0010
1000
,
0200
2300
3020
0000
0230
0000
0302
0000
,
0023
0000
0130
0010
0002
0000
1003
0001
,
0200
0000
0302
0000
0203
0000
0310
1000
,
0200
0320
0230
1300
,
0002
0203
0320
0230
,
0302
0000
1003
0001
0020
0000
0130
1000
,
0002
2003
3200
2300
,
3020
0000
0030
0100
0010
1000
0001
0000
,
2100
0000
3001
0000
1000
0001
0101
0000
,
0001
1000
1100
0000
1000
0001
1001
0000
,
0001
1000
1010
0000
1000
0001
0011
0000
,
0001
1000
1010
0000
1000
0001
1001
0000
,
0100
0000
0000
0100
0000
0000
0001
0000
1000
0000
0000
1000
0000
0000
0100
0000
,
0010
0000
0000
0010
0000
0000
0001
0000
1000
0000
0000
1000
0000
0000
0001
0000
,
0101
0000
0000
0100
0000
0000
0010
0000
1010
0000
0000
1000
0000
0000
0001
0000
,
1001
0000
0000
0001
0100
1000
0001
0000
,
1001
0000
0000
0000
;

//---------------dance-single - ----------------
#NOTEDATA:;
#CHARTNAME:;
#STEPSTYPE:dance-single;
#DESCRIPTION:;
#CHARTSTYLE:;
#DIFFICULTY:Medium;
#METER:9;
#RADARVALUES:0.432277,0.545521,0.400617,0.059666,0.042619,355.000000,308.000000,47.000000,7.000000,0.000000,0.000000,0.000000,0.000000,0.000000,0.432277,0.545521,0.400617,0.059666,0.042619,355.000000,308.000000,47.000000,7.000000,0.000000,0.000000,0.000000,0.000000,0.000000;
#CREDIT:Pandemonium X;
#NOTES:
0000
0000
0000
0000
,
0000
0000
0000
0000
,
0000
0000
0000
0000
,
0000
0000
0000
0000
,
0000
0000
0000
0000
,
0000
0000
0000
0000
,
0000
0000
0000
0000
,
0000
0000
0000
0000
,
1000
0000
0010
0000
,
0100
0001
0101
0000
,
0001
0000
1000
0000
,
0010
1000
1010
0000
,
1000
0000
0100
0000
,
0010
0100
1001
0000
,
0001
0000
0100
0000
,
0010
0100
1001
0000
,
0101
0020
1030
0100
,
0010
0100
1000
0001
,
0000
2000
3010
0100
,
0001
0010
0100
0010
,
0000
0200
1300
0100
,
1000
0010
0100
0001
,
0000
1000
0100
0010
,
0100
1000
0010
0100
,
0001
1001
0000
0110
,
0000
1001
0000
1010
,
0000
1001
0000
0110
,
0000
1001
0000
0011
,
0100
1001
0010
0110
,
1000
1001
0001
1010
,
1001
0010
1001
0100
,
0001
0010
0001
0010
0200
0000
1300
0000
,
1001
0000
0101
0000
0000
0001
0000
0001
,
1000
0000
0010
1000
0000
0010
0100
0000
,
0010
0000
1000
0000
0000
0100
0000
0010
,
0100
0000
0000
0000
0010
0000
0000
0000
0001
0000
0000
0100
0000
0000
0010
0000
,
1000
0000
0011
0000
0000
0001
0000
0100
,
0010
0000
1000
0001
0000
0010
0100
0000
,
0010
0001
0100
0010
,
1000
0001
1000
0001
1000
0001
1000
0000
,
0101
0011
0010
0110
,
1100
0000
0100
0000
0010
0100
1000
0010
,
0110
0101
0001
0011
,
1100
0000
0000
0000
0100
0000
0000
0000
0010
0000
0000
0100
0000
0000
1000
0000
,
1001
0110
1000
1010
,
0101
0000
0001
0000
0010
0001
0100
0010
,
1000
0000
0000
1000
0000
0000
0001
0000
0000
0001
0000
0000
0020
0000
0000
0000
,
0000
0000
0000
0000
0130
1000
0001
0100
,
0000
0000
0010
0000
1000
0010
0100
0001
,
0000
0010
0000
0100
0000
0010
0001
1000
,
0000
0000
0001
0000
1000
0100
0010
0001
,
0000
0010
0000
0001
0000
0010
0100
1000
,
0000
0000
0001
0000
0100
0010
1000
0100
,
0000
1000
0000
0010
0000
0100
0001
0010
,
0000
0100
0010
0001
0100
0010
1000
0001
,
0000
1000
0000
0010
0000
1000
0010
0100
,
0000
0000
1001
0000
0001
1000
0010
1000
,
0000
0010
0000
0100
0000
0001
0010
0001
,
0000
0000
0010
0000
0100
0010
0001
1000
,
0000
0001
0000
0100
0000
0001
0100
0010
,
0000
0000
0100
0000
0010
1000
0100
0010
,
0000
0100
0000
0010
0000
0100
1000
0010
,
0100
0000
0000
0001
0000
0000
0010
0000
0000
0001
0000
0000
2000
0000
0000
0000
,
0000
0000
0000
0000
3100
0010
0001
0010
,
0000
1100
0100
1000
,
0010
0000
0100
0001
0010
0000
0010
0100
,
1000
0100
1000
0010
,
0100
0000
0100
0000
0100
0000
0010
1000
,
0001
0010
0100
0010
,
0001
0000
1000
0001
0100
0000
0001
0010
,
0100
0010
0001
1000
,
0010
0000
0000
0100
0010
1000
0001
0000
,
2000
3100
0100
0011
,
0001
0101
0100
1001
,
0001
0110
1000
0110
,
0001
0000
0000
0001
0000
0000
0001
0000
1000
0000
0000
0010
0000
0000
1000
0000
,
0100
1100
0010
0110
,
1000
1001
0001
0110
,
0100
0000
0000
0010
0000
0000
1000
0000
0001
0000
0000
0010
0000
0000
0100
0000
,
1100
0000
0000
0100
0010
0001
1000
0000
,
0110
0000
0000
0000
;

//---------------dance-single - ----------------
#NOTEDATA:;
#CHARTNAME:;
#STEPSTYPE:dance-single;
#DESCRIPTION:;
#CHARTSTYLE:;
#DIFFICULTY:Easy;
#METER:6;
#RADARVALUES:0.281284,0.375046,0.076714,0.102285,0.000000,231.000000,222.000000,9.000000,12.000000,0.000000,0.000000,0.000000,0.000000,0.000000,0.281284,0.375046,0.076714,0.102285,0.000000,231.000000,222.000000,9.000000,12.000000,0.000000,0.000000,0.000000,0.000000,0.000000;
#CREDIT:Pandemonium X;
#NOTES:
0000
0000
0000
0000
,
0000
0000
0000
0000
,
0000
0000
0000
0000
,
0000
0000
0000
0000
,
0000
0000
0000
0000
,
0000
0000
0000
0000
,
0000
0000
0000
0000
,
0000
0000
0000
0000
,
1000
0000
0100
0000
,
0010
0100
0010
0000
,
0100
0000
0010
0000
,
0001
0100
0001
0000
,
0100
0000
0010
0000
,
1000
0001
1000
0000
,
0001
0000
0010
0000
,
0100
1000
0100
0000
,
0000
1000
0001
0100
,
0001
0010
0100
0010
,
0000
0100
1000
0010
,
0100
0001
0010
0100
,
0000
0010
0001
0100
,
0001
1000
0100
0010
,
0000
0100
0010
0001
,
1000
0001
0100
0010
,
0000
0001
0000
0001
,
0000
0001
0000
1010
,
0000
1000
0000
1000
,
0000
1000
0000
0011
,
0000
0001
0000
0001
,
0000
0001
0000
1100
,
1000
0010
0100
0001
,
2000
0000
0000
3000
,
0001
1000
0000
0010
,
1000
0000
0100
0100
,
0000
0010
0000
0100
,
1000
0000
0010
0000
,
0100
0001
0000
0010
,
0100
0000
0010
0001
,
0000
1000
0001
0100
,
0020
0000
0000
0030
,
0100
0001
0000
0010
,
0100
0000
0010
0001
,
1000
0100
0000
0010
,
0100
0000
1001
0000
,
0000
0020
0130
0001
,
1000
0100
0010
0100
,
2000
0000
0000
0000
,
0000
0000
3001
1000
,
0000
0020
1030
0010
,
0100
0001
0010
0100
,
0000
0020
0130
0010
,
0001
1000
0001
0100
,
0000
0002
0013
0100
,
0010
0001
1000
0010
,
0100
1000
0100
0001
,
1000
0001
0100
0010
,
0000
2000
3100
1000
,
0010
0100
0001
0010
,
0000
0200
0310
0100
,
1000
0010
0100
0001
,
0000
2000
3100
1000
,
0010
0100
0001
0010
,
0200
0000
0000
0000
,
0000
0000
0310
0100
,
0001
1001
0010
1000
,
0010
0100
0001
0010
,
0100
0010
0001
1000
,
0010
0100
0001
1000
,
0100
1000
0010
0100
,
0001
0010
0100
0010
,
0001
1000
0010
0100
,
0001
0000
1000
1000
,
0002
0103
0001
0010
,
0001
0100
0001
1001
,
1000
0100
0010
0100
,
1000
0001
1000
0110
,
0001
1000
0010
1000
,
0001
0100
0010
1001
,
0001
0010
0100
1000
,
0100
0000
1000
0001
,
0110
0000
0000
0000
;

//---------------dance-single - ----------------
#NOTEDATA:;
#CHARTNAME:;
#STEPSTYPE:dance-single;
#DESCRIPTION:;
#CHARTSTYLE:;
#DIFFICULTY:Beginner;
#METER:2;
#RADARVALUES:0.108374,0.272761,0.059666,0.000000,0.000000,89.000000,82.000000,7.000000,0.000000,0.000000,0.000000,0.000000,0.000000,0.000000,0.108374,0.272761,0.059666,0.000000,0.000000,89.000000,82.000000,7.000000,0.000000,0.000000,0.000000,0.000000,0.000000,0.000000;
#CREDIT:Pandemonium X;
#NOTES:
// measure 0
0000
0000
0000
0000
,  // measure 1
0000
0000
0000
0000
,  // measure 2
0000
0000
0000
0000
,  // measure 3
0000
0000
0000
0000
,  // measure 4
0000
0000
0000
0000
,  // measure 5
0000
0000
0000
0000
,  // measure 6
0000
0000
0000
0000
,  // measure 7
0000
0000
0000
0000
,  // measure 8
1000
0000
0000
0000
,  // measure 9
0000
0000
0000
0000
,  // measure 10
0001
0000
0000
0000
,  // measure 11
0000
0000
0000
0000
,  // measure 12
0100
0000
0000
0000
,  // measure 13
0000
0000
0000
0000
,  // measure 14
0010
0000
0000
0000
,  // measure 15
0000
0000
0000
0000
,  // measure 16
1000
0000
0000
0000
,  // measure 17
0000
0000
0000
0000
,  // measure 18
0100
0000
0000
0000
,  // measure 19
0000
0000
0000
0000
,  // measure 20
1000
0000
0000
0000
,  // measure 21
0000
0000
0000
0000
,  // measure 22
0001
0000
0000
0000
,  // measure 23
0100
0000
0000
0000
,  // measure 24
0010
0000
0000
0000
,  // measure 25
1000
0000
0000
0000
,  // measure 26
0001
0000
0000
0000
,  // measure 27
0010
0000
0000
0000
,  // measure 28
0100
0000
0000
0000
,  // measure 29
0010
0000
0000
0000
,  // measure 30
0001
0000
1000
0000
,  // measure 31
0110
0000
0000
0000
,  // measure 32
0100
0000
0000
0000
,  // measure 33
0010
0000
0000
0000
,  // measure 34
1000
0000
0000
0000
,  // measure 35
0001
0000
0000
0000
,  // measure 36
0100
0000
0000
0000
,  // measure 37
0010
0000
0000
0000
,  // measure 38
1000
0000
0000
0000
,  // measure 39
0100
0000
0000
0000
,  // measure 40
1000
1000
0000
1000
,  // measure 41
1000
0000
1001
0000
,  // measure 42
0001
0001
0000
0001
,  // measure 43
0001
0000
0110
0000
,  // measure 44
0000
0010
0010
0000
,  // measure 45
0100
0000
0000
0000
,  // measure 46
1001
0000
0000
0000
,  // measure 47
0000
0000
1000
1000
,  // measure 48
0000
0001
0000
0000
,  // measure 49
0000
0000
0000
0000
,  // measure 50
0000
0100
0000
0000
,  // measure 51
0000
0000
0000
0010
,  // measure 52
0000
1000
0000
0000
,  // measure 53
0000
0000
0000
0001
,  // measure 54
1000
0000
0000
0000
,  // measure 55
0001
0000
1000
0000
,  // measure 56
0000
0010
0000
0000
,  // measure 57
0100
0000
0000
0000
,  // measure 58
0000
0001
0000
0000
,  // measure 59
1000
0000
0000
0000
,  // measure 60
0100
1000
0000
0000
,  // measure 61
0010
0000
0000
0000
,  // measure 62
0110
0000
0000
0000
,  // measure 63
0000
0000
0010
0010
,  // measure 64
0000
0100
0000
0000
,  // measure 65
0010
0000
0000
0000
,  // measure 66
1000
0000
0000
0000
,  // measure 67
0001
0000
0000
0000
,  // measure 68
0010
0000
0000
0000
,  // measure 69
0001
0000
0000
0000
,  // measure 70
0100
0000
0000
0000
,  // measure 71
0010
0000
1000
0000
,  // measure 72
0001
1001
0000
0000
,  // measure 73
1000
0000
0000
0000
,  // measure 74
0001
0000
0000
0000
,  // measure 75
0010
0000
0000
0000
,  // measure 76
0100
0000
0000
0000
,  // measure 77
0010
0000
0000
0000
,  // measure 78
0001
0000
1000
0000
,  // measure 79
0010
0000
0100
0100
,  // measure 80
1001
0000
0000
0000
;
