#VERSION:0.83;
#TITLE:Overnight Celebrity;
#SUBTITLE:;
#ARTIST:Twista;
#TITLETRANSLIT:;
#SUBTITLETRANSLIT:;
#ARTISTTRANSLIT:;
#GENRE:;
#ORIGIN:;
#CREDIT:;
#BANNER:Overnight Celebrity.png;
#BACKGROUND:Overnight Celebrity-bg.png;
#PREVIEWVID:;
#JACKET:Overnight Celebrity-jacket.png;
#CDIMAGE:;
#DISCIMAGE:;
#LYRICSPATH:;
#CDTITLE:;
#MUSIC:Overnight Celebrity.ogg;
#OFFSET:-0.605000;
#SAMPLESTART:32.119949;
#SAMPLELENGTH:14.529575;
#SELECTABLE:YES;
#BPMS:0.000=67.104,
36.000=134.209,
196.000=67.104,
226.000=134.209;
#STOPS:226.000=1.341;
#DELAYS:;
#WARPS:;
#TIMESIGNATURES:0.000=4=4;
#TICKCOUNTS:0.000=4;
#COMBOS:0.000=1;
#SPEEDS:0.000=1.000=0.000=0;
#SCROLLS:0.000=1.000;
#FAKES:;
#LABELS:0.000=Song Start;
#BGCHANGES:;
#KEYSOUNDS:;
#ATTACKS:
;

//---------------dance-single - ----------------
#NOTEDATA:;
#CHARTNAME:;
#STEPSTYPE:dance-single;
#DESCRIPTION:;
#CHARTSTYLE:;
#DIFFICULTY:Challenge;
#METER:16;
#RADARVALUES:0.713236,1.007887,0.270972,0.386134,0.856947,737.000000,697.000000,40.000000,57.000000,1.000000,0.000000,0.000000,0.000000,0.000000,0.713236,1.007887,0.270972,0.386134,0.856947,737.000000,697.000000,40.000000,57.000000,1.000000,0.000000,0.000000,0.000000,0.000000;
#CREDIT:;
#NOTES:
// measure 0
0000
0000
0000
0000
,  // measure 1
0000
0000
0000
0000
,  // measure 2
1000
0001
0010
0100
1000
0010
0200
0000
0000
0300
0100
0001
,  // measure 3
0010
0000
0010
0100
1000
0010
0100
0000
0100
0001
0000
0001
1000
0000
0000
0000
0000
0000
1001
0000
0000
0000
0000
0000
,  // measure 4
0001
1000
0100
0010
0001
0100
0020
0000
0000
0100
0000
0000
,  // measure 5
0130
0000
0100
0001
0000
0001
1000
0000
0000
0000
0000
0000
0011
0000
0100
0000
0100
0000
0011
0000
0100
0000
0100
0000
,  // measure 6
0011
0100
0100
0011
0100
0100
0010
0001
1000
1001
0000
0000
,  // measure 7
0110
0110
0110
0110
0110
0110
0110
0110
0110
0101
0101
0101
,  // measure 8
0101
0000
0101
0000
0101
0000
0101
0000
0100
0001
0100
0001
0100
0001
0100
0001
0100
0001
0010
0000
0100
0000
1000
0000
,  // measure 9
0001
0000
0100
0000
0010
0100
0010
0000
0100
0000
0002
0000
0023
0000
0230
0000
,  // measure 10
0302
2003
3020
0230
2300
3002
0203
0320
,  // measure 11
0130
0000
0001
0000
1000
0000
0100
0000
0001
0000
0100
0000
1000
0000
0010
0100
,  // measure 12
0010
0000
0100
0010
1000
0001
0010
0100
1000
0000
0001
0000
1000
0000
0000
0000
,  // measure 13
0000
0000
0010
0100
0010
0000
0100
0000
0001
0000
2000
0000
3200
0000
0320
0000
,  // measure 14
2030
3002
0203
0320
0032
2003
3020
0230
,  // measure 15
0310
0000
1000
0000
0001
0000
0010
0000
1000
0000
0010
0000
0001
0000
0100
0010
,  // measure 16
0100
0000
0010
0100
0001
0010
0100
1000
0002
0000
0000
0000
0000
0000
1003
0001
,  // measure 17
1000
0000
0010
1000
0001
0100
0010
1000
0001
0010
0100
1000
0001
0000
0001
0000
,  // measure 18
0001
0010
0100
1000
0010
0100
0001
1000
0100
0000
0100
1000
0000
1000
0100
0000
,  // measure 19
1000
0000
1000
0100
0010
0100
1000
0010
0100
0000
0100
0000
0100
0000
0100
0000
,  // measure 20
0100
0010
1000
0010
0100
0001
1000
0001
0010
0000
0010
0001
0000
0001
0010
0000
,  // measure 21
0001
0000
0001
0000
0010
0100
1000
0010
0100
0000
0100
0000
0100
0000
0100
0000
,  // measure 22
0100
0010
1000
0100
0010
0001
0100
0010
1000
0000
1000
0010
0000
0010
1000
0000
,  // measure 23
0010
1000
0001
1000
0100
1000
0100
1000
0001
1000
0010
1000
0001
1000
0100
0000
,  // measure 24
0010
0001
1000
0001
0100
0001
0100
0001
1000
0001
0010
0001
1000
0001
0100
0000
,  // measure 25
0010
0100
0001
0010
0100
0000
1000
0100
0010
0001
1000
0100
0010
0000
0010
0000
,  // measure 26
0010
0100
1000
0001
0100
0010
1000
0001
0100
0000
0001
0100
0010
0000
0110
0000
,  // measure 27
0000
0000
0001
1000
0100
0010
0001
1000
0100
0000
0010
0100
1000
0001
0100
0010
,  // measure 28
1000
0001
0010
0100
1100
0000
0101
0000
1100
0000
0001
0100
0101
0000
1100
0000
,  // measure 29
0000
0000
0001
0010
0100
1000
0010
0100
0001
0000
0010
0100
1000
0100
0010
0001
,  // measure 30
0100
0010
1000
0000
0001
0100
0010
0100
0101
0000
0101
0000
0101
0000
0101
0000
,  // measure 31
0010
0100
0001
1000
0100
0010
0100
1000
0100
0010
0001
1000
0010
1000
0001
0000
,  // measure 32
0010
0100
1000
0001
0100
0010
0100
0001
0100
0010
0000
0100
0000
0001
1000
0000
,  // measure 33
0001
0000
1000
0100
0010
0100
1000
0001
0100
0010
0100
0000
0100
0000
0100
0000
,  // measure 34
0100
0000
0001
0100
0010
0100
0001
1000
0100
0010
0100
1000
0000
1000
0100
0000
,  // measure 35
1000
0000
0010
0100
0001
1000
0001
0010
0000
10M0
0001
0010
0100
0000
1000
0000
,  // measure 36
0010
0100
0001
0100
0010
1000
0100
0010
0001
0010
0100
1000
0000
1000
0100
0000
,  // measure 37
1000
0000
0001
0100
0010
1000
0001
0010
0100
0000
1000
0000
1000
0000
1000
0000
,  // measure 38
1000
0100
0010
0001
1000
0000
1000
0010
0100
0000
0010
0100
0000
0100
0010
0000
,  // measure 39
1000
0000
0010
0000
0100
0001
1000
0100
0010
0000
0100
0010
0000
0010
0100
0010
,  // measure 40
0100
0000
0010
0100
1000
0010
0100
0001
1000
0000
0001
0000
1000
0000
0000
0000
,  // measure 41
1000
0000
0010
0000
0100
0010
0100
0000
0010
0000
2000
0000
3200
0000
0320
0000
,  // measure 42
2030
3002
0203
0320
0032
2003
3020
0230
,  // measure 43
0310
0000
1000
0000
0001
0000
0010
0000
1000
0000
0010
0000
0001
0000
0100
0010
,  // measure 44
0100
0000
0010
0100
0001
1000
0100
0010
0001
0000
1000
0000
0001
0000
0000
0000
,  // measure 45
0000
0000
0100
0010
0100
0000
0010
0000
1000
0000
0002
0000
0023
0000
0230
0000
,  // measure 46
0302
2003
3020
0230
2300
3002
0203
0320
,  // measure 47
0130
0000
0001
0000
1000
0000
0100
0000
0001
0000
0100
0000
1000
0000
0010
0100
,  // measure 48
0010
0000
0010
0000
0010
0000
0010
0000
0010
0100
0010
0100
,  // measure 49
0102
1000
0010
0000
0023
0100
0001
0100
,  // measure 50
0032
0000
0000
0010
0000
0000
1003
0000
0001
1000
0100
0010
1001
0000
0001
0100
0000
0000
1001
0000
1000
0100
0000
0000
,  // measure 51
2100
0001
0010
0000
3020
0100
1000
0100
,  // measure 52
1030
0000
0000
0000
0001
0000
0010
0000
0100
0000
0010
0000
0100
0000
0010
0000
0100
0000
0010
0000
0100
0000
0010
0000
0100
0000
0010
0000
0000
0000
0010
0000
0000
0000
0001
0000
0000
0000
0001
0000
1000
0000
0001
0000
0000
0001
0000
0000
,  // measure 53
2000
0001
0010
0000
3020
0100
1000
0100
,  // measure 54
2030
0000
0000
0010
0000
0000
3001
0000
1000
0001
0010
0100
1001
0000
1000
0100
0000
0000
1001
0000
0001
0100
0000
0000
,  // measure 55
0102
1000
0010
0000
0023
0100
0001
0100
,  // measure 56
0031
0000
0000
0000
0010
0000
0100
0000
1000
0000
0001
0000
0100
0000
0010
0000
1000
0000
0100
0000
0010
0000
0001
0000
1001
0000
0000
0000
0000
0000
0000
0000
0000
0000
0000
0000
1000
0000
0000
0000
0000
0000
0010
0000
0000
0100
0000
0000
,  // measure 57
0001
0000
0001
0010
0100
0000
1000
0000
1000
0000
1000
0000
1000
0100
0010
0001
,  // measure 58
1000
0000
1000
0010
0100
0000
0010
0100
0000
0100
0010
0000
0100
0000
0010
0100
,  // measure 59
0001
1000
0100
0010
0100
0000
0100
0000
0100
0000
0100
0010
0001
0010
0100
1000
,  // measure 60
0001
0000
0001
0100
0010
0000
0100
0010
0000
0010
0100
0000
0010
0000
0100
0001
,  // measure 61
1000
0001
0010
0100
1000
0000
1000
0000
1000
0000
1000
0000
1000
0001
0010
0100
,  // measure 62
0010
0000
0010
0001
1000
0000
0001
1000
0000
1000
0001
0000
1000
0000
0001
0100
,  // measure 63
0010
0000
0010
1000
0001
0000
1000
0001
0000
0001
0010
0100
0010
0000
0100
0010
,  // measure 64
0001
0100
0010
1000
0001
0000
1000
0000
0001
0000
0010
0010
0000
0000
0000
0000
;
