#TITLE:INORI;
#SUBTITLE:;
#ARTIST:dj TAKA feat. HAL;
#TITLETRANSLIT:;
#SUBTITLETRANSLIT:;
#ARTISTTRANSLIT:;
#GENRE:MILLENNIUM TRANCE;
#CREDIT:Graphics made by TonyAkita;
#MUSIC:[Championship Week] - INORI.ogg;
#BANNER:[Championship Week] - INORI.png;
#BACKGROUND:[Championship Week] - INORI-bg.png;
#CDTITLE:;
#SAMPLESTART:94.522;
#SAMPLELENGTH:15.000;
#SELECTABLE:YES;
#OFFSET:0.000;
#BPMS:0.000=145.998;
#STOPS:;
#DISPLAYBPM:146.000;
#JACKET:[Championship Week] - INORI-jacket.png;
#BGCHANGES:-0.955=[Championship Week] - INORI.avi=1.000=0=0=0=StretchNoLoop====,
99999.000=-nosongbg-=1.000=0=0=0=StretchNoLoop====
;
#FGCHANGES:;

//--------------- dance-single - forcednature ----------------
#NOTES:
     dance-single:
     forcednature:
     Beginner:
     3:
     0,0,0,0,0:
0000
0000
0000
0000
,
0000
0000
0000
0000
,
0000
0000
0000
0000
,
0000
0000
0000
0000
,
0000
0000
0000
0000
,
0000
0000
0000
0000
,
0000
0000
0000
0000
,
0000
0000
0000
0000
,
0000
0000
0000
0000
,
1001
0000
0000
0000
,
0000
0000
0000
0000
,
1000
0000
0000
0000
,
0001
0000
0000
0000
,
0100
0000
0000
0000
,
0001
0000
0000
0000
,
1000
0000
0000
0000
,
0010
0000
0000
0000
,
0000
0010
0000
1000
,
0000
0100
0000
0010
,
0000
0001
0000
1000
,
0000
0001
0000
0100
,
0000
0001
0000
1000
,
0000
0010
0000
0100
,
1001
0000
0000
0000
,
0000
0000
0000
0000
,
1000
0000
0001
0000
,
0100
0000
0001
0000
,
1000
0000
0010
0000
,
1000
0000
0100
0000
,
0001
0000
0100
0000
,
0010
0000
0001
0000
,
1000
0000
0010
0000
,
0100
0000
0001
0000
,
1001
0000
1000
0000
,
0100
0000
1000
0000
,
0010
0000
0100
0000
,
0001
0000
0010
0000
,
0001
0000
0100
0000
,
0001
0000
0010
0000
,
0100
0000
1000
0000
,
0010
0000
0000
0000
,
0000
0100
0000
0100
,
0000
0010
0000
0010
,
0000
1000
0000
0001
,
0000
1000
0000
0001
,
0000
0010
0000
0010
,
0000
0100
0000
0100
,
0000
1000
0000
0001
,
0000
1000
0000
0001
,
1000
0000
0001
0000
,
0100
0000
0001
0000
,
1000
0000
0001
0000
,
1000
0000
0100
0000
,
0010
0000
0100
0000
,
0010
0000
0100
0000
,
1000
0001
1000
0001
,
1000
0001
1000
0001
,
1000
0000
0000
0000
,
0001
0000
0100
0000
,
0001
0000
0010
0000
,
0100
0000
1000
0000
,
0010
0000
0100
0000
,
0001
0000
1000
0000
,
0100
0000
1000
0000
,
0001
0000
0010
0000
,
0001
0000
0100
0000
,
0010
0000
1000
0000
,
0100
0000
0001
0000
,
0100
0000
0010
0000
,
0001
0000
1000
0000
,
0010
0000
0100
0000
,
0001
0000
0100
0000
,
0010
0000
1000
0000
,
0100
0000
0010
0000
,
0100
0000
0100
0000
,
1000
0000
1000
0000
,
0001
0000
0001
0000
,
0010
0000
0010
0000
,
0001
0000
0001
0000
,
0100
0000
0100
0000
,
0010
0000
0010
0000
,
1000
0000
1000
0000
,
1001
0000
0000
0000
,
0110
0000
0000
0000
,
1001
0000
0000
0000
;

//--------------- dance-single - forcednature ----------------
#NOTES:
     dance-single:
     forcednature:
     Easy:
     5:
     0,0,0,0,0:
0000
0000
0000
0000
,
0000
0000
0000
0000
,
0000
0000
0000
0000
,
0000
0000
0000
0000
,
0000
0000
0000
0000
,
0000
0000
0000
0000
,
0000
0000
0000
0000
,
0000
0000
0000
0000
,
0000
0000
0000
0000
,
1002
0000
0000
0000
,
0000
0000
0000
0000
,
0203
0000
0000
0000
,
0320
0000
2030
0000
,
3200
0000
0000
0000
,
0320
0000
0032
0000
,
2003
0000
0000
0000
,
3002
0000
0203
0000
,
0310
0010
0000
1000
,
0001
0100
0001
1000
,
0100
0100
0000
0010
,
0001
1000
0010
1000
,
0010
0010
0000
0100
,
0001
1000
0001
0010
,
0200
0000
0000
0000
,
0310
0000
0001
1000
,
0001
0100
0010
1000
,
0001
1000
0100
0010
,
0001
0100
0010
1000
,
0001
1000
0100
0000
,
1000
0010
0100
0001
,
0010
0001
1000
0100
,
1000
0010
0100
0001
,
0010
0001
1000
0000
,
0010
1000
0001
0100
,
1000
0100
0001
1000
,
0100
0010
0100
0010
,
0001
1000
0001
0000
,
1000
0001
0100
0001
,
1000
0010
1000
0100
,
1000
0001
0010
0100
,
1000
0001
1000
0000
,
0010
1000
0010
0000
,
0100
0001
0100
0000
,
0001
0010
0001
0000
,
1000
0100
1000
0000
,
0010
1000
0001
0000
,
0100
0001
1000
0000
,
0100
1000
0010
0000
,
0100
0001
0010
0000
,
0100
0110
0000
1001
,
0000
0110
0000
1001
,
0000
1001
0000
0110
,
0000
1001
0000
0110
,
1000
0001
1001
0000
,
0010
0100
0110
0000
,
1000
0001
1000
0001
,
1000
0100
0001
0010
,
1001
0000
0100
0010
,
1000
0001
1000
0010
,
0100
1000
0010
0100
,
0001
0010
1000
0100
,
0001
0010
0100
0000
,
1000
0010
0100
0001
,
1000
0100
0001
0100
,
0010
0001
1000
0010
,
0100
0001
0100
0000
,
0010
1000
0001
0100
,
1000
0100
0001
1000
,
0100
0010
0100
0010
,
0001
1000
0001
0000
,
0100
0001
1000
0010
,
1000
0100
0001
0010
,
1000
0001
0100
0010
,
0100
0001
1000
0000
,
0010
1000
0001
0100
,
0010
0001
0100
1000
,
0010
0100
1000
0001
,
0100
0010
0001
0100
,
1000
0010
0001
1000
,
0010
0001
0100
1000
,
0100
0001
0010
1000
,
0100
0001
0010
1000
,
0100
0001
0010
1000
,
0100
0001
0010
0100
,
1001
0000
0000
0000
;

//--------------- dance-single - forcednature ----------------
#NOTES:
     dance-single:
     forcednature:
     Medium:
     8:
     0,0,0,0,0:
0000
0000
0000
0000
,
0000
0000
0000
0000
,
0000
0000
0000
0000
,
0000
0000
0000
0000
,
0000
0000
0000
0000
,
0000
0000
0000
0000
,
0000
0000
0000
0000
,
0000
0000
0000
0000
,
0000
0000
0000
0000
,
0001
1000
0000
0010
0000
1000
0000
0100
,
0000
0010
0000
0001
0000
0100
0000
0001
,
0000
1000
0000
0001
0000
1000
0000
0100
,
0000
0010
0000
0001
0000
0100
0000
1000
,
0000
0100
0000
0001
0000
0100
0000
0010
,
0000
1000
0000
0010
0000
0001
0000
0010
,
0000
1000
0000
0100
0000
0010
0000
0001
,
0000
0100
0000
0010
0000
1000
0000
0001
,
0100
0000
0100
0000
0001
0010
0100
0000
,
1000
0000
0010
0000
1000
0001
1000
0000
,
0100
0000
1000
0000
0001
0010
0001
0000
,
0100
0000
0010
0000
0100
0001
0100
0000
,
0010
0000
1000
0000
0001
1000
0100
0000
,
0010
0000
0001
0000
0100
0010
1000
0000
,
0220
0000
0000
0000
,
0330
0000
0000
0000
1000
0000
0001
1000
,
0001
0000
0100
0000
0001
0010
0001
0000
,
1000
0000
0100
0000
1000
0010
1000
0001
,
0100
0000
0001
0000
1000
0100
0010
0000
,
0100
0000
1000
0000
0010
0100
0001
1000
,
0010
0000
0100
0000
0001
0010
0100
0000
,
0010
0000
0001
0000
1000
0100
0010
0100
,
1000
0000
0001
0000
1000
0010
0100
0000
,
0001
0000
1000
0000
0001
0100
0001
1000
,
0010
0000
1000
0000
0001
0010
0001
0000
,
1000
0000
0100
0000
0010
0001
1000
0100
,
0010
0000
0100
0000
1000
0001
0100
0000
,
0010
0000
1000
0000
0001
0100
0010
1000
,
0001
0100
0010
1000
,
0001
0010
0001
0000
1000
0100
1000
0000
,
0010
0100
0001
1000
,
0100
0010
0100
0000
2000
0000
0000
3000
,
0010
1000
0001
1000
0100
0000
0010
0000
,
0001
0010
0001
0100
0010
0000
1000
0000
,
0100
1000
0001
1000
0010
0000
0100
0000
,
0001
0010
0001
1000
0100
0000
0010
0000
,
0100
1000
0010
0100
0001
0000
1000
0000
,
0100
1000
0100
0001
0100
0000
0010
0000
,
0001
1000
0010
0100
0001
0000
1000
0000
,
0010
0001
0010
1000
0020
0000
0100
0030
,
0010
0000
0010
0000
0010
1000
0100
0010
,
0001
0100
0010
0000
0010
0000
0010
0000
,
0100
0000
0100
0000
0100
0001
0010
0100
,
1000
0010
0100
0000
0100
0000
0100
0000
,
0001
1000
0100
0000
1001
0000
0010
0010
,
1000
0001
0100
0000
1001
0000
0010
0010
,
0001
1000
0100
0010
0001
1000
0010
0100
,
0001
1000
0001
1000
,
1001
0000
0000
0000
1000
0000
0001
0100
,
0010
0000
1000
0000
0001
0010
0100
1000
,
0001
0000
1000
0000
0010
1000
0001
0100
,
0001
0000
1000
0000
0100
0010
0001
0100
,
0010
0000
1000
0000
0001
1000
0100
1000
,
0001
0000
0010
0000
0001
0010
0100
0010
,
0100
0000
1000
0000
0010
0100
0001
1000
,
0010
0000
0100
0000
0001
0100
0010
1000
,
0100
0000
0010
0000
0001
0010
0100
1000
,
0010
0000
0100
0000
0001
0100
0010
0100
,
0001
0000
0100
0000
0010
1000
0100
1000
,
0001
0000
1000
0000
0100
0010
0001
0100
,
0010
0000
1000
0000
0100
1000
0001
1000
,
0010
0000
0100
0000
0001
0010
0001
1000
,
0100
0000
1000
0000
0010
0100
0001
0100
,
0010
1000
0100
0010
,
0001
1000
0100
1000
0001
0100
0010
1000
,
0001
1000
0010
1000
,
0100
0010
0001
0100
0010
1000
0100
0010
,
0001
1000
0010
1000
,
0001
0100
0001
1000
0100
0010
0100
1000
,
0001
1000
0010
0100
,
0001
0100
0010
1000
0100
0010
0001
1000
,
0100
1000
0001
0100
,
0010
1000
0001
0100
0001
0010
0100
0000
,
1000
0010
1000
0001
1000
0100
0010
0000
,
0001
0100
0010
0100
0001
0010
0100
0000
,
1001
0000
0000
0000
;

//--------------- dance-single - forcednature ----------------
#NOTES:
     dance-single:
     forcednature:
     Hard:
     12:
     0,0,0,0,0:
0000
0000
0000
0000
,
0000
0000
0000
0000
,
0000
0000
0000
0000
,
0000
0000
0000
0000
,
0000
0000
0000
0000
,
0000
0000
0000
0000
,
0000
0000
0000
0000
,
0000
0000
0000
0000
,
0000
0000
0000
0000
,
1001
1000
0000
0010
0000
0100
0000
1000
,
0000
0100
0000
0001
0000
1000
0000
0010
,
0000
0001
0000
0010
0000
0100
0000
0001
,
0000
0010
0000
1000
0000
0010
0000
0100
,
0000
1000
0000
0010
0000
0100
0000
1000
,
0000
0001
0000
0010
0000
0100
0000
0001
,
0000
1000
0000
0100
0000
0001
0000
1000
,
0000
0010
0000
0001
0000
1000
0000
0001
,
0100
0000
0000
0100
0001
0000
0000
0000
1000
0000
0010
0000
1000
0000
0000
0000
,
0001
0000
0000
0001
0010
0000
0000
0000
0100
0000
1000
0000
0100
0000
0000
0000
,
0010
0000
0000
0010
0100
0000
0000
0000
1000
0000
0001
0000
1000
0000
0000
0000
,
0010
0000
0000
0010
0100
0000
0000
0000
0001
0000
1000
0000
0001
0000
0000
0000
,
1000
0000
0000
0100
0010
0000
0000
0000
0001
0000
0100
0000
0010
0000
0000
0000
,
1000
0000
0000
0001
0100
0000
0000
0000
0010
0000
1000
0000
0001
0000
0000
0000
,
1001
0001
0000
0100
0000
0001
0000
1000
,
0000
0010
0000
0100
0001
0000
1000
0100
,
0010
1000
0001
0100
0010
1000
0001
0010
,
1000
0010
0001
1000
0010
0001
1000
0010
,
0100
1000
0100
0010
1000
0100
0001
0010
,
0001
0100
1000
0001
0100
1000
0100
0010
,
0001
1000
0010
0001
0010
1000
0001
0010
,
0100
1000
0100
0001
1000
0100
0010
0001
,
0010
1000
0001
0100
0010
1000
0001
0010
,
0001
1000
0010
0001
1000
0010
0100
0001
,
0100
1000
0010
0100
0010
1000
0100
0001
,
1000
0100
0010
0001
1000
0010
0100
1000
,
0010
1000
0100
0010
1000
0001
0010
1000
,
0001
0100
1000
0010
1000
0100
0001
0010
,
0001
0100
1000
0010
0001
1000
0100
0001
,
1000
0001
0010
0100
0001
0010
0100
0010
,
0001
1000
0010
0001
1000
0001
0100
1000
,
0010
1000
0100
0001
2000
0010
0001
3100
,
1000
0000
0000
1000
0100
0000
0010
0000
0001
0000
0000
0001
1000
0000
0010
0000
,
0100
0000
0000
0100
0001
0000
0010
0000
0001
0000
0000
0001
1000
0000
0100
0000
,
0010
0000
0000
0010
0100
0000
1000
0000
0010
0000
0000
0010
0100
0000
0001
0000
,
1000
0000
0000
1000
0100
0000
1000
0000
0010
0000
0000
0010
0100
0000
0001
0000
,
0010
0000
0000
0010
0001
0000
0100
0000
0010
0000
0000
0010
1000
0000
0001
0000
,
0100
0000
0000
0100
0001
0000
1000
0000
0100
0000
0000
0100
0010
0000
0001
0000
,
1000
0000
0000
1000
0010
0000
1000
0000
0001
0000
0000
0001
0010
0000
0100
0000
,
1000
0000
0001
0000
0100
0010
0100
0001
,
1000
0100
0010
0001
1000
0100
0110
0001
,
1000
0010
0100
0001
1000
0001
1001
0001
,
0100
0010
1000
0100
0010
0001
0110
0001
,
1000
0010
1000
0100
0010
0001
1001
0001
,
0110
0010
1000
0100
0110
0100
1000
0001
,
1001
1000
0010
0100
1001
0001
0010
0100
,
1010
1000
0101
0100
0011
0001
1100
0100
,
1000
0100
0010
0001
0100
0010
1000
0001
,
1001
0000
0000
0000
0001
0000
1000
0001
,
0100
1000
0010
1000
0100
0001
1000
0100
,
0010
1000
0010
0001
0100
1000
0001
0010
,
1000
0100
0001
0010
0100
1000
0010
0001
,
1000
0010
0001
0100
0001
0010
1000
0001
,
1000
0100
0010
1000
0001
0100
0010
0001
,
1000
0010
0100
1000
0001
0010
0100
0001
,
1000
0100
0001
0010
0001
0100
1000
0010
,
0100
1000
0001
0010
0100
0001
1000
0010
,
0001
0100
1000
0100
0001
0010
1000
0100
,
0010
0100
1000
0010
0001
0100
0001
0010
,
1000
0100
0001
0010
0001
0100
0001
0010
,
0001
1000
0010
0100
0001
1000
0010
0001
,
1000
0100
0001
1000
0010
0001
0010
1000
,
0010
0001
0100
1000
0001
0010
1000
0001
,
0010
1000
0100
1000
0010
0001
1000
0010
,
0100
0001
1000
0010
,
1000
0001
0010
1000
0100
1000
0010
0001
,
1000
0010
0001
0100
0001
0010
1000
0001
,
1000
0100
0010
1000
0001
0100
0010
0001
,
1000
0001
0100
1000
0010
1000
0100
0001
,
1000
0100
0010
0100
1000
0010
0100
1000
,
0001
1000
0100
0001
1000
0100
0001
1000
,
0001
0100
1000
0001
1000
0010
0100
0000
,
0001
0000
0100
0000
0010
0000
1000
0001
,
1000
0100
0001
0010
0001
0100
1000
0001
,
1000
0001
0100
1000
0010
1000
0100
0001
,
1000
0000
0000
0000
;

//--------------- dance-single - forcednature ----------------
#NOTES:
     dance-single:
     forcednature:
     Challenge:
     15:
     0,0,0,0,0:
0000
0000
0000
0000
,
0000
0000
0000
0000
,
0000
0000
0000
0000
,
0000
0000
0000
0000
,
0000
0000
0000
0000
,
0000
0000
0000
0000
,
0000
0000
0000
0000
,
0000
0000
0000
0000
,
0000
0000
0000
0000
,
1001
0000
0001
0100
0000
0000
0010
1000
0000
0000
0100
1000
0000
0000
0001
0010
,
0000
0000
0001
1000
0000
0000
0100
0010
0000
0000
0100
1000
0000
0000
0001
0010
,
0000
0000
0001
0100
0000
0000
0010
1000
0000
0000
0001
1000
0000
0000
0100
0010
,
0000
0000
0100
1000
0000
0000
0001
0010
0000
0000
0001
0100
0000
0000
0010
1000
,
0000
0000
0001
1000
0000
0000
0010
0100
0000
0000
0001
0100
0000
0000
0010
1000
,
0000
0000
0001
0010
0000
0000
0100
1000
0000
0000
0010
0100
0000
0000
0001
1000
,
0000
0000
0100
0010
0000
0000
0001
1000
0000
0000
0010
0100
0000
0000
0001
1000
,
0000
0000
0001
0100
0000
0000
0010
1000
0000
0000
0100
1000
0000
0000
0001
0010
,
0001
0000
0000
1000
0001
0000
0000
1000
0000
0010
0100
0000
0001
0000
0000
1000
,
0100
0000
0000
0010
0100
0000
0000
1000
0000
0001
0010
0000
0001
1000
0000
0010
,
1000
0000
0000
0100
1000
0000
0000
0001
0000
0010
0001
0000
0100
0000
0000
0010
,
1000
0000
0000
0001
1000
0000
0000
0100
0000
0010
0001
0000
0100
0010
0000
1000
,
0001
0000
0000
1000
0100
0000
0000
0010
0000
0001
1000
0000
0010
0000
0000
0100
,
0001
0000
0000
1000
0100
0000
0000
1000
0000
0001
0010
0000
0001
1000
0000
0010
,
0100
0000
0001
0010
0000
0000
0001
1000
0000
0000
0010
1000
0000
0000
0001
0100
,
0000
0000
0010
1000
0000
0000
0100
1000
0000
0000
0001
0010
0000
0000
0001
0100
,
0010
0000
0000
1000
0010
0000
1000
0000
0001
0000
0000
0100
0001
0000
0010
0000
,
0001
0000
0000
1000
0100
0000
0010
0000
0100
0000
1000
0000
0010
0000
0100
0000
,
0001
0000
0000
0010
0001
0000
1000
0000
0010
0000
0100
0000
0001
0000
1000
0000
,
0100
0000
0000
1000
0001
0000
1000
0000
0010
0000
1000
0000
0100
0000
0010
0000
,
0001
0000
0000
0100
0001
0000
1000
0000
0010
0000
1000
0000
0100
0000
1000
0000
,
0001
0000
0000
0010
0001
0000
1000
0000
0010
0000
0100
0000
0001
0000
1000
0000
,
0100
0000
0000
1000
0001
0000
1000
0000
0010
0000
1000
0000
0100
0000
0001
0000
,
0100
0010
0001
1000
0010
0100
1000
0100
,
0010
0000
0000
1000
0001
0000
0100
0000
0010
0000
0000
1000
0100
0000
1000
0000
,
0001
0000
0000
0010
0001
0000
0100
0000
0010
0000
0000
1000
0001
0000
0100
0000
,
0001
0000
0000
1000
0010
0000
1000
0000
0100
0000
0000
1000
0001
0000
0010
0000
,
0001
0000
0000
0100
0010
0000
1000
0000
0100
0000
0010
0000
0100
0000
1000
0000
,
0001
0000
0000
1000
0010
0000
0100
0000
0001
0000
1000
0000
0010
0000
1000
0000
,
0100
0000
0000
0010
0001
0000
1000
0000
0001
0000
0010
0000
0100
0000
1000
0000
,
0001
0000
0000
1000
0010
0000
0100
0000
0001
0000
1000
0000
0100
0000
0010
0000
,
0001
0000
0100
0000
0010
0000
1000
0000
0001
0010
0001
1000
0100
1000
0001
0000
,
1000
0000
0010
0000
0100
0001
0000
1000
0000
0010
1000
0000
0001
0010
0000
0001
,
1000
0001
1000
0000
0010
0100
0010
1000
0000
0001
0010
0000
0001
1000
0000
0100
,
1000
0001
1000
0000
0010
1000
0001
0100
0000
0010
1000
0000
0001
0010
0000
0001
,
1000
0100
0010
0000
0100
1000
0001
0010
0000
0001
1000
0000
0010
0100
0010
0000
,
0100
0001
1000
0000
0100
1000
0000
0001
0000
0010
0001
0000
1000
0010
0000
1000
,
0001
1000
0001
0000
1000
0100
0010
0100
0000
1000
0001
0000
0010
0001
0000
1000
,
0010
1000
0010
0000
0100
0001
0010
0001
0000
1000
0100
0000
1000
0001
0000
1000
,
0010
1000
0010
0000
0100
0001
0000
1000
0100
0010
0100
1000
0001
0010
0001
0000
,
1000
0010
0100
0001
1000
0001
0100
0000
0010
1000
0100
0010
0100
1000
0001
0000
,
0010
0001
1000
0100
1000
0010
0100
0000
0001
1000
0001
0100
0001
1000
0010
0000
,
1000
0100
0010
0100
1000
0001
0010
0000
0001
1000
0001
0100
0010
1000
0001
0000
,
1000
0010
0100
0001
1000
0100
1000
0000
0001
0010
0100
1000
0100
0010
0001
0000
,
1000
0001
0100
0001
1000
0010
1000
0000
1001
0000
1000
0000
1010
0000
1001
0000
,
1000
0001
0010
0001
1000
0001
0100
0000
1010
0000
0100
0000
0101
0000
0011
0000
,
1100
0010
0101
0010
1010
0100
0011
0100
,
1000
0001
0100
0010
1000
0100
0010
0100
1000
0001
0010
0001
1000
0001
0100
0001
,
1000
0000
0000
0000
0010
0000
1000
0001
,
0100
0000
0000
0001
1000
0000
0010
0000
1000
0000
0000
0100
0010
0000
0100
0000
,
1000
0000
0000
0001
0010
0000
0001
0000
1000
0000
0010
0000
0100
0000
0001
0000
,
1000
0000
0000
0100
1000
0000
0001
0000
0010
0000
0001
0000
1000
0000
0010
0000
,
0100
0000
0000
0001
0100
0000
0010
0000
1000
0000
0001
0000
0100
0000
0001
0000
,
1000
0000
0000
0100
1000
0000
0001
0000
0010
0000
0001
0000
1000
0000
0010
0000
,
0100
0000
0000
0001
0100
0000
0010
0000
1000
0000
0100
0000
0010
0000
0100
0000
,
1000
0000
0000
0001
0010
0000
0001
0000
1000
0000
0010
0000
0100
0000
0001
0000
,
0100
1000
0100
0010
1000
0100
0001
0100
,
0010
0000
0000
0001
1000
0000
0010
0000
1000
0000
0000
0001
0010
0000
0001
0000
,
0100
0000
0000
0010
1000
0000
0100
0000
1000
0000
0001
0000
0100
0000
0010
0000
,
1000
0000
0000
0100
0010
0000
0100
0000
1000
0000
0001
0000
0100
0000
0010
0000
,
1000
0000
0000
0001
0010
0000
0001
0000
1000
0000
0010
0000
0100
0000
0001
0000
,
1000
0000
0000
0100
1000
0000
0001
0000
0010
0000
0001
0000
0100
0000
0010
0000
,
1000
0000
0000
0001
0100
0000
0001
0000
0010
0000
0001
0000
1000
0000
0010
0000
,
1000
0000
0000
0100
1000
0000
0010
0000
0100
0000
0001
0000
0010
0000
0001
0000
,
1000
0100
0001
0100
0010
0001
1000
0010
,
0100
0000
0001
0100
0001
0000
0010
0000
0100
0000
1000
0001
1000
0000
0001
0000
,
0010
0000
0001
0100
0001
0000
0010
0000
0100
0000
1000
0001
1000
0000
0010
0000
,
1000
0000
0100
0010
0100
0000
1000
0000
0001
0000
0010
0001
0010
0000
0001
0000
,
0100
0000
0010
1000
0010
0000
0100
0000
0001
0000
1000
0100
1000
0000
0010
0000
,
0100
0000
0001
0010
0001
0000
1000
0000
0001
0000
0100
0010
0100
0000
0001
0000
,
1000
0000
0100
0010
0100
0000
1000
0000
0010
0000
1000
0001
1000
0000
0001
0000
,
0100
0000
0001
0010
0001
0000
1000
0000
0010
0000
0100
0001
0100
0000
0001
0000
,
0010
0000
0100
1000
0100
0000
0010
0000
0001
0000
1000
0010
1000
0000
0001
0000
,
0101
0001
1001
0100
1010
0001
0110
1000
,
0001
0010
0001
1000
0100
0010
0100
1000
0001
0100
0001
1000
0010
1000
0001
0010
,
0100
0000
0000
0000
;

//--------------- dance-double - forcednature ----------------
#NOTES:
     dance-double:
     forcednature:
     Easy:
     5:
     0,0,0,0,0:
00000000
00000000
00000000
00000000
,
00000000
00000000
00000000
00000000
,
00000000
00000000
00000000
00000000
,
00000000
00000000
00000000
00000000
,
00000000
00000000
00000000
00000000
,
00000000
00000000
00000000
00000000
,
00000000
00000000
00000000
00000000
,
00000000
00000000
00000000
00000000
,
00000000
00000000
00000000
00000000
,
00021000
00000000
00000000
00000000
,
00000000
00000000
00000000
00000000
,
00030200
00000000
00000000
00000000
,
00002300
00000000
00003002
00000000
,
00000203
00000000
00000000
00000000
,
00002300
00000000
00023000
00000000
,
00230000
00000000
00000000
00000000
,
20300000
00000000
32000000
00000000
,
13000000
10000000
10000000
00000000
,
00010000
01000000
00001000
00010000
,
00000100
00000100
00000100
00000000
,
00001000
00000001
00000100
00000010
,
00001000
00001000
00001000
00000000
,
00000001
00000010
00000100
00001000
,
00002002
00000000
00000000
00000000
,
00003003
00000000
00000100
00000100
,
00000001
00000100
00000010
00001000
,
00000001
00000100
00000010
00001000
,
00000100
00010000
00001000
00100000
,
00001000
00010000
00000100
00000000
,
00010000
00001000
01000000
00010000
,
10000000
01000000
00100000
00010000
,
10000000
00100000
10000000
01000000
,
00100000
00010000
01000000
00000000
,
00001000
00010000
00000010
00001000
,
00000100
00010000
00000010
00001000
,
00000001
00001000
00000100
00000010
,
00000100
00001000
00000001
00000000
,
00001000
00000100
00010000
00001000
,
01000000
00010000
00100000
01000000
,
10000000
00100000
10000000
00010000
,
00100000
00010000
01000000
00000000
,
00001000
00010000
00001000
00000000
,
00010000
00000100
00001000
00000000
,
00000010
00000100
00000001
00000000
,
00000010
00000100
00001000
00000000
,
00000100
00010000
00001000
00000000
,
01000000
00010000
10000000
00000000
,
00100000
10000000
00010000
00000000
,
01000000
00001000
00010000
00000000
,
00001000
00000100
00001000
00000010
,
00001000
00000100
00001000
00000010
,
00010000
00001000
00010000
00000100
,
00010000
00001000
00010000
00000100
,
01000000
00100000
01000000
00010000
,
01000000
00100000
01000000
00010000
,
10000000
00100000
10000000
01000000
,
00010000
01000000
00100000
00000000
,
01100000
00000000
00001000
00010000
,
00000100
00001000
00000010
00000100
,
00000001
00001000
00000100
00000010
,
00000100
00001000
00000001
00000100
,
00000010
00010000
00001000
00000000
,
00100000
00010000
10000000
01000000
,
00100000
01000000
10000000
00010000
,
01000000
00100000
01000000
00010000
,
00100000
00001000
00010000
00000000
,
00000100
00001000
00000010
00000100
,
00000001
00000010
00000100
00001000
,
00000001
00001000
00000100
00000010
,
00000100
00001000
00000001
00000000
,
00001000
00000010
00010000
00001000
,
01000000
00010000
10000000
00100000
,
10000000
00010000
01000000
00100000
,
10000000
01000000
00100000
00000000
,
01000000
10000000
00010000
00100000
,
01000000
10000000
00010000
00100000
,
00001000
00010000
00000100
00001000
,
00000001
00000100
00000010
00000100
,
00000001
00001000
00000100
00001000
,
00000010
00000100
00000001
00000010
,
00000100
00001000
00000010
00010000
,
00001000
01000000
00010000
10000000
,
01000000
00100000
00001000
00010000
,
00000100
00001000
00000010
00000100
,
00000001
00000000
00000000
00000000
;

//--------------- dance-double - forcednature ----------------
#NOTES:
     dance-double:
     forcednature:
     Medium:
     8:
     0,0,0,0,0:
00000000
00000000
00000000
00000000
,
00000000
00000000
00000000
00000000
,
00000000
00000000
00000000
00000000
,
00000000
00000000
00000000
00000000
,
00000000
00000000
00000000
00000000
,
00000000
00000000
00000000
00000000
,
00000000
00000000
00000000
00000000
,
00000000
00000000
00000000
00000000
,
00000000
00000000
00000000
00000000
,
00010000
00001000
00000000
01000000
00000000
00010000
00000000
10000000
,
00000000
01000000
00000000
00100000
00000000
00001000
00000000
00010000
,
00000000
00000100
00000000
00000010
00000000
00000001
00000000
00000100
,
00000000
00000001
00000000
00001000
00000000
00000010
00000000
00000100
,
00000000
00001000
00000000
00010000
00000000
01000000
00000000
10000000
,
00000000
00100000
00000000
01000000
00000000
00010000
00000000
00100000
,
00000000
00001000
00000000
00010000
00000000
00000100
00000000
00001000
,
00000000
00000001
00000000
00000100
00000000
00000010
00000000
00001000
,
00000100
00000000
00010000
00000000
00001000
01000000
00001000
00000000
,
00100000
00000000
00010000
00000000
10000000
01000000
10000000
00000000
,
00100000
00000000
01000000
00000000
00001000
00010000
00001000
00000000
,
00000100
00000000
00000001
00000000
00001000
00000100
00001000
00000000
,
00000010
00000000
00010000
00000000
00001000
00100000
00001000
00000000
,
01000000
00000000
00010000
00000000
10000000
01000000
10000000
00000000
,
01100000
00000000
00000000
00000000
,
10000000
00000000
00000000
00000000
00010000
00000000
01000000
00001000
,
01000000
00000000
00001000
00000000
00010000
00000100
00010000
00000000
,
00001000
00000000
00100000
00000000
00001000
00010000
00001000
00010000
,
00000100
00000000
00001000
00000000
00000010
00000100
00000010
00000000
,
00001000
00000000
00000100
00000000
00000010
00000001
00000010
00000001
,
00000100
00000000
00000001
00000000
00001000
00000010
00001000
00000000
,
00000100
00000000
00010000
00000000
00001000
00100000
00001000
00100000
,
01000000
00000000
10000000
00000000
00100000
01000000
00100000
00000000
,
00010000
00000000
00001000
00000000
00000010
00000001
00000010
00000001
,
00000100
00000000
00001000
00000000
00010000
01000000
10000000
00000000
,
00100000
00000000
01000000
00000000
00010000
00100000
00010000
00100000
,
00001000
00000000
00010000
00000000
00000010
00001000
00000010
00000000
,
00000100
00000000
00000001
00000000
00001000
00000100
00001000
00000100
,
00010000
00000000
00001000
00000000
00100000
00010000
00100000
00000000
,
00001000
00000000
00010000
00000000
00100000
10000000
00100000
10000000
,
01000000
00000000
00010000
00000000
00001000
00010000
00001000
00000000
,
00000100
00000001
00002000
00000200
,
00003300
00000000
00000100
00010000
00001000
00000000
01000000
00001000
,
00010000
00000000
00001000
00100000
00010000
00000000
10000000
00100000
,
01000000
00000000
00010000
00100000
01000000
00000000
10000000
00010000
,
01000000
00000000
00001000
00010000
00000100
00000000
00001000
00000010
,
00000100
00000000
00000001
00000010
00000100
00000000
00001000
00000001
,
00000010
00000000
00000001
00001000
00000100
00000000
00000010
00000001
,
00000100
00000000
00000010
00001000
00000100
00000000
00000010
00000100
,
00001000
00000000
00000001
00000100
00001000
00000000
00010000
01000000
,
10000000
00000000
10100000
00000000
01000000
00010000
00100000
01000000
,
10000000
00000000
01100000
00000000
00010000
00100000
00010000
10000000
,
01000000
00000000
10010000
00000000
10000000
00100000
01000000
00010000
,
00100000
00000000
00011000
00000000
00000010
00001000
00000001
00000100
,
00000010
00000000
00001001
00000000
00001000
00000100
00001000
00000000
,
00011000
00000000
01000000
00000000
00010000
00100000
00010000
00000000
,
01000000
00010000
01000000
00000000
00010000
00100000
00010000
00000000
,
00010000
00001000
00010000
00000100
00010000
00001000
00010000
00000100
,
00000100
00000000
00000000
00000000
00001000
00000000
00000100
00001000
,
00000010
00000000
00000100
00000000
00001000
00001000
00010000
00000000
,
01000000
00000000
10000000
00000000
00100000
01000000
00010000
01000000
,
00100000
00000000
10000000
00000000
01000000
00100000
00010000
00000000
,
01000000
00000000
00001000
00000000
00010000
00000100
00001000
00000100
,
00010000
00000000
00001000
00000000
00100000
00010000
00100000
00000000
,
00001000
00000000
01000000
00000000
00001000
00010000
00000010
00001000
,
00000100
00000000
00001000
00000000
00000001
00000100
00000010
00000000
,
00001000
00000000
00000100
00000000
00010000
00001000
01000000
00010000
,
00100000
00000000
01000000
00000000
10000000
00010000
01000000
00000000
,
00001000
00000000
00010000
00000000
00001000
01000000
00010000
10000000
,
00100000
00000000
10000000
00000000
00100000
01000000
00010000
00000000
,
00100000
00000000
00001000
00000000
00010000
00000100
00001000
00000001
,
00000010
00000000
00000100
00000000
00010000
00001000
00100000
00000000
,
00010000
00000000
10000000
00000000
00100000
01000000
00010000
00100000
,
01000000
00000000
10000000
00000000
00010000
01000000
00001000
00000000
,
00010000
00000000
00000100
00000000
00000010
00000001
00000100
00000010
,
00001000
00001000
00000100
00000100
,
00010000
00001000
00010000
00000100
00010000
00001000
00010000
00000000
,
00001000
01000000
00010000
10000000
,
00100000
10000000
00100000
01000000
00100000
10000000
00100000
00000000
,
01000000
00010000
00110000
00001000
,
00010000
00000000
00000100
00000000
00001000
00000010
00001000
00000100
,
00001000
00000010
00001000
00000000
00000001
00000100
00000001
00000000
,
00001000
00000100
00001000
00000000
00010000
00100000
00010000
00000000
,
00001000
00010000
00001000
00010000
00001000
01000000
00001000
00000000
,
00010000
00001000
00010000
00001000
00010000
00000100
00010000
00000000
,
00011000
00000000
00000000
00000000
;

//--------------- dance-double - forcednature ----------------
#NOTES:
     dance-double:
     forcednature:
     Hard:
     12:
     0,0,0,0,0:
00000000
00000000
00000000
00000000
,
00000000
00000000
00000000
00000000
,
00000000
00000000
00000000
00000000
,
00000000
00000000
00000000
00000000
,
00000000
00000000
00000000
00000000
,
00000000
00000000
00000000
00000000
,
00000000
00000000
00000000
00000000
,
00000000
00000000
00000000
00000000
,
00000000
00000000
00000000
00000000
,
00011000
00001000
00000000
01000000
00000000
00010000
00000000
00100000
,
00000000
10000000
00000000
00100000
00000000
00010000
00000000
01000000
,
00000000
00001000
00000000
00000100
00000000
00000001
00000000
00001000
,
00000000
00000100
00000000
00010000
00000000
00100000
00000000
10000000
,
00000000
00010000
00000000
01000000
00000000
00001000
00000000
00000010
,
00000000
00000001
00000000
00001000
00000000
00000010
00000000
00000100
,
00000000
00001000
00000000
00010000
00000000
01000000
00000000
00100000
,
00000000
00001000
00000000
00010000
00000000
00000100
00000000
00001000
,
00000010
00000000
00000010
00000000
00000100
00000001
00000010
00000100
,
00001000
00000000
00001000
00000000
01000000
10000000
00100000
01000000
,
00010000
00000000
00010000
00000000
00000100
00000001
00001000
00000100
,
00010000
00000000
00010000
00000000
01000000
10000000
00010000
01000000
,
00100000
00000000
00100000
00000000
00010000
00001000
00000010
00000001
,
00000100
00000000
00000100
00000000
00001000
00010000
01000000
10000000
,
00200000
00000000
00000000
00000000
,
02300000
00000000
00000000
00000000
03010000
00000000
00010000
00100000
,
00001000
00010000
00000100
00010000
01000000
10000000
00010000
01000000
,
00100000
00010000
00001000
00000010
00000001
00001000
00000010
00000100
,
00001000
00010000
00100000
01000000
00010000
10000000
01000000
00010000
,
00001000
00000010
00000001
00001000
00000010
00000100
00000001
00001000
,
00000100
00010000
01000000
10000000
00010000
01000000
00100000
10000000
,
00100000
00010000
00001000
00000100
00000001
00001000
00000100
00000010
,
00010000
00100000
00001000
00010000
00000001
00000100
00001000
00010000
,
01000000
10000000
00100000
01000000
00010000
10000000
01000000
00100000
,
00010000
01000000
00001000
00010000
00000100
00000010
00001000
00000001
,
00000100
00000010
00000001
00001000
00000010
00000100
00001000
00010000
,
01000000
10000000
00100000
01000000
00010000
10000000
00100000
00010000
,
00001000
00010000
01000000
00001000
00010000
00000010
00001000
00010000
,
00000100
00001000
00000001
00000100
00000010
00000001
00001000
00000100
,
00000010
00001000
00000100
00010000
01000000
10000000
00010000
01000000
,
00100000
00010000
00001000
00000010
00000001
00001000
00000010
00000100
,
00001000
00010000
01000000
10000000
00200000
00000000
00000000
00000000
,
00310000
00000000
00000000
00010000
00001000
00000000
01000000
00000000
00010000
00000000
00000000
00010000
00100000
00000000
00001000
00000000
,
00010000
00000000
00000000
00010000
00000010
00000000
00001000
00000000
00000100
00000000
00000000
00000100
00000010
00000000
00000001
00000000
,
00000100
00000000
00000000
00000100
00000010
00000000
00001000
00000000
00000100
00000000
00000000
00000100
00010000
00000000
00001000
00000000
,
01000000
00000000
00000000
01000000
00010000
00000000
00100000
00000000
01000000
00000000
00000000
01000000
10000000
00000000
00100000
00000000
,
01000000
00000000
00000000
01000000
00010000
00000000
00100000
00000000
00001000
00000000
00000000
00001000
00010000
00000000
00000010
00000000
,
00001000
00000000
00000000
00001000
00000100
00000000
00000010
00000000
00000001
00000000
00000000
00000001
00001000
00000000
00000100
00000000
,
00010000
00000000
00000000
00010000
00001000
00000000
01000000
00000000
00010000
00000000
00000000
00010000
10000000
00000000
00100000
00000000
,
10000000
00000000
00000000
10000000
01000000
00000000
00100000
00000000
00020000
00000000
00000000
00000000
00000000
00000000
00000000
00000000
,
01030000
00000000
00000000
01000000
00010000
00000000
00000000
00010000
00100000
00000000
00000000
00100000
00001000
00000000
00000000
00001000
,
00010000
00000000
00000000
00010000
00000100
00000000
00000000
00000100
00001000
00000000
00000000
00001000
00000010
00000000
00000000
00000010
,
00010000
00000000
00000000
00010000
00001000
00000000
00000000
00001000
01000000
00000000
00000000
01000000
00010000
00000000
00000000
00010000
,
10000000
00000000
00000000
10000000
01000000
00000000
00000000
01000000
00100000
00000000
00000000
00100000
00010000
00000000
00000000
00010000
,
00001000
00000000
00000000
00001000
00000100
00000000
00000000
00000100
00000010
00000000
00000000
00000010
00000001
00000000
00000000
00000001
,
00000100
00000000
00000000
00000100
00000010
00000000
00000000
00000010
00001000
00000000
00000000
00001000
00010000
00000000
00000000
00010000
,
01000000
00000000
00000000
01000000
00100000
00000000
00000000
00100000
10000000
00000000
00000000
10000000
00010000
00000000
00000000
00010000
,
10000000
01000000
00100000
00010000
00001000
00000100
00000010
00000001
,
00001000
00000000
00000000
00000000
00000010
00000000
00000100
00000100
,
00000001
00000100
00001000
00010000
00000100
00010000
01000000
10000000
,
00010000
01000000
00100000
00010000
00001000
00000010
00000001
00001000
,
00000010
00000100
00001000
00000001
00000010
00000100
00000001
00001000
,
00000100
00010000
00100000
10000000
00010000
10000000
01000000
00100000
,
10000000
00010000
01000000
00100000
00010000
01000000
00001000
00010000
,
00100000
01000000
00010000
00100000
00001000
00000010
00000001
00001000
,
00000010
00000100
00001000
00010000
00001000
00000010
00000001
00001000
,
00000100
00000010
00001000
00100000
00010000
01000000
00001000
00000100
,
00000001
00001000
00000100
00010000
00001000
01000000
00100000
00010000
,
00001000
00000010
00000001
00001000
00000010
00010000
01000000
10000000
,
00010000
01000000
00100000
10000000
01000000
00010000
10000000
00100000
,
00010000
01000000
00001000
00000100
00000010
00001000
00000100
00000001
,
00000100
00000010
00000001
00001000
00000010
00000100
00001000
00010000
,
01000000
10000000
00100000
01000000
00010000
10000000
01000000
00010000
,
00001000
00000100
00000001
00001000
00000100
00010000
00100000
10000000
,
00010000
01000000
00001000
00000010
00000001
00001000
00000010
00000100
,
00001000
01000000
00010000
10000000
01000000
00010000
00001000
00000010
,
00000001
00001000
00000001
00000100
00001000
00010000
00100000
10000000
,
00010000
10000000
01000000
00010000
00001000
00000010
00000001
00001000
,
00000001
00000100
00001000
00010000
00100000
10000000
00010000
10000000
,
01000000
00010000
00001000
00000100
00000001
00001000
00000001
00000010
,
00001000
00010000
00100000
10000000
00010000
10000000
01000000
00010000
,
00001000
00000010
00000001
00000100
00001000
00010000
00100000
10000000
,
01000000
00010000
00001000
00000100
00001000
00010000
01000000
00010000
,
00001000
00000010
00000001
00001000
00010000
10000000
01000000
00100000
,
00010000
01000000
00100000
00001000
00000010
00000001
00001000
00000100
,
00000001
00000000
00000000
00000000
;

//--------------- dance-double - forcednature ----------------
#NOTES:
     dance-double:
     forcednature:
     Challenge:
     15:
     0,0,0,0,0:
00000000
00000000
00000000
00000000
,
00000000
00000000
00000000
00000000
,
00000000
00000000
00000000
00000000
,
00000000
00000000
00000000
00000000
,
00000000
00000000
00000000
00000000
,
00000000
00000000
00000000
00000000
,
00000000
00000000
00000000
00000000
,
00000000
00000000
00000000
00000000
,
00000000
00000000
00000000
00000000
,
00011000
00000000
00010000
00000100
00000000
00000000
00001000
00000001
00000000
00000000
00001000
00000010
00000000
00000000
00001000
00000100
,
00000000
00000000
00010000
00001000
00000000
00000000
01000000
00010000
00000000
00000000
10000000
00100000
00000000
00000000
10000000
01000000
,
00000000
00000000
00100000
01000000
00000000
00000000
10000000
00010000
00000000
00000000
01000000
00001000
00000000
00000000
00010000
00000010
,
00000000
00000000
00001000
00000100
00000000
00000000
00000010
00000001
00000000
00000000
00000100
00000010
00000000
00000000
00001000
00000001
,
00000000
00000000
00000100
00001000
00000000
00000000
00010000
00100000
00000000
00000000
10000000
01000000
00000000
00000000
00100000
00010000
,
00000000
00000000
01000000
00001000
00000000
00000000
00010000
00000010
00000000
00000000
00001000
00000100
00000000
00000000
00001000
00000001
,
00000000
00000000
00001000
00000100
00000000
00000000
00100000
00010000
00000000
00000000
10000000
00100000
00000000
00000000
01000000
00010000
,
00000000
00000000
10000000
01000000
00000000
00000000
00100000
01000000
00000000
00000000
10000000
00010000
00000000
00000000
01000000
00010000
,
01000000
00000000
00000000
00010000
00100000
00000000
00000000
00001000
00010000
00001000
00010000
00000000
00001010
00000000
00000000
00001000
,
00000100
00000000
00000000
00000010
00000001
00000000
00000000
00000100
00000010
00000100
00000010
00000000
00001000
00000001
00000000
00001000
,
00000100
00000000
00000000
00010000
00001000
00000000
00000000
01000000
00010000
01000000
00010000
00000000
01100000
00000000
00000000
10000000
,
00100000
00000000
00000000
10000000
01000000
00000000
00000000
00100000
00010000
00100000
00010000
00000000
01000000
00001000
00000000
00010000
,
00001000
00000000
00000000
00010000
00000100
00000000
00000000
00001000
00000001
00001000
00000001
00000000
00000110
00000000
00000000
00001000
,
00000100
00000000
00000000
00010000
00001000
00000000
00000000
00100000
00010000
00100000
00010000
00000000
10010000
00000000
00000000
10000000
,
00100000
00000000
10000000
00010000
00000000
00000000
01000000
00010000
00000000
00000000
00100000
00010000
00000000
00000000
00100000
00001000
,
00000000
00000000
00010000
00000100
00000000
00000000
00001000
00000001
00001000
00000000
00000010
00000000
00000100
00000000
00000001
00000000
,
00000010
00000000
00000000
00000010
00000100
00000000
00000100
00000000
00010000
00000000
00000000
00010000
00001000
00000000
01000000
00000000
,
00010000
00000000
00000000
00010000
10000000
00000000
00100000
00000000
10000000
00000000
01000000
00000000
00100000
00000000
00010000
00000000
,
01000000
00000000
00000000
01000000
00001000
00000000
00010000
00000000
00000100
00000000
00001000
00000000
00000010
00000000
00000100
00000000
,
00000001
00000000
00000000
00000001
00001000
00000000
00000100
00000000
00010000
00000000
00001000
00000000
00100000
00000000
00010000
00000000
,
10000000
00000000
00000000
10000000
00100000
00000000
01000000
00000000
00010000
00000000
00100000
00000000
01000000
00000000
10000000
00000000
,
00010000
00000000
00000000
00010000
01000000
00000000
00001000
00000000
00010000
00000000
00000100
00000000
00001000
00000000
00000010
00000000
,
00001000
00000000
00000000
00001000
00000001
00000000
00001000
00000000
00000100
00000000
00000010
00000000
00000100
00000000
00001000
00000000
,
00000001
00000100
00001000
00010000
00100000
01000000
10000000
01000000
,
00010000
00000000
00000000
00100000
00010000
00000000
01000000
00000000
00001000
00000000
00100000
00000000
00010000
00000000
10000000
00000000
,
00100000
00000000
00000000
10000000
01000000
00000000
00100000
00000000
00010000
00000000
01000000
00000000
00001000
00000000
00010000
00000000
,
00000100
00000000
00000000
00001000
00000001
00000000
00001000
00000000
00000100
00000000
00000010
00000000
00000100
00000000
00001000
00000000
,
00000010
00000000
00000000
00000100
00000001
00000000
00000010
00000000
00000001
00000000
00000100
00000000
00000010
00000000
00001000
00000000
,
00000100
00000000
00000000
00010000
00001000
00000000
00010000
00000000
00000100
00000000
00001000
00000000
00000010
00000000
00001000
00000000
,
00000001
00000000
00000000
00000100
00000001
00000000
00000010
00000000
00000001
00000000
00001000
00000000
00000100
00000000
00010000
00000000
,
00001000
00000000
00000000
01000000
00010000
00000000
10000000
00000000
00100000
00000000
10000000
00000000
01000000
00000000
00100000
00000000
,
01000000
00000000
10000000
00010000
10000000
00000000
00000000
00000000
00100000
10000000
00010000
10000000
01000000
00100000
00010000
00000000
,
01000000
00000000
00001000
00000000
01000000
00010000
00000000
00100000
00000000
00001000
00010000
00000000
00000100
00001000
00000000
00000010
,
00000100
00000001
00000100
00000000
00000010
00001000
00000100
00001000
00000000
00000100
00010000
00000000
00001000
01000000
00000000
00010000
,
00100000
00010000
10000000
00000000
00100000
01000000
00000000
00010000
00000000
00100000
01000000
00000000
10000000
00010000
00000000
10000000
,
00100000
10000000
01000000
00000000
00100000
00010000
01000000
00001000
00000000
00010000
00000100
00000000
00000010
00000001
00000000
00000100
,
00000001
00001000
00000010
00000000
00001000
00000100
00000000
00010000
00000000
00001000
01000000
00000000
00100000
10000000
00000000
00010000
,
00100000
01000000
10000000
00000000
00010000
01000000
00001000
00100000
00000000
00001000
00010000
00000000
00000100
00001000
00000000
00000010
,
00001000
00000100
00000010
00000000
00000001
00000010
00000000
00000001
00000000
00000100
00000010
00000000
00001000
00000100
00000000
00000010
,
00000100
00001000
00000001
00000000
00001000
00000010
00000000
00001000
00000100
00010000
00001000
00100000
00001000
00010000
00000100
00000000
,
00010000
00001000
01000000
00010000
10000000
01000000
00100000
00000000
01000000
10000000
00100000
01000000
00010000
10000000
01000000
00000000
,
00100000
00010000
01000000
00001000
00100000
00001000
00010000
00000000
00000100
00001000
00000010
00000100
00000001
00001000
00000100
00000000
,
00000010
00000001
00000010
00000100
00001000
00000001
00000100
00000000
00000010
00001000
00000001
00000100
00000010
00001000
00000100
00000000
,
00010000
00001000
01000000
00010000
00100000
00010000
01000000
00000000
00100000
10000000
01000000
00100000
01000000
10000000
00010000
00000000
,
01000000
00001000
00010000
00000010
00010000
00001000
01000000
00000000
01010000
00000000
01000000
00000000
01010000
00000000
00010000
00000000
,
00100000
00010000
00100000
00001000
00010000
00000100
00001000
00000000
00001100
00000000
00001000
00000000
00001010
00000000
00000010
00000000
,
00000001
00000100
00001000
00010000
00100000
10000000
00010000
01000000
,
00100000
01000000
00010000
00100000
00010000
10000000
01000000
00100000
00010000
01000000
00001000
00010000
00000010
00001000
00000100
00000010
,
00000001
00000000
00000000
00000000
00000100
00000000
00000010
00001000
,
00000100
00000000
00000000
00010000
00001000
00000000
00100000
00000000
00010000
00000000
00000000
01000000
00100000
00000000
10000000
00000000
,
01000000
00000000
00000000
10000000
00010000
00000000
01000000
00000000
00001000
00000000
00000000
00010000
00000100
00000000
00001000
00000000
,
00000001
00000000
00000000
00001000
00000010
00000000
00001000
00000000
00000100
00000000
00000000
00010000
00001000
00000000
00100000
00000000
,
00010000
00000000
00000000
01000000
00100000
00000000
10000000
00000000
01000000
00000000
00100000
00000000
01000000
00000000
10000000
00000000
,
00010000
00000000
00000000
01000000
00001000
00000000
00010000
00000000
00000100
00000000
00001000
00000000
00000001
00000000
00001000
00000000
,
00000010
00000000
00000000
00000100
00000001
00000000
00000100
00000000
00000010
00000000
00001000
00000000
00000100
00000000
00010000
00000000
,
00001000
00000000
00000000
00100000
00010000
00000000
10000000
00000000
01000000
00000000
00100000
00000000
01000000
00000000
10000000
00000000
,
00010000
01000000
00001000
00010000
00000010
00001000
00000100
00010000
,
00000010
00000000
00000000
00001000
00000100
00000000
00000010
00000000
00000001
00000000
00000100
00000000
00000010
00000000
00001000
00000000
,
00000100
00000000
00000000
00010000
00001000
00000000
01000000
00000000
00010000
00000000
10000000
00000000
01000000
00000000
00100000
00000000
,
01000000
00000000
00000000
10000000
00010000
00000000
00100000
00000000
00010000
00000000
01000000
00000000
00001000
00000000
00010000
00000000
,
00000100
00000000
00000000
00010000
00001000
00000000
00100000
00000000
00001000
00000000
00010000
00000000
00000010
00000000
00001000
00000000
,
00000001
00000000
00000000
00000100
00000010
00000000
00001000
00000000
00000100
00000000
00010000
00000000
00001000
00000000
00100000
00000000
,
00010000
00000000
00000000
10000000
00100000
00000000
10000000
00000000
01000000
00000000
00100000
00000000
01000000
00000000
10000000
00000000
,
00010000
00000000
00000000
01000000
00001000
00000000
00010000
00000000
00000100
00000000
00010000
00000000
00001000
00000000
00000010
00000000
,
00000001
00000000
00000000
00001000
00000010
00000000
00001000
00000000
00000100
00000000
00010000
00000000
00001000
00000000
01000000
00000000
,
00010000
00000000
00000000
00100000
00010000
00000000
10000000
00000000
00100000
00000000
10000000
00000000
01000000
00000000
00010000
00000000
,
01000000
00000000
00000000
10000000
00100000
00000000
01000000
00000000
00010000
00000000
00001000
00000000
00000010
00000000
00000001
00000000
,
00000010
00000000
00000000
00001000
00000100
00000000
00010000
00000000
00001000
00000000
00010000
00000000
00100000
00000000
10000000
00000000
,
01000000
00000000
00000000
10000000
00100000
00000000
10000000
00000000
01000000
00000000
00010000
00000000
00001000
00000000
00000010
00000000
,
00000001
00000000
00000000
00001000
00000010
00000000
00001000
00000000
00000100
00000000
00010000
00000000
01000000
00000000
10000000
00000000
,
00010000
00000000
00000000
01000000
00001000
00000000
00010000
00000000
00000100
00000000
00000010
00000000
00001000
00000000
00000010
00000000
,
00000001
00000000
00000000
00001000
00000010
00000000
00001000
00000000
00000100
00000000
00010000
00000000
01000000
00000000
10000000
00000000
,
00010000
00000000
00000000
01000000
00001000
00000000
00010000
00000000
00000010
00000000
00010000
00000000
00001000
00000000
00100000
00000000
,
10000000
00100000
00010000
01000000
00001000
00000100
00000001
00001000
,
00000001
00000010
00000100
00001000
00000001
00001000
00000010
00010000
00001000
01000000
00010000
10000000
00100000
01000000
10000000
00010000
,
01000000
00000000
00000000
00000000
;
