#VERSION:0.83;
#TITLE:GLORY \: ROAD;
#SUBTITLE:;
#ARTIST:uma vs. モリモリあつし;
#TITLETRANSLIT:;
#SUBTITLETRANSLIT:;
#ARTISTTRANSLIT:;
#GENRE:;
#ORIGIN:;
#CREDIT:;
#BANNER:GLORY ROAD.png;
#BACKGROUND:GLORY ROAD-bg.png;
#PREVIEWVID:;
#JACKET:GLORY ROAD-jacket.png;
#CDIMAGE:;
#DISCIMAGE:;
#LYRICSPATH:;
#CDTITLE:;
#MUSIC:GLORY ROAD.ogg;
#OFFSET:1.440000;
#SAMPLESTART:94.320000;
#SAMPLELENGTH:15.000000;
#SELECTABLE:YES;
#BPMS:0.000=125.000,
19.000=250.000,
61.000=125.000,
75.000=250.000,
159.000=125.000,
170.000=250.000,
228.000=125.000,
251.000=250.000,
269.000=125.000,
281.000=250.000,
409.000=125.000,
411.000=250.000,
439.000=125.000,
451.000=250.000;
#STOPS:;
#DELAYS:;
#WARPS:;
#TIMESIGNATURES:0.000=4=4;
#TICKCOUNTS:0.000=4;
#COMBOS:0.000=1;
#SPEEDS:0.000=1.000=0.000=0;
#SCROLLS:0.000=1.000;
#FAKES:;
#LABELS:0.000=Song Start;
#BGCHANGES:;
#KEYSOUNDS:;
#ATTACKS:
;

//---------------dance-single - Talkion----------------
#NOTEDATA:;
#CHARTNAME:;
#STEPSTYPE:dance-single;
#DESCRIPTION:Talkion;
#CHARTSTYLE:;
#DIFFICULTY:Beginner;
#METER:8;
#RADARVALUES:0.245614,0.306403,0.021053,0.126316,0.000000,245.000000,242.000000,3.000000,18.000000,0.000000,0.000000,0.000000,0.000000,0.000000,0.245614,0.306403,0.021053,0.126316,0.000000,245.000000,242.000000,3.000000,18.000000,0.000000,0.000000,0.000000,0.000000,0.000000;
#CREDIT:;
#NOTES:
// measure 0
0000
0000
0000
0000
,  // measure 1
0000
0000
0000
0000
,  // measure 2
0000
0000
0000
0000
,  // measure 3
0000
0000
0000
0000
,  // measure 4
0000
0000
0000
0000
,  // measure 5
0000
0002
0000
0003
,  // measure 6
0000
2000
0000
3000
,  // measure 7
0000
0020
0000
0030
,  // measure 8
0000
1000
1000
1000
,  // measure 9
0000
0001
0000
0001
,  // measure 10
0000
0100
0100
0100
,  // measure 11
0000
0000
0010
0000
0000
0010
0000
0000
,  // measure 12
0010
0000
0000
0010
0000
0000
0010
0000
,  // measure 13
0000
0000
0100
0000
0000
0200
0000
0000
,  // measure 14
0000
0300
0000
0000
0000
0000
0000
0000
,  // measure 15
0000
0001
0000
0001
,  // measure 16
0000
1000
0000
1000
,  // measure 17
0000
0001
0000
0001
,  // measure 18
0000
1000
0000
1000
,  // measure 19
0000
0000
0000
0001
,  // measure 20
0000
0100
0000
0001
,  // measure 21
0000
0100
0000
0001
,  // measure 22
0000
1000
0000
0200
,  // measure 23
0000
0300
0000
0100
,  // measure 24
0000
1000
0000
0100
,  // measure 25
0000
1000
0000
0001
,  // measure 26
0000
0100
0000
0002
,  // measure 27
0000
0003
0000
0001
,  // measure 28
0000
0001
0000
0000
0001
0000
0000
0001
,  // measure 29
0000
0000
0000
1000
,  // measure 30
0000
1000
0000
0000
1000
0000
0000
1000
,  // measure 31
0000
0000
0000
0002
,  // measure 32
0000
0000
0000
0100
,  // measure 33
0000
0103
0000
2000
,  // measure 34
0000
0000
0000
0100
,  // measure 35
0000
3100
0000
0010
,  // measure 36
0000
0010
0000
0000
0010
0000
0000
0010
,  // measure 37
0000
0000
0000
0100
,  // measure 38
0000
0100
0000
0000
0100
0000
0000
0100
,  // measure 39
0000
0000
0000
0002
,  // measure 40
0000
0000
0000
1003
,  // measure 41
0000
0000
0000
1001
,  // measure 42
0000
0000
0000
0000
,  // measure 43
1000
0000
0000
0100
0000
0000
0000
0000
,  // measure 44
0001
0000
0000
0100
0000
0000
0000
0000
,  // measure 45
1000
0000
0001
0000
,  // measure 46
1000
0000
0001
0000
,  // measure 47
0100
0000
0010
0000
,  // measure 48
0200
0000
0300
0000
,  // measure 49
0001
0000
0010
0000
,  // measure 50
0001
0000
0010
0000
,  // measure 51
0100
0000
1000
0000
,  // measure 52
0010
0010
0010
0000
,  // measure 53
1000
1000
1000
0000
,  // measure 54
0001
0001
0001
0000
,  // measure 55
1000
0000
0100
0000
,  // measure 56
1000
0000
1001
0000
,  // measure 57
0001
0000
0001
0001
,  // measure 58
1000
0000
1000
1000
,  // measure 59
0010
0000
0010
0010
,  // measure 60
0200
0000
0300
0000
,  // measure 61
0001
0001
1000
0000
,  // measure 62
1000
1000
0001
0000
,  // measure 63
0000
0100
0100
0100
,  // measure 64
0000
0010
0010
0010
,  // measure 65
0000
1000
0000
2000
,  // measure 66
0000
3000
0000
0000
0000
0000
0000
0000
,  // measure 67
0000
1001
0000
0001
,  // measure 68
0000
1000
0000
0010
,  // measure 69
0000
0100
0000
0001
,  // measure 70
0000
1000
0000
0000
,  // measure 71
0000
0100
0000
0000
0100
0000
0100
0000
,  // measure 72
0000
1000
0000
0001
,  // measure 73
0000
1000
0000
0001
,  // measure 74
0000
0100
0000
0010
,  // measure 75
0000
1000
1000
1000
,  // measure 76
0000
0001
0000
0010
,  // measure 77
0000
0001
0000
0010
,  // measure 78
0000
0100
0000
1000
,  // measure 79
0000
0002
0000
0003
,  // measure 80
0000
0100
0000
0010
,  // measure 81
0000
0100
0000
0010
,  // measure 82
0000
1000
0000
0001
,  // measure 83
0000
2000
0000
3000
,  // measure 84
0000
0100
0000
0010
,  // measure 85
0000
0100
0000
0010
,  // measure 86
0000
0001
0000
1000
,  // measure 87
0000
0000
0001
0000
0000
0001
0000
0000
,  // measure 88
0000
0100
0000
0010
,  // measure 89
0000
0100
0000
0010
,  // measure 90
0000
1000
0000
0001
,  // measure 91
0000
0010
0010
0010
,  // measure 92
0000
0001
0001
0001
,  // measure 93
0000
1000
1000
1000
,  // measure 94
0000
0010
0000
0100
,  // measure 95
0000
0020
0000
0030
,  // measure 96
0000
1000
0000
1000
,  // measure 97
0000
0001
0000
0001
,  // measure 98
0000
1000
0000
1000
,  // measure 99
0000
0010
0010
0010
,  // measure 100
0010
0010
0000
0100
,  // measure 101
0000
0100
0100
0100
,  // measure 102
0100
0200
0000
0300
,  // measure 103
0000
0000
0000
0001
,  // measure 104
0001
0001
0000
1000
,  // measure 105
1000
1000
0000
0001
,  // measure 106
0000
1000
0000
0000
0001
0000
0000
1000
,  // measure 107
0000
0010
0010
0010
,  // measure 108
0000
0200
0000
0000
0000
0300
0000
0000
,  // measure 109
0000
0000
0000
0001
,  // measure 110
0000
0001
0000
0000
1000
0000
0000
1000
,  // measure 111
0000
0000
0010
0000
0000
0010
0000
0000
,  // measure 112
0100
0000
0000
0100
0000
0000
0001
0000
,  // measure 113
0000
0000
1000
1000
,  // measure 114
1000
0010
0000
0000
,  // measure 115
0100
0100
0100
0001
,  // measure 116
0000
0000
0010
0010
,  // measure 117
0010
0100
0000
0000
,  // measure 118
1000
1000
1000
0001
,  // measure 119
0000
1000
0001
0000
,  // measure 120
1000
0001
0000
1000
,  // measure 121
0001
0000
0100
0020
,  // measure 122
0000
0000
0000
0000
,  // measure 123
0000
0000
0000
0000
,  // measure 124
0000
0000
0000
0030
;

//---------------dance-single - Talkion----------------
#NOTEDATA:;
#CHARTNAME:;
#STEPSTYPE:dance-single;
#DESCRIPTION:Talkion;
#CHARTSTYLE:;
#DIFFICULTY:Easy;
#METER:12;
#RADARVALUES:0.470175,0.700351,0.189474,0.491228,0.007018,469.000000,442.000000,27.000000,70.000000,0.000000,0.000000,0.000000,0.000000,0.000000,0.470175,0.700351,0.189474,0.491228,0.007018,469.000000,442.000000,27.000000,70.000000,0.000000,0.000000,0.000000,0.000000,0.000000;
#CREDIT:;
#NOTES:
0000
0000
0000
0000
,
0000
0000
0000
0000
,
0000
0000
0000
0000
,
0000
0000
0000
0000
,
0000
0000
0000
0000
,
0000
2002
0000
0000
,
3003
0202
0000
0000
,
0303
0220
0000
0000
,
0330
1000
0100
0010
,
0001
2000
3200
0310
,
0100
0000
1000
0100
0010
0000
0001
1000
,
0001
1000
0001
0000
0000
0100
0000
0000
,
0010
0000
0000
1000
0000
0000
0001
0000
,
0001
0000
1000
0000
0000
0200
0000
0000
,
0000
0020
0000
0000
0000
0000
0000
0000
,
0330
0002
0000
2003
,
0000
3020
0000
0100
,
0130
0000
0001
1000
0001
0000
1000
0001
,
1000
0000
0010
0100
0010
0000
2000
0000
,
0000
0100
3100
0010
,
0001
0020
0000
0000
0031
0000
1000
0000
,
0010
2000
0000
0000
3010
0000
0100
0000
,
0100
0000
0001
1000
0001
0000
0020
0000
,
0000
0130
0010
0000
0100
0000
1000
0000
,
0001
1000
0000
0001
1000
0000
0010
0000
,
0000
0100
0000
0000
0001
0000
1000
0000
,
0001
1000
0000
0001
1000
0000
0200
0000
,
0000
0310
0000
0001
,
0000
0011
0000
0000
0001
0000
0000
0101
,
0000
0000
0000
1000
,
0000
1010
0000
0000
1000
0000
0000
1100
,
0000
0000
0000
0001
,
0100
0001
0001
1000
,
0100
1000
1000
0001
,
0100
0001
0001
1000
,
0100
0010
0001
1000
,
0000
1010
0000
0000
0010
0000
0000
0110
,
0000
0000
0000
0001
,
0000
0011
0000
0000
0010
0000
0000
0110
,
0000
0000
0000
2000
,
3002
0000
0000
0023
0000
0000
0000
0000
0230
0000
0000
0000
2300
0000
0000
0000
,
0000
3000
0000
1001
,
0000
0000
0001
1000
0001
0010
0100
1000
,
0001
0000
0000
0100
0000
0000
0010
0000
,
1000
0000
0001
0000
1000
0001
0100
0000
,
0010
0000
0100
0010
0000
0000
0110
0000
,
0100
0000
0001
0100
0000
0000
0101
0000
,
0002
0000
0000
0000
1003
0100
0010
0000
,
0001
1000
1001
0000
,
1000
0000
0010
0200
0000
0000
0301
0000
,
1000
0000
0100
0020
0000
0000
0031
0000
,
1000
0010
0100
0001
,
1000
0001
1000
0001
1000
0000
0010
0000
,
0200
0302
0013
0001
,
0200
0302
0013
0100
,
1000
0000
0000
0001
1000
0001
0200
0000
,
0020
0330
0110
0000
,
1000
0000
0100
0000
1000
0100
0001
0000
,
0100
0000
0001
0000
0100
0001
0010
0000
,
0001
0000
0010
0000
0001
0010
1000
0000
,
0001
1000
1001
0000
,
0001
0000
0010
0000
0001
0100
0010
0000
,
1000
0000
0010
0000
1000
0100
0010
0000
,
0000
0001
0001
0001
,
0001
1000
1000
1000
,
1000
0000
0010
0100
0010
0000
0200
0000
,
0000
0002
0000
0000
0000
0000
0000
0000
,
0303
2000
0000
3020
,
0000
0000
0000
0000
0230
0000
0000
0302
0000
0000
0000
0000
1003
0000
0000
0000
,
0000
0002
0000
0023
,
0000
0130
1000
0001
,
0000
1001
0000
0000
0100
0000
0100
0000
,
0001
0000
1000
0000
0100
0020
0000
0000
,
1030
0000
0010
0000
0001
0200
0000
0000
,
0310
1000
0100
0010
,
0001
0000
0010
0100
0010
0100
0010
0000
,
0001
2000
3020
0031
,
0010
2000
3020
0130
,
0001
0000
1000
0000
0000
0001
1000
0001
,
0010
0000
0100
0010
0100
0000
1001
0000
,
0000
0000
0001
0000
0100
0002
0000
0000
,
0013
0000
1000
0000
0010
0002
0000
0000
,
0103
0000
0010
0000
1000
0002
0000
0000
,
0000
0010
0013
0001
,
1000
0001
1000
0000
0010
0200
0000
0000
,
1300
0000
0100
0000
0010
2000
0000
0000
,
3001
0000
0010
0001
0010
0000
0001
0000
,
1000
0000
0010
0000
0000
0100
0000
0000
,
0110
0000
0001
0000
0010
2000
0000
0000
,
3010
0000
0001
0000
0100
2000
0000
0000
,
3100
0001
0010
0100
,
1000
0002
0203
0320
,
1030
0002
0023
1030
,
0001
0200
2300
3001
,
0100
0000
0010
0000
0000
0100
0010
0100
,
0002
2000
3003
1001
,
0000
1000
0100
0001
,
0100
1000
0010
0001
,
0010
1000
0100
0010
,
0001
0000
1000
0001
1000
0001
1000
0001
,
1000
0000
0001
0100
0001
0000
1000
0100
,
1000
0011
0011
1100
,
1100
2002
3003
0001
,
0100
0000
0010
0000
1000
0000
0001
0100
,
0001
0100
0001
0100
0001
0000
1000
0000
,
0100
0020
0000
0130
1000
0000
0001
0000
,
0000
0100
0000
0000
1000
0000
0100
0010
,
0100
0010
0100
0010
0100
0000
0001
0000
,
0000
0020
0000
0000
0000
0200
0000
0000
,
0000
0000
0330
1000
,
0000
0100
0000
0000
0001
0000
0000
0010
,
0000
0000
1000
0000
0000
0100
0000
0000
,
0010
0000
0000
0001
0000
0000
1000
0000
,
1000
0000
1000
0000
0010
0100
0001
0100
,
0010
1000
1000
1000
,
0100
0010
0001
0010
0100
0000
1000
0000
,
1000
0000
1000
0000
0001
0100
0010
1000
,
0100
0001
0001
0001
,
0100
0010
0001
0100
0010
0000
1000
0000
,
0100
0010
0001
0100
,
0010
0000
1000
0001
1000
0001
1000
0000
,
0020
0000
0030
1002
,
0000
0000
0000
0000
,
0000
2000
0000
0000
,
0000
0000
0000
3003
;

//---------------dance-single - Talkion----------------
#NOTEDATA:;
#CHARTNAME:;
#STEPSTYPE:dance-single;
#DESCRIPTION:Talkion;
#CHARTSTYLE:;
#DIFFICULTY:Medium;
#METER:15;
#RADARVALUES:0.695739,0.831667,0.371930,0.687719,0.084211,694.000000,641.000000,53.000000,98.000000,0.000000,0.000000,0.000000,0.000000,0.000000,0.695739,0.831667,0.371930,0.687719,0.084211,694.000000,641.000000,53.000000,98.000000,0.000000,0.000000,0.000000,0.000000,0.000000;
#CREDIT:;
#NOTES:
0000
0000
0000
0000
,
0000
0000
0000
0000
,
0000
0000
0000
0000
,
0000
0000
0000
0000
,
0000
0000
0000
2001
,
3100
0220
0000
0000
,
0330
0022
0000
0000
,
0033
2002
0000
0000
,
3003
1010
0110
0101
,
1001
0000
1000
0100
0010
0100
1000
0100
,
0010
0000
0001
0100
0010
0100
0001
0100
,
0020
0000
1030
2000
0000
3100
0200
0000
,
0310
0020
0000
0031
0002
0000
1003
0010
,
0100
0000
0010
0010
1000
0100
0020
0000
,
0030
2002
0000
0000
0000
0000
0000
0000
,
3003
0000
0000
0000
0002
0000
0000
0203
0000
0000
0000
0000
2300
0000
0000
3200
,
0000
0000
0000
0000
0302
0000
0000
0023
0000
0000
0130
0000
1000
0000
0000
1000
,
0001
0000
0001
0001
0100
0100
0010
0010
,
1000
1000
0100
0100
0200
0000
0320
0000
,
0000
0000
0100
0000
0130
0000
1000
0010
,
1000
0020
0000
0130
0001
0000
0010
0001
,
0010
0002
0000
0103
0010
0000
0100
0001
,
0100
0001
1000
0100
0001
0100
2000
0000
,
0000
0001
3001
0000
0100
0001
0010
0000
,
0100
2000
0000
3010
1000
0100
0020
0000
,
0001
1000
0031
1001
,
0100
0002
0000
0013
0001
0100
0010
0100
,
0010
0110
0000
1100
,
0000
1010
0000
0000
1100
0000
0000
1010
,
0000
0100
0100
0011
,
0000
0101
0000
0000
0011
0000
0000
0101
,
0000
0000
0010
0000
0010
0000
1000
0100
,
1000
0000
0100
0001
0100
0000
1000
0100
,
1000
0000
0010
0100
0010
0100
0001
0010
,
0001
0000
0010
1000
0010
0000
0001
0010
,
0001
0000
0100
0010
0100
0010
1000
0000
,
0000
1100
0000
0000
0101
0000
0000
1100
,
0000
0100
0100
0011
,
0000
1010
0000
0000
0011
0000
0000
1010
,
0000
0000
0000
0000
0100
0000
0010
0000
0100
0000
0000
0000
0001
0010
0001
0000
,
1000
0010
1000
0010
0000
0100
0001
0000
1000
0100
0001
0100
0020
0000
0000
0000
,
0000
0000
0000
0000
0030
0000
0000
0000
0001
0010
0100
1000
0002
0000
0000
0203
,
0000
0000
0010
0310
1000
0100
0010
0001
,
1000
0000
0000
1010
0000
0010
0100
0000
,
0010
0001
0010
1000
0010
0100
0010
0000
,
0100
0000
0001
0010
0000
0010
0001
0100
,
0010
0000
1000
0100
0000
0100
1000
0010
,
0100
0000
1000
0100
0001
0010
1000
0000
,
0110
0011
2020
3030
,
0010
0000
0100
0002
0000
0013
0100
1000
,
0010
0000
0100
0020
0000
1030
0100
0010
,
0001
0000
1001
0000
1000
0010
0100
0000
,
1000
0100
0001
0100
1000
0100
0010
0000
,
0100
0001
0010
0001
0100
0001
0010
0000
,
0100
1000
0010
1000
0100
1000
0010
0000
,
0200
0000
0000
0001
0301
1000
0100
0010
,
0002
0003
2002
3003
,
1000
0010
0001
1000
0100
0001
1001
0000
,
0001
0000
0000
0010
0001
0000
0100
0000
0010
0000
0000
0000
0110
0000
0000
0000
,
0001
0010
1000
0001
0100
1000
1001
0000
,
1000
0000
0001
0000
1000
0100
1000
0100
0020
0000
0000
0000
0030
0000
0000
0000
,
0001
0100
1000
0001
0010
1000
1001
0000
,
1000
0000
0000
0100
1000
0000
0010
0000
0100
0000
0000
0000
0100
0000
0001
0000
,
0010
0100
1000
0000
1000
0000
0011
0000
,
1010
0001
0001
1100
,
0101
0000
1000
0100
0001
0100
0020
0000
,
0030
2002
0000
0000
0000
0000
0000
0000
,
3003
0000
0000
0000
2000
0000
0000
3020
0000
0000
0000
0000
0032
0000
0000
0023
,
0000
0000
0000
0000
2030
0000
0000
3200
0000
0000
2300
0000
3001
0000
0000
0000
,
0001
0100
0010
1000
0002
0000
0000
0023
0000
0000
0000
0000
2030
0000
0000
3020
,
0000
0000
0031
1000
1000
0010
1000
0000
,
0000
1001
0000
0000
1100
0000
0101
0000
,
0002
0000
1003
0000
0100
0020
0000
1030
,
0010
0001
0100
0000
0010
0200
0000
1300
,
0100
0001
0010
0000
0010
0000
0100
1000
,
0010
0000
0100
0010
1000
0010
0100
0010
,
1000
0000
0001
0010
1000
0010
0001
0010
,
1000
0000
0010
0100
1000
0100
0010
0100
,
1000
0000
0002
0000
0000
0100
0103
0010
,
1000
0100
0010
0100
1000
0100
0010
0000
,
0002
0000
1003
0000
0010
0002
0000
0013
,
1000
0100
0010
0000
0100
0002
0000
0103
,
1000
0010
0100
0001
1000
0200
0000
0000
,
0001
0000
1000
0000
0301
0000
0100
0010
,
0001
1000
0001
0000
0100
0020
0000
0031
,
1000
0100
0001
0000
0010
0200
0000
0301
,
1000
0010
0001
1000
0001
0000
0100
0000
,
0100
0010
1000
0100
0010
0001
0100
0010
,
2000
0000
3001
0000
0010
2000
0000
3001
,
0100
1000
0001
0000
1000
0020
0000
0031
,
1000
0100
0001
1000
0001
1000
0100
0001
,
0100
1000
0200
0000
0320
0000
0032
0000
,
1003
0000
0001
0100
1000
0100
0001
0100
,
1000
0000
0100
0010
1000
0010
0100
0010
,
1000
0000
0002
0000
0000
0010
0013
0100
,
1000
0010
0200
0000
0000
0300
2002
0000
,
3003
0000
1000
0100
0010
0000
0001
0100
,
0010
0000
0001
0010
1000
0000
0001
0010
,
1000
0000
0010
0100
1000
0100
0010
0100
,
1000
0000
0001
0001
1000
0001
1000
1000
,
0001
1000
0010
0000
0010
0100
0001
0100
,
0010
0100
0002
0013
2000
3010
0002
0013
,
2000
3010
0002
0000
0000
0000
1003
0010
,
0010
0100
0010
0000
0110
0000
0001
0001
,
1000
1000
0001
0100
1000
0100
0001
0010
,
0100
1000
0010
0100
0002
0000
1003
0100
,
1000
0001
0100
0001
1000
0100
0020
1030
,
0020
0031
0020
1030
0020
0031
0100
0010
,
0010
0100
0020
0000
0030
2002
0000
0000
,
0000
0000
3003
2000
,
0000
3200
0000
0000
0302
0000
0000
0023
,
0000
0000
2030
0000
0000
3200
0000
0000
,
0320
0000
0000
0031
0000
0000
0001
0100
,
1000
0100
0001
0000
0100
0100
0010
0010
,
1000
0000
0001
0010
1000
0010
0001
0000
,
0010
0010
0100
0100
1000
0000
0010
0001
,
0010
1000
0010
0000
0100
0100
0001
0001
,
0010
0000
0100
0001
0100
1000
0100
0000
,
0010
0010
0001
0001
0100
0000
1010
0000
,
1001
1100
0011
1001
,
0101
0000
0010
1000
0010
1000
0010
1000
,
0200
0000
0000
0000
0310
0001
2000
0000
,
0000
0000
0000
0000
,
0000
0002
0000
0000
,
0000
0000
0000
3003
;

//---------------dance-single - Talkion----------------
#NOTEDATA:;
#CHARTNAME:;
#STEPSTYPE:dance-single;
#DESCRIPTION:Talkion;
#CHARTSTYLE:;
#DIFFICULTY:Hard;
#METER:18;
#RADARVALUES:0.973434,1.181842,0.477193,0.736842,0.607018,971.000000,903.000000,68.000000,105.000000,0.000000,0.000000,0.000000,0.000000,0.000000,0.973434,1.181842,0.477193,0.736842,0.607018,971.000000,903.000000,68.000000,105.000000,0.000000,0.000000,0.000000,0.000000,0.000000;
#CREDIT:;
#NOTES:
0000
0000
0000
0000
,
0000
0000
0000
0000
,
0000
0000
0000
0000
,
0000
0000
0000
0000
,
0000
0000
0000
1001
,
1000
0001
1000
0001
0200
0000
0000
0000
0310
0000
0200
0000
0000
0000
0301
0000
,
0010
0100
2000
0000
3001
2000
0000
3100
,
0010
0001
0200
0000
1000
0000
0010
0000
,
0301
0011
1010
1100
,
0101
0000
0001
0010
0100
0010
0001
0010
,
0100
0010
0100
0000
1000
0000
0001
0000
0100
0000
0001
0000
1000
0001
1000
0001
,
1000
0001
1000
0001
0100
0000
0010
0000
0010
0000
0100
0000
1000
0000
1000
0000
,
0100
0001
0001
0100
0010
0010
1000
0100
,
0010
0000
0001
0000
1000
0000
0001
0000
0001
0000
1000
0000
0010
0100
0010
0100
,
0002
2000
0000
0000
0000
0000
0000
0000
,
3003
0000
0000
0000
0001
0010
0100
2000
0000
3001
1000
0000
0001
0100
0010
2000
,
0000
3001
1000
0000
0001
0010
0100
0002
0000
0103
0010
0001
0200
0000
0000
0010
,
0310
0000
0000
0000
1100
0000
1100
0000
0110
0000
0001
0010
0100
0010
0001
0000
,
0110
0000
0101
0101
2100
0000
0002
0000
,
3003
0000
0000
0000
0001
1000
0001
1000
0001
1000
0001
1000
0010
0000
0100
0000
,
0010
2000
0000
3100
0010
0001
0100
0010
,
0100
0002
0000
0013
0100
1000
0100
0010
,
0100
0000
1000
0000
0001
0100
0001
0100
0010
0100
0010
0100
0002
0000
0000
0000
,
0000
1000
1003
0000
1001
0001
0020
0000
,
0031
0100
1000
0100
0010
1000
0200
0000
,
0000
0010
0310
0000
0110
0000
0200
0000
,
1300
0000
0010
0000
0001
0000
0010
0000
0100
0000
0001
0000
1000
0001
1000
0001
,
0100
0001
0100
0002
2000
0000
0000
0000
3003
0000
0000
0000
2200
0000
3300
0000
,
0000
2002
3003
0000
0202
0303
0000
2002
,
3003
0000
0100
0010
0100
0010
0220
0330
,
0000
2200
3300
0000
0220
0330
0000
0202
,
0303
0000
0010
0010
0010
0000
1000
0100
,
1100
0000
0001
0100
0101
0000
1000
0100
,
1000
0001
1000
0010
1000
1000
0001
0010
,
0011
0000
1000
0010
1010
0000
0001
0010
,
0001
1000
0001
0100
0010
1000
2002
3003
,
0000
0022
0033
0000
0220
0330
0000
2200
,
3300
0000
1000
0010
0100
0001
2002
3003
,
0000
2020
3030
0000
0220
0330
0000
0202
,
0303
0000
0000
0000
1000
0000
1000
0000
1000
0000
0000
0000
0001
0010
0100
0010
,
0001
0000
1000
0001
1000
0000
0010
0000
0000
0000
0010
0000
0100
0000
1000
0000
0100
0000
0010
0000
0100
0010
0100
0010
2000
0000
0000
0000
0000
0000
0000
0000
,
0000
0000
0000
0000
3000
0000
0000
0000
1000
0100
0010
0001
1000
0000
0001
0200
,
0000
0310
0100
0001
0010
0000
0001
0001
0001
0000
0100
0000
0010
0000
1000
0000
,
2001
0000
0000
0100
0000
0010
3010
0000
,
0100
1000
0100
0001
0100
0010
0100
0000
,
0110
0000
0001
0011
0000
0010
0110
0000
,
1001
0000
1000
1010
0000
0010
0110
0000
,
0100
0100
0001
1000
0100
0100
1000
0001
,
0100
0000
1000
0000
0100
0000
0001
0000
0100
0000
0000
0000
0100
0010
0100
0010
,
2000
0000
3100
2000
0000
3010
0001
0010
,
0200
0000
0301
0200
0000
0310
1000
0100
,
0010
0000
0011
0000
0001
1000
1001
0000
,
0010
0010
0100
0100
0010
0100
0110
0000
,
1000
0000
0100
0000
0010
0000
0100
0000
1000
0000
0100
0000
0010
0100
0010
0000
,
0001
0000
1000
0000
0010
0000
1000
0000
0001
0000
1000
0000
0010
0100
0010
0100
,
0002
0000
0000
0000
1003
0000
1000
0010
1000
0000
0100
0000
0010
0000
0001
0000
,
0200
0000
0000
0310
0200
0000
0000
0000
,
0301
0000
1000
0100
1000
0100
0000
0001
0100
1000
0000
1000
0002
0000
0000
0000
,
0103
0000
0000
0100
0110
0000
0010
0000
0110
0100
0000
0000
1001
0000
0000
0000
,
2000
0000
0000
0000
3100
0010
0001
0100
0010
0010
0100
0000
0002
0000
0000
0000
,
2003
0000
0000
0000
3100
0010
0001
0010
0200
0000
0000
0000
0300
0100
0010
0001
,
0100
0000
0001
0010
0001
0010
0000
1000
0010
0001
0000
0001
2000
0000
0000
0000
,
3010
0000
0000
0010
0110
0000
0100
0000
0110
0010
0000
0000
1000
0000
0100
0000
,
0010
0001
0101
0000
0101
0000
0101
0100
,
0010
1000
1010
0000
1010
0000
1010
1000
,
0100
0000
0010
0000
0001
0000
1000
0000
1000
0000
0001
0000
0100
0010
0100
0010
,
0100
0020
0200
0000
0000
0000
0000
0000
0000
0000
0000
0000
0000
0000
0000
0000
,
0330
0000
0000
0000
0001
0000
0100
0020
0000
1030
0010
0100
0001
0000
0010
0200
,
0000
1300
0100
0010
0001
0000
0100
0020
0000
0000
1000
0000
0130
0000
0000
0100
,
0001
0010
0100
1000
0001
0000
0100
0020
0000
0031
0010
0100
0001
0000
1000
0200
,
0000
0310
0100
1000
0001
0000
1000
0001
1000
0000
0100
0000
0110
0000
0000
0000
,
0010
0021
0000
0000
1000
0000
0031
0000
,
1000
0001
1000
0001
0020
0000
0000
0000
0031
0000
0020
0000
0000
0000
1030
0000
,
0010
0001
0200
0000
1300
0200
0000
0301
,
0100
0010
1000
0000
1100
0000
0100
0010
,
0110
0000
0001
0001
1000
1000
0001
1000
,
1001
0000
0001
0100
1000
0100
0001
0100
,
0010
0100
0010
0000
1000
0000
0100
0000
0001
0000
0100
0000
1000
0000
0100
0000
,
0010
0100
0010
0000
0001
0000
1000
0000
1000
0000
0001
0000
0100
0000
0010
0000
,
0010
0100
0001
0010
0100
1000
0010
0100
,
0110
0000
0002
0000
0013
0002
0000
0103
,
1000
0001
0020
0000
1030
0020
0000
0130
,
0010
1000
0100
0010
0001
2000
0000
0010
,
3010
0000
0110
0000
0100
0001
0010
0100
,
1000
0001
2000
0000
3010
2000
0000
3100
,
0001
1000
0020
0000
0031
0020
0000
0130
,
0010
0001
0100
0100
0010
0000
0010
0100
,
0001
1000
0100
0100
0001
0100
0100
0010
,
0001
1000
0001
1000
0020
0000
0000
0000
0130
0000
0020
0000
0000
0000
0031
0000
,
1000
0100
0002
0000
1003
0002
0000
0013
,
0001
0100
0010
0010
1000
1000
0100
0100
,
0010
0000
0000
0010
0000
0000
0001
0000
1000
0000
0001
0000
0100
0000
0010
0000
1000
0000
0100
0000
0010
0000
0001
0000
,
1000
0000
1000
0010
0001
0010
1000
0010
,
0100
0010
0100
0000
0001
0000
0010
0000
1000
0000
0010
0000
0001
0000
0010
0000
,
0100
0010
0100
0010
0002
0000
0000
0000
1003
0000
1000
0010
1000
0000
0100
0000
,
0010
0001
0200
0000
0000
0310
0200
0000
,
0000
0000
0301
1000
0001
0010
0001
0100
,
0010
0001
1000
0100
0001
1000
0100
0010
,
0100
1000
0001
0100
1000
0100
0001
0100
,
1000
0100
0010
0010
0010
0010
0100
0100
,
0100
0100
0001
1000
0100
1000
0001
1000
,
0010
0000
1000
0000
0001
1000
0001
1000
0001
1000
0001
1000
0010
1000
0010
1000
,
0010
1000
0010
1000
0002
0000
0000
0000
0000
0000
0000
0000
0013
0000
0001
1000
,
0001
0000
0100
0000
0010
0000
1000
0000
1010
0000
0000
0000
1000
0001
1000
0001
,
1000
0001
1000
0001
0100
0001
0100
0001
0100
0001
0100
0001
1000
0000
0001
0100
,
0001
0000
1000
0001
1000
0000
0100
0000
0010
0000
0001
0000
1000
0000
1000
0000
,
0100
0000
0001
0000
0001
0000
0100
0000
1000
0000
1000
0000
0001
0100
0001
0100
,
0010
0100
0010
0100
0001
0100
0001
0100
0010
0100
0010
0100
0001
0000
1000
0000
,
1000
0000
0001
0000
1000
0100
0010
0001
2000
0000
0002
0000
0000
0000
0000
0000
,
0000
0000
0000
0000
0000
0000
0000
0000
3003
0000
0000
0000
0001
0100
0010
1000
,
0200
0000
0001
0000
0010
0000
1300
0000
0001
0010
0100
1000
0020
0000
0001
0000
,
0100
0000
1030
0000
0100
0010
0001
0100
0020
0000
0001
0000
0100
0000
1030
0000
,
0001
0010
0100
1000
0001
0100
0001
0010
0001
0100
0001
0000
1000
0000
0100
0000
,
0010
0000
0001
0000
1000
0000
0001
0000
0100
0000
0010
0100
0010
0000
1000
0001
,
1000
0000
0010
0100
0010
0000
1000
0000
0100
0000
0010
0000
0001
0000
0100
0000
,
0010
0000
1000
0001
1000
0000
0100
0010
0100
0000
1000
0001
1000
0000
0010
0000
,
0100
0000
0001
0000
0010
0000
0100
0000
1000
0000
0001
1000
0001
0000
0100
0010
,
0100
0000
0001
1000
0001
0000
0010
0000
0100
0000
0010
0000
0001
0000
1000
0000
,
0001
1000
0001
1000
0010
1000
0010
1000
0001
1000
0001
1000
0100
0000
0000
0000
,
0110
1001
0101
0110
,
1010
0000
1000
1000
0100
0100
0010
0010
,
0001
1000
0001
1000
0001
1000
0001
1000
0010
0000
0100
0000
0002
0000
0000
0000
,
0000
0000
0000
0000
,
0000
2000
0000
0000
,
0000
0000
0000
3003
;
