#TITLE:scar in the earth;
#SUBTITLE:;
#ARTIST:猫又Master;
#TITLETRANSLIT:;
#SUBTITLETRANSLIT:;
#ARTISTTRANSLIT:Nekomata Master;
#CREDIT:DigiMindAxel, silenttype01;
#BANNER:scar in the earth.png;
#BACKGROUND:scar in the earth-bg.png;
#LYRICSPATH:;
#CDTITLE:cdtitle.png;
#MUSIC:scar in the earth.mp3;
#OFFSET:-7.207;
#SAMPLESTART:88.910;
#SAMPLELENGTH:13.700;
#SELECTABLE:YES;
#DISPLAYBPM:141.000;
#BPMS:0.000=141.000,167.000=70.500,179.000=141.000;
#STOPS:136.000=0.426
;
#BGCHANGES:-20.000=scar in the earth.avi=1.000=1=1=0,
99999=-nosongbg-=1.000=0=0=0 // don't automatically add -songbackground-
;

//---------------dance-single - ----------------
#NOTES:
     dance-single:
     :
     Beginner:
     2:
     0.083,0.101,0.079,0.047,0.000:
0000
0000
0000
0000
,
0000
0000
0000
0000
,
0001
0000
0000
0000
,
1000
0000
0000
0000
,
0010
0000
0000
0000
,
0100
0000
0000
0000
,
0010
0000
0000
0000
,
1000
0000
0000
0000
,
0001
0000
0000
0000
,
1000
0000
0000
0000
,
0100
0000
0000
0000
,
0010
0000
0000
0000
,
1000
0000
0000
0000
,
0001
0000
0000
0000
,
1001
0000
0000
0000
,
0010
0000
0000
0000
,
1000
0000
0000
0000
,
0001
0000
0000
0000
,
1001
0000
0000
0000
,
0100
0000
0000
0000
,
1000
0000
0000
0000
,
0001
0000
0000
0000
,
1001
0000
0000
0000
,
0010
0000
0000
0000
,
1000
0000
0000
0000
,
0001
0000
0000
0000
,
0010
0000
0000
0000
,
0100
0000
0000
0000
,
1000
0000
0000
0000
,
0100
0000
0000
0000
,
0002
0000
0000
0000
,
0003
0000
0000
0000
,
2000
0000
0000
0000
,
3000
0000
0000
0000
,
0002
0000
0000
0003
,
0000
0000
0000
2000
,
0000
0000
0000
3000
,
0000
0000
0000
0100
,
0000
0000
0000
0010
,
0000
0000
0000
0001
,
0000
0000
0000
0010
,
0000
0000
0000
1001
,
0000
0000
0000
0110
,
0000
0000
0000
1001
,
0000
0000
0000
0110
,
0000
0000
0000
0100
,
0000
0000
0000
0001
,
0000
0000
0000
1000
,
0000
0000
0000
0100
,
0000
0000
0000
0010
,
0000
0000
0000
0001
,
0000
0000
0000
1000
,
0000
0000
0000
0010
,
0000
0000
0000
0100
,
0000
0000
0000
0010
,
0000
0000
0000
1000
,
0000
0000
0000
0001
,
0000
0000
0000
0010
,
0000
0000
0000
0100
,
0000
0000
0000
1000
,
0000
0000
0000
1001
,
0000
0000
0000
1001
,
0000
0000
0000
2002
,
0000
0000
0000
0000
,
0000
3003
0000
0000
;

//---------------dance-single - ----------------
#NOTES:
     dance-single:
     :
     Easy:
     3:
     0.188,0.202,0.118,0.228,0.000:
0000
0000
0000
0000
,
0000
0000
0000
0000
,
2000
0000
3000
0000
,
0002
0000
0003
0000
,
2000
0000
3000
0000
,
0020
0000
0030
0000
,
1001
0000
0001
0000
,
0001
0000
1000
0000
,
0200
0000
0000
0000
,
0320
0000
0000
0030
,
0001
0000
1000
0000
,
1000
0000
0020
0000
,
0130
0000
0100
0000
,
0110
0000
0000
0000
,
1001
0000
1000
0000
,
0100
0000
0010
0000
,
0100
0000
1000
0000
,
0001
0000
1000
0000
,
0010
0000
0100
0000
,
0001
0000
0010
0000
,
0100
0000
0100
0000
,
0010
0000
0000
0000
,
1001
0000
0001
0000
,
1000
0000
0001
0000
,
0100
0000
0100
0000
,
0100
0000
0000
0000
,
0110
0000
0010
0000
,
1000
0000
0001
0000
,
0100
0000
0100
0000
,
0100
0000
0000
0000
,
0110
0000
0020
0000
,
0030
0100
0010
0100
,
0002
0000
2003
0000
,
3000
0010
0100
0010
,
1000
1000
0000
0001
,
1000
0100
0000
1000
,
0000
0001
0000
1000
,
0001
0100
0000
1001
,
0000
2000
0000
3002
,
0000
2003
0000
3020
,
0000
0230
0000
0301
,
0000
1000
0000
1001
,
0001
1001
1000
0020
,
0000
0000
0000
0030
,
0000
0000
0000
1001
,
0000
1000
0000
0001
,
0000
0001
0000
0200
,
0000
0302
0000
1003
,
0100
1000
0100
1000
,
0001
0100
0000
0001
,
1000
0100
0000
0020
,
0000
0032
0000
0103
,
0000
0000
0000
1001
,
0000
2000
0000
3002
,
0000
2003
0000
3001
,
0100
0010
0000
0100
,
0001
0010
0100
2000
,
0000
3001
0000
1001
,
0000
0110
0000
1000
,
0100
1000
0000
0010
,
0100
0001
0010
0200
,
0000
0000
0300
0220
,
0000
0000
0330
2002
,
0000
0000
0000
0000
,
0000
3003
0000
0000
;

//---------------dance-single - ----------------
#NOTES:
     dance-single:
     :
     Medium:
     5:
     0.290,0.354,0.197,0.299,0.000:
0000
0000
0000
0000
,
0000
0000
0000
0000
,
2000
0000
3000
0000
,
0200
0000
0300
0000
,
0020
0000
0030
0000
,
0002
0000
0003
0000
,
1001
1000
0001
0000
,
0010
0100
2000
0000
,
3001
0000
1000
0000
,
0001
0000
1000
0000
,
0001
0010
0100
0000
,
1000
0010
0200
0000
,
0320
0000
0000
0000
,
0130
0000
0000
0000
,
1001
1000
0001
0000
,
0010
0001
0100
0000
,
0020
0000
2030
0000
,
3100
0010
0001
1000
,
0020
0000
0130
0000
,
0001
0010
0100
0000
,
2000
0000
3200
0000
,
1300
0000
0010
0000
,
0110
0100
0101
0000
,
0110
0010
1010
0000
,
0110
0100
0001
0010
,
0100
1000
0010
0100
,
0001
0010
0110
0000
,
1000
0010
0110
0000
,
0100
0010
1000
0100
,
0020
0000
0000
0030
,
1002
0000
0000
1003
0200
0000
0000
0000
,
0300
0000
1000
0010
0100
0001
1000
0000
,
0002
0000
0000
1003
0200
0000
0000
0000
,
1300
0000
0001
0000
0100
0010
1000
0100
,
0010
0110
0100
0010
,
0100
0001
0010
0100
1000
0000
0002
0000
,
0000
0103
0020
0000
1000
0000
1030
0000
,
0100
0001
0100
2000
,
0000
3010
0200
0000
0000
0301
2000
0000
,
0000
3100
0020
0000
0000
0031
0200
0000
,
0000
0310
0200
0000
0001
0000
0301
0000
,
1000
0000
0010
0100
0001
0000
1001
0000
,
0100
0110
0010
2000
,
0002
0000
0000
3003
,
0000
0000
0000
1001
,
1000
0000
1100
0000
0010
0100
0010
0000
,
1000
0001
0100
0020
,
0000
1000
2000
0000
0000
0000
3030
0000
,
0001
0010
0100
1000
0010
0000
1001
0000
,
0010
0000
0011
0000
0100
0010
0100
0000
,
0001
1000
0010
0200
,
0000
0001
0002
0000
0000
0000
0303
0000
,
1000
0100
0010
0001
1000
0000
0001
0000
,
0100
1000
0100
0001
,
0010
1000
0010
0002
,
0000
1003
0020
0000
0000
0000
0130
0000
,
0001
0010
0100
1001
,
0000
0110
0000
1001
,
0000
0110
0110
0110
,
0010
0100
0010
0000
1000
0000
0001
1000
,
0001
0010
0100
1000
0010
0100
0002
0000
,
0000
0000
0003
0220
,
0000
0000
0330
2002
,
0000
0000
0000
0000
,
0000
3003
0000
0000
;

//---------------dance-double - ----------------
#NOTES:
     dance-double:
     :
     Easy:
     3:
     0.228,0.296,0.165,0.110,0.000:
00000000
00000000
00000000
00000000
,
00000000
00000000
00000000
00000000
,
00000001
00000000
00001000
00000000
,
00000100
00000000
00000010
00000000
,
00000001
00000100
00001000
00010000
,
01000000
10000000
00010000
00000000
,
10000000
01000000
10000000
00000000
,
00010000
01000000
00010000
00000000
,
01000000
01000000
01000000
00000000
,
00001000
00001000
00001000
00000000
,
00010000
00001000
00010000
00000000
,
00000010
00001000
00000010
00000000
,
00000100
00000100
00000100
00000000
,
00000001
00000001
00000001
00000000
,
00001010
00000010
00000010
00000000
,
00010000
00001000
00010000
00000000
,
00001000
00100000
00100000
00000000
,
01000000
01000000
00100000
00000000
,
10100000
00100000
00100000
00000000
,
01000000
00001000
00010000
00000000
,
00000100
00000100
00000100
00000000
,
00001000
00000001
00000100
00000000
,
00000001
00000000
00001000
00000000
,
00010000
00000000
10000000
00000000
,
10000000
01000000
00010000
00001000
,
00000100
00000001
00001000
00001000
,
00000001
00000000
00001000
00000000
,
00010000
00000000
10000000
00000000
,
10000000
01000000
00010000
00001000
,
00000100
00000001
00001000
00001000
,
00000002
00000000
00000103
00000000
,
00001000
00010000
00001000
00010000
,
02000000
00000000
03010000
00000000
,
00000000
00001000
00010000
00001000
,
00020000
00031000
01000000
00010000
,
01000000
00100000
10000000
00200000
,
00000000
01300000
00000000
00000000
,
00010000
10000000
01000000
00200000
,
00300000
00002000
00003000
00020000
,
00030000
00000200
00000300
00002000
,
00003000
00000200
00000300
00000020
,
00000030
00000002
00000003
00000010
,
00000110
00000100
00001100
00010000
,
00000000
00000000
00000000
00000000
,
00000000
00000000
00000000
01010000
,
01000000
01000000
00000000
00001000
,
00010000
00001000
00000000
00010000
,
00000100
00000100
00000000
00000010
,
00000010
00000100
00000000
00001100
,
00000100
00000100
00000000
00000010
,
00010000
00001000
00000000
00100000
,
00100000
00100000
00000000
00010000
,
10000000
00100000
00000000
01000000
,
10010000
10010000
00000000
01000000
,
01010000
01010000
00000000
00001000
,
00011000
00011000
00000000
00000100
,
00001100
00001100
00000000
00000020
,
00000000
00000031
00000000
00000020
,
00000000
00001030
00000000
00010000
,
00011000
00011000
00000000
01000000
,
01010000
01010000
00000000
10010000
,
00000000
00000000
00000000
00011000
,
00000000
00000000
00000000
00001001
;

//---------------dance-double - ----------------
#NOTES:
     dance-double:
     :
     Medium:
     5:
     0.326,0.354,0.205,0.157,0.004:
00000000
00000000
00000000
00000000
,
00000000
00000000
00000000
00000000
,
20000000
00000000
30200000
00000000
,
02300000
00000000
03002000
00000000
,
00003000
00010000
00000100
00001000
,
00000010
00001000
00000100
00020000
,
00031000
00000000
00000100
00000000
00000010
00000000
00001000
00000001
,
00001000
00000100
00000010
00000010
,
00000011
00000010
00001000
00010000
,
00001000
00010000
01000000
10000000
,
00100000
00000000
10000000
00000000
01000000
00000000
00100000
00001000
,
00100000
01000000
00010000
00001000
,
01000000
00010000
00100000
01000000
,
20000000
30000000
00020000
00030000
,
01010000
00000000
00100000
00000000
10000000
00000000
10000000
01000000
,
00010000
00001000
00000100
00001000
,
00010000
00000000
00000010
00001000
00000100
00000000
00000010
00000000
,
00000001
00000000
00001000
00000100
00000001
00000100
00001000
00000100
,
00010000
00000000
00001000
00000000
01000000
00000000
01000000
00100000
,
00010000
00100000
10000000
10000000
,
01000000
00000000
00100000
00001000
00100000
00000000
00001000
00000000
,
00010000
00000000
01000000
00000000
10000000
00000000
00100000
00010000
,
00011000
00000000
00011000
00000000
,
00001100
00000000
00001100
00000000
,
00000000
00001001
00000100
00001000
,
00010000
10000000
01000000
00010000
,
00011000
00000000
00011000
00000000
,
01010000
00000000
01010000
00000000
,
00000000
10010000
01000000
00010000
,
00001000
00000001
00000100
00000010
,
00000002
00000100
00000023
00000100
,
00000031
00000100
00001000
00010000
,
00200000
10000000
02300000
00010000
,
03100000
00000000
10000000
00000000
01000000
00000000
00010000
00001000
,
00011000
00011000
00000010
00001000
,
00000001
00000000
00000100
00000000
00001000
00000100
00000020
00000000
,
00001000
00000230
00000001
00000310
,
00010000
00001000
01000000
00010000
00100000
00010000
01000000
00000000
,
00100000
10000000
01000000
00010000
,
00001000
00000001
00000100
00000010
,
00000001
00000100
00001000
00010000
,
10000000
01000000
00100000
10000000
,
10000000
00010000
00010000
00001000
,
00000001
00000000
00000000
00000000
,
00000000
00000000
00000000
00000000
00000000
00000000
00000000
00000100
00000001
00000000
00000000
00000000
00001010
00000000
00000000
00000000
,
00000100
00000000
00000001
00000000
00000001
00000010
00001000
00000000
,
00010000
00100000
00010000
00001000
,
01000000
00010000
00100000
00000000
01000000
00000000
10000000
00000000
,
00010000
00100000
10000000
00100000
00010000
00100000
00001000
00000000
,
00010000
00000000
00000010
00000000
00000010
00000100
00001000
00000000
,
00000100
00000001
00000001
00000010
,
00000100
00010000
00000100
00000000
00010000
00000000
00001000
00000000
,
00000010
00000001
00000100
00001000
00010000
00001000
00012000
00010000
,
00000000
00010000
00000000
00010000
00003000
00100000
00000000
10000000
,
00000000
01000000
00000000
00010000
00000000
01000000
00000000
00010000
,
00000000
00001000
00000000
00000100
00000000
00000001
00000000
00001000
,
00000100
00010000
00000100
00000010
00000100
00000010
00001001
00000000
,
00000000
00011000
00000000
10010000
,
00000000
00000000
01100000
00000000
00000000
00000000
10010000
10000000
,
00000000
00100000
00000000
00010000
00000000
00001000
00000000
00000010
,
00000100
00000001
00000101
00000000
00000110
00000000
00022000
00000000
,
00000000
00000000
00033000
02200000
,
00000000
00000000
03300000
20020000
,
00000000
00000000
00000000
00000000
,
00000000
30030000
00000000
00000000
;

//---------------dance-double - ----------------
#NOTES:
     dance-double:
     :
     Hard:
     8:
     0.467,0.531,0.260,0.283,0.326:
00000000
00000000
00000000
00000000
,
00000000
00000000
00000000
00000000
,
10000000
00000000
01010000
00000000
,
00001000
00000000
00000001
00000101
,
00001100
00001000
00010000
01000000
,
00100000
00010000
10000000
02000000
,
03020000
00000000
00001000
00000000
00031000
00000000
00001000
00000100
,
00000020
00000000
00000000
00001000
00000000
00000000
00001000
00000000
00000030
00000000
00000000
00000000
00000001
00000000
00000000
00000000
,
00000100
00001000
00000100
00000010
,
00010000
00000000
00001000
00000000
00000100
00000000
00000000
00001000
,
00020000
00000000
00100000
00000000
00130000
00000000
10000000
01000000
,
00010000
00000000
00000000
01000000
00000000
00000000
00200000
00000000
00000000
00000000
00000000
00000000
00302000
00000000
00000000
00000000
,
00023000
00000010
00031000
00000000
,
00022000
00000000
00000000
00000000
00033000
00000000
00000000
00000000
00000010
00001000
00000000
00000001
00000100
00000000
00000001
00000000
,
00000100
00000000
00000000
00001000
00000000
00000000
00000100
00000000
00000001
00000000
00000000
00000100
00000000
00000000
00001000
00000000
,
00010000
00000000
00000000
00100000
00000000
00000000
10000000
00000000
00010000
10000000
00000000
00010000
00100000
00000000
01000000
00000000
,
10000000
00000000
00000000
01000000
00000000
00000000
00010000
00000000
00001000
00000000
00000000
01000000
00000000
00000000
10000000
00000000
,
01000000
00000000
00000000
00010000
00000000
00000000
00100000
00000000
00000000
00000000
00001000
00000000
00000000
00000000
00010000
00000000
,
00001100
00000000
00000000
00000100
00000000
00000000
00000010
00000000
00000001
00000000
00000000
00000100
00000000
00000000
00010000
00000000
,
00000100
00000000
00000000
00001000
00000000
00000000
00100000
00000000
00010000
10000000
00000000
10000000
00100000
00000000
00010000
00000000
,
00000100
00000000
00000000
00001000
00000000
00000000
00000100
00000000
00000001
00000000
00000000
00000100
00000000
00000000
00000011
00000000
,
00000000
00000000
00000001
00000000
00000000
00000000
00001000
00000000
00000010
00000100
00000001
00000100
00000010
00000000
00000000
00001000
,
00000100
00000000
00000000
00000100
00000010
00000000
00000000
00000010
00000002
00000000
00000000
00000000
00000000
00000000
00000000
00000000
,
00000203
00000000
00001300
00011000
,
01010000
01000000
10000000
00100000
,
00010000
00000000
00000000
00000000
00001000
00000000
00000000
00001000
00000100
00000000
00000000
00000100
00000001
00000000
00000000
00000001
,
00000010
00000000
00000000
00000010
00001000
00000000
00000000
00001000
00020000
00000000
00000000
00000000
00000000
00000000
00000000
00000000
,
02030000
00000000
13000000
10100000
,
00110000
00010000
00001000
00000100
,
00001000
00000000
00000000
00000000
00000100
00000000
00000000
00000000
00000001
00000000
00000000
00001000
00000001
00000000
00000000
00000000
,
00002001
00000000
00000000
00000000
00000000
00000000
00003100
00000010
00000002
00000000
00000000
00000000
00001000
00000000
00000000
00000000
,
00000103
00000000
00001000
00010000
00100000
00010000
00001000
00010000
,
00200000
00000000
00000000
00000000
00000000
00000000
10300000
01000000
00200000
00000000
00000000
00000000
00001000
00000000
00000000
00000000
,
00310000
00000000
10000000
01000000
00010000
01000000
00010000
00001000
,
00011000
00000000
00000100
00000010
00000002
00000000
00000000
00000000
00000100
00000000
00000000
00000000
00001003
00000000
00000000
00000000
,
00000001
00000010
00001000
00010000
00000100
00001000
00000020
00000000
,
00000000
00000000
00010030
00001000
00200000
00000000
00000000
00000000
01000000
00000000
00000000
00000000
00310000
00000000
00000000
00000000
,
10000000
00000000
00000000
00000000
00010000
00100000
00000000
00000000
01100000
00000000
01000000
00000000
20010000
00000000
00000000
00000000
,
00010000
00000000
00000000
00000000
30100000
00000000
00000000
00000000
00100000
00000000
00000000
00010000
00002000
00000000
00000000
00000000
,
00000100
00000000
00000000
00000000
00023000
00000000
00000000
00000000
00000010
00000000
00030000
00001000
00000010
00000000
00000000
00000000
,
00000000
00000000
00000000
00000000
00000000
00000000
00001000
00000000
00000000
00000000
00000000
00000100
00000000
00000000
00000000
00000000
00000002
00000000
00000000
00000000
00000000
00000000
00000000
00000000
00000000
00000000
00000000
00000000
00000000
00000000
00000000
00000000
00001000
00000000
00000000
00000000
00000000
00000000
00000000
00000000
00000000
00000000
00000000
00000000
00000000
00000000
00000000
00000000
00000103
00000000
00000000
00000000
00000000
00000000
00000000
00000000
00000000
00000000
00000000
00000000
00000000
00000000
00000000
00000000
,
00000010
00000000
00000000
00000000
00000100
00001000
00000100
00000010
00000000
00000000
00000001
00000000
00000101
00000000
00000000
00000000
,
00000100
00000010
00000000
00000000
00011000
00000000
00000000
00000000
01000000
00100000
00000000
00000000
10010000
00000000
00010000
00100000
,
01000000
10000000
00000000
00000000
10000000
00100000
01000000
00010000
00000000
00000000
00100000
00001000
00010000
00000010
00000000
00000000
,
00001000
00000000
00000010
00000000
00000100
00000000
00000001
00000000
00000000
00000000
00000000
00000000
00000000
00000000
00001000
00000100
00000010
00000000
00000000
00000000
00000001
00000000
00000100
00000000
00001000
00000000
00000000
00000000
00000000
00000000
00000000
00000000
,
00011000
00000000
00000000
00000000
00101000
00000000
00000000
00001000
00100000
00000000
00010000
00000000
01000000
00000000
00000000
00010000
,
00000000
00200000
00000000
00000000
00320000
00000000
20030000
00000000
,
30000000
00000000
10000000
01000000
00200000
00000000
00000000
00000000
00001000
00000000
00000000
00000000
00310000
00000000
00000000
00000000
,
10000000
00100000
00010000
00001000
00010000
00001000
00010000
00000000
,
00011000
00000000
00000000
00000000
00010010
00000000
00000000
00010000
00000010
00000000
00001000
00000000
00000100
00000000
00000000
00001000
,
00000000
00000020
00000000
00000000
00000230
00000000
00000302
00000000
,
00000003
00000000
00001000
00000100
00000020
00000000
00000000
00000000
00000030
00000000
00000011
00000000
00000000
00000000
00001100
00000000
,
00000000
00000000
00000010
00000000
00000001
00000100
00000001
00000100
00000010
00001000
00000010
00000000
00000101
00000000
00000100
00000001
,
00000000
00000000
00000001
00000100
00000000
00000000
00000100
00001000
00000000
00000000
00001000
00010000
00000000
00000000
00010000
00100000
,
00000000
00000000
00100000
10000000
00000000
00000000
10000000
01000000
00000000
00000000
01000000
00010000
00000000
00000000
00010000
00000100
,
00000000
00000000
00000100
00000010
00000000
00000000
00000010
00000001
00000000
00000000
00000001
00001000
00000000
00000000
00001000
00010000
,
00000000
00000000
10010000
00000000
00000000
00000000
11000000
00000000
00000000
00000000
01000000
00000000
01010000
00000000
00000000
00010000
,
00000000
00000000
00001000
00000000
00011000
00000000
00000000
00001000
00000000
00000000
00000100
00000000
00001100
00000000
00000000
00001000
,
00000000
00000000
00000100
00000000
00000101
00000000
00001001
00000000
00000110
00000000
00000000
00000000
00000100
00000000
00001000
00010000
,
00000000
00000000
00010000
00100000
00000000
00000000
00100000
01000000
00000000
00000000
01000000
00010000
00000000
00000000
00010000
00000000
,
10000000
00100000
00010000
00001000
00010000
00100000
00010000
01000000
,
10000000
00020000
00000000
00000000
00000000
00030000
10000000
01000000
,
00010000
00002000
00000000
00000000
00003000
00000000
00002002
00000000
,
00000000
00000000
00000000
00000000
,
00000000
00003003
00000000
00000000
;

//---------------dance-single - ----------------
#NOTES:
     dance-single:
     :
     Hard:
     8:
     0.528,0.531,0.275,0.527,0.291: // measure 1
0000
0000
0000
0000
,  // measure 2
0000
0000
0000
0000
,  // measure 3
0020
0030
2002
3003
,  // measure 4
0200
0300
0020
2030
,  // measure 5
3002
0103
1000
0100
,  // measure 6
0002
0000
0000
0000
0000
0003
0000
1000
,  // measure 7
1002
0000
0023
0000
0230
0000
0301
0100
,  // measure 8
1000
0000
0000
0010
0000
0000
0100
0000
0001
0000
0010
0000
0100
0000
1000
0000
,  // measure 9
0002
0100
0203
0010
,  // measure 10
0320
0000
1000
0000
1030
0000
0000
0001
,  // measure 11
2000
0000
3200
0000
0320
0000
1030
0010
,  // measure 12
0001
0000
0000
1000
0000
0000
0010
0000
0200
0000
0000
0000
0302
0000
0000
0000
,  // measure 13
2003
0010
0100
3010
,  // measure 14
0110
0000
0000
0000
0000
0000
0000
0000
0100
0010
0100
0010
0100
0010
0000
0000
,  // measure 15
1001
0000
0000
0001
0100
0000
0000
0000
0100
0000
0000
1000
0100
0000
0000
0000
,  // measure 16
0100
0000
0000
0001
1000
0000
0000
0000
0010
0100
0000
0100
0010
0000
1000
0010
,  // measure 17
2000
0000
0000
0000
3001
0000
0010
0001
0020
0000
0000
0000
0031
0000
0000
0000
,  // measure 18
0100
0000
0001
0010
1000
0010
0001
0000
,  // measure 19
1001
0000
0000
0001
0010
0000
0000
0000
0010
0000
0000
1000
0010
0000
0000
0000
,  // measure 20
0010
0000
0000
0001
1000
0000
0000
0000
0010
0100
0000
0100
0010
0000
1000
0100
,  // measure 21
2000
0000
0000
0000
3001
0000
0100
0001
0200
0000
0000
0000
0301
0000
0000
0000
,  // measure 22
1000
0000
0100
0000
1000
0000
0010
0000
0100
0010
0100
0010
0100
0000
0000
0000
,  // measure 23
0201
0310
2200
3300
,  // measure 24
1020
0130
0012
1003
,  // measure 25
0120
0130
0101
0110
,  // measure 26
1100
0000
0000
0000
0110
0000
0000
0010
0100
0000
0000
0100
0001
0000
0000
0000
,  // measure 27
1200
0310
0202
0303
,  // measure 28
0021
0130
2010
3001
,  // measure 29
0210
0301
0101
1100
,  // measure 30
0220
0000
0000
0330
,  // measure 31
1001
0000
0000
0000
1000
0000
0001
0100
0002
0000
0000
0000
0000
0000
0000
0000
,  // measure 32
1003
0000
0001
0100
1000
0100
0001
0000
,  // measure 33
0020
0000
0000
0000
0130
0000
1000
0100
2000
0000
0000
0000
3001
0000
0100
0000
,  // measure 34
0010
0000
0100
0000
0001
0000
0100
0000
1000
0000
0100
0000
0010
0000
1000
0001
,  // measure 35
1000
2001
3010
0120
,  // measure 36
1030
0000
0010
0000
0001
0000
0010
0000
1000
0000
0001
0100
0002
0000
0000
0000
,  // measure 37
1003
0000
0100
1000
0200
0000
0000
0000
0010
0000
0000
0000
1300
0000
0000
0000
,  // measure 38
0001
0000
0000
0000
1000
0010
1000
0000
0010
0000
0010
0000
1000
0000
0100
0000
,  // measure 39
0001
0100
2000
0000
3001
0000
1000
0010
,  // measure 40
0001
0010
2000
0000
3001
0000
1000
0100
,  // measure 41
0001
0100
2000
0000
3001
0010
0100
0010
,  // measure 42
0001
0000
1000
0000
0010
1000
0010
1000
0000
0000
0010
0000
0110
0000
0000
0000
,  // measure 43
1000
1000
0000
0000
0110
0000
0000
0000
0001
0001
0000
0000
0120
0000
0000
0000
,  // measure 44
2030
0000
0002
0003
0020
0030
3002
0003
,  // measure 45
0200
0000
0000
0000
0300
0000
0000
0000
0020
0000
0000
0000
0030
0000
1000
0001
1000
0000
0100
0000
0010
0000
0001
0000
1000
0000
0000
0000
0000
0000
1000
0000
,  // measure 46
0010
0000
0100
0000
0001
0000
0000
0001
0010
0000
0100
0000
1000
0000
0000
1000
,  // measure 47
0100
0000
0010
0000
0001
1000
0000
1000
0001
0000
0100
0001
0200
0000
0000
0000
,  // measure 48
0310
0000
1000
0100
2000
0000
0000
0000
3010
0000
0000
0000
0100
0000
0000
0000
,  // measure 49
0001
0000
0010
0000
1000
0000
0010
0000
0001
0000
0100
0000
0110
0000
0000
0010
,  // measure 50
1000
0000
0100
0000
0010
0000
0000
0010
0100
0000
1000
0000
0001
0000
0000
0001
,  // measure 51
0100
0000
0010
0000
1000
0001
0000
0001
1000
0000
0010
0100
0020
0000
0000
0000
,  // measure 52
1030
0000
0001
0010
0002
0000
0000
0000
1003
0000
0010
0000
0100
0000
0100
0000
,  // measure 53
0001
0000
0010
0000
0100
1000
0100
1000
0001
0100
0001
0000
1000
0000
0000
1000
,  // measure 54
0100
0000
0000
0100
0001
0000
0000
0001
0100
0000
0000
0100
1000
0000
0000
1000
,  // measure 55
0010
0000
0000
0010
0100
0000
0000
0100
0001
0000
0100
0010
0200
0000
0000
0000
,  // measure 56
0301
0000
1000
0100
2000
0000
0000
0000
3001
0000
0000
0000
1000
0000
0000
0000
,  // measure 57
0001
0000
0100
0000
1000
0000
0100
0000
0001
0000
1000
0000
1100
0000
0000
0100
,  // measure 58
0000
0000
0000
0000
0011
0000
0000
0010
0000
0000
0000
0000
1001
0000
0000
1000
,  // measure 59
0000
0000
0001
1000
0001
0000
0010
0000
0100
0000
1000
0000
0010
0000
0000
0010
,  // measure 60
0100
0000
0000
0100
0001
0000
0000
0001
1000
0000
0000
0000
0100
1000
0100
1000
,  // measure 61
0001
0010
0001
0010
0001
0000
0010
0000
1000
0000
0010
0000
0022
0000
0000
0000
,  // measure 62
0000
0030
0003
2200
,  // measure 63
0000
0000
0300
0000
3000
0001
2002
0000
,  // measure 64
0000
0000
0000
0000
,  // measure 65
0000
3003
0000
0000
;
