#TITLE:coloris;
#SUBTITLE:;
#ARTIST:she;
#TITLETRANSLIT:;
#SUBTITLETRANSLIT:;
#ARTISTTRANSLIT:;
#CREDIT:Amorite, DJ OMiY, silenttype01;
#BANNER:coloris.png;
#BACKGROUND:coloris-bg.png;
#LYRICSPATH:;
#CDTITLE:Z-I-v simfile collab.png;
#MUSIC:coloris.mp3;
#OFFSET:-3.378;
#SAMPLESTART:16.680;
#SAMPLELENGTH:16.500;
#SELECTABLE:YES;
#BPMS:0.000=58.460,13.000=232.400,73.000=116.200,88.000=232.400,344.000=116.200,348.000=58.100,349.500=116.200,350.500=232.400;
#STOPS:14.500=0.129
,16.500=0.129
,21.500=0.129
,23.500=0.129
,28.500=0.129
,30.500=0.129
,35.500=0.129
,37.500=0.129
,87.000=0.258
,87.500=0.258
;
#BGCHANGES:;

//---------------dance-single - ----------------
#NOTES:
     dance-single:
     :
     Medium:
     7:
     0.417,0.449,0.335,0.419,0.000:
0000
0000
0000
0000
,
0000
0000
0000
0000
,
0000
0000
0000
0000
,
0000
0000
2002
0000
0000
3003
0000
0000
,
0000
0000
0000
0000
,
2200
0000
0000
3300
0000
0000
0000
0220
,
0000
0330
0220
0000
0330
0000
2002
0000
,
0000
3003
0000
0000
0000
0000
0000
0000
,
0000
0000
0000
0000
0202
0000
0000
0303
,
0000
0000
0002
1003
0000
0000
0200
0000
,
0300
0021
0000
0130
,
0000
1000
0000
0001
,
0000
2100
0000
3001
,
0000
0120
0000
1030
,
0000
2001
0000
3001
,
0000
0100
0000
0010
,
0000
1020
0000
0130
,
0000
0001
2000
0000
0000
0000
3100
0000
,
0000
0110
0100
0100
,
0100
0100
0100
0100
,
0200
0001
1000
0001
,
2000
0000
3300
0000
,
1000
0100
0010
0001
,
1000
0000
0010
0000
0100
0001
0100
0000
,
0020
0000
2030
0000
,
3002
0000
0203
0000
,
0310
0100
0001
1000
,
0100
0000
0010
0000
0001
1000
0001
0000
,
0200
0000
0320
0000
,
2030
0000
3002
0000
,
0013
0100
1000
0001
,
0100
0000
1000
0000
0100
0010
0100
0000
,
0002
0000
2003
0000
,
3020
0000
0230
0000
,
1300
0100
0001
1000
,
0100
0000
0010
0000
0100
1000
0001
0000
,
1000
0000
0001
0000
,
0100
0000
1001
0000
,
0010
0100
0001
1000
,
0100
0010
0100
0000
0100
0010
0100
0000
,
1000
0001
0100
0010
,
1000
0001
1000
0000
1000
0001
1000
0000
,
0010
0100
0001
1000
,
0010
0100
0010
0000
0010
0100
0010
0000
,
1000
0001
0100
0010
,
0001
1000
0001
0000
0001
1000
0001
0000
,
1000
0100
0001
1000
,
0100
0010
0100
0000
0010
0001
0010
0000
,
0001
0100
0010
1000
,
0001
0100
0001
0000
1000
0010
1000
0000
,
0001
0100
1000
0100
,
0010
1000
0001
0000
1000
0001
0100
0000
,
0001
0010
1000
0010
,
0001
1000
0100
0000
0010
0001
1000
0100
,
0020
0000
0001
0000
,
0100
0000
1000
0030
,
0012
0000
0010
0000
,
1000
0000
0100
0003
,
0201
0000
0001
0000
,
0010
0000
1000
0300
,
1020
0000
0100
0000
,
0001
0000
1000
0030
,
2100
0000
0010
0000
,
0001
0000
0100
3000
,
0012
0000
0100
0000
,
0010
0000
1000
0003
,
0210
0000
1000
0000
,
0010
0000
0001
0300
,
2001
0000
0100
0000
,
0010
0000
3001
0000
,
0010
0010
1001
0000
,
0100
0100
1001
0000
,
1000
1000
0110
0000
,
0001
0001
0110
0000
,
0100
0100
0011
0000
,
0010
0010
1100
0000
,
1000
1000
0020
0000
,
0130
0000
0210
0000
,
0301
0101
0010
0000
,
0101
1001
2000
0010
,
3001
1001
0010
0000
,
1100
1001
0002
0000
,
1003
1010
0001
0000
,
0011
1001
0100
0000
,
0101
1100
0020
0000
,
0130
0000
2001
0000
,
3010
0010
0010
0010
,
0010
0010
0010
0000
0000
2002
0000
0000
,
0000
0000
0000
0000
,
0000
0000
0000
3003
0000
0000
0000
0000
;

//---------------dance-single - ----------------
#NOTES:
     dance-single:
     :
     Easy:
     4:
     0.248,0.300,0.142,0.075,0.000:
0000
0000
0000
0000
,
0000
0000
0000
0000
,
0000
0000
0000
0000
,
0000
1000
0000
0000
,
0000
0000
0000
0000
,
0001
0000
0000
0000
0000
0000
0000
0010
,
0000
0010
0000
0001
,
0000
0000
0000
0000
,
0000
0000
1000
0000
,
0000
0000
0000
0001
0000
0000
0000
0000
,
0000
0010
0000
0000
,
0000
0001
0000
0000
,
0000
1000
0000
0000
,
0000
0001
0000
0000
,
0000
0100
0000
0000
,
0000
0010
0000
0000
,
0000
1000
0000
0000
,
0000
0100
0000
0000
,
0000
0010
0010
0010
,
0010
0010
0010
0010
,
0010
0010
0010
0010
,
0010
0000
0000
0000
,
2002
0000
0000
0000
,
0000
0000
3003
0000
,
0001
0000
0000
0000
,
1000
0000
0000
0000
,
0010
0000
0000
0000
,
0100
0000
0000
0000
,
0001
0000
0000
0000
,
1000
0000
0000
0000
,
0100
0000
0100
0000
,
0010
0000
0010
0000
,
0001
0000
0100
0000
,
1000
0000
0000
0000
,
0100
0000
0001
0000
,
1000
0000
0100
0000
,
0110
0000
1001
0000
,
0110
0000
0000
0000
,
1000
0100
0010
0001
,
1000
0100
0100
0000
,
0001
0100
0010
1000
,
0001
0100
0100
0000
,
1000
0100
0001
0100
,
1000
0100
0100
0000
,
1000
0010
0001
0010
,
1000
0010
0010
0000
,
0100
0001
1000
0010
,
0100
0001
0001
0000
,
0100
0001
1000
0100
,
0010
0001
0001
0000
,
0010
0100
1000
0100
,
0010
0001
0001
0000
,
0100
0010
1000
0010
,
0100
0001
0001
0000
,
1000
0000
0101
0000
,
0100
0000
0110
0000
,
0010
0000
1010
0000
,
1000
0001
0010
0000
,
0100
0000
1100
0000
,
1000
0000
1010
0000
,
0010
0000
0110
0000
,
0100
0001
1000
0000
,
0100
0000
0110
0000
,
0010
0000
0011
0000
,
0001
0000
1001
0000
,
1000
0001
0010
0000
,
0100
0000
1001
0000
,
0010
0000
1001
0000
,
1000
0000
0110
0000
,
0001
1000
0010
0000
,
0100
0100
0000
0000
,
0001
0001
0000
0000
,
1000
1000
0000
0000
,
0001
0001
0000
0000
,
1000
1000
0000
0000
,
0010
0010
0000
0000
,
0100
0100
2000
3000
,
0001
0000
0020
0030
,
1000
1000
0000
0000
,
0001
0001
0020
0030
,
0001
0001
0000
0000
,
1000
1000
0020
0030
,
1000
1000
0000
0000
,
0001
0001
0000
0000
,
0100
0100
0002
0003
,
1000
0000
0000
0000
,
0100
0100
0100
0100
,
0100
0000
0000
0000
0000
2002
0000
0000
,
0000
0000
0000
0000
,
0000
0000
0000
3003
0000
0000
0000
0000
;

//---------------dance-single - ----------------
#NOTES:
     dance-single:
     :
     Beginner:
     2:
     0.105,0.220,0.134,0.034,0.000:
0000
0000
0000
0000
,
0000
0000
0000
0000
,
0000
0000
0000
0000
,
0000
0020
0000
0000
,
0000
0000
0000
0000
,
0000
0000
0000
0000
,
0000
0000
0000
0000
,
0000
0000
0000
0000
,
0000
0000
0000
0000
,
0000
0000
0000
0030
,
0000
0010
0000
0000
,
0000
0000
0000
0000
,
0000
0010
0000
0000
,
0000
0000
0000
0000
,
0000
0100
0000
0000
,
0000
0000
0000
0000
,
0000
0100
0000
0000
,
0000
0000
0000
0000
,
0000
0001
0000
0001
,
0000
1000
0000
1000
,
0000
0010
0000
0000
,
0000
0000
0000
0000
,
1001
0000
0000
0000
,
0000
0000
0000
0000
,
0010
0000
0000
0000
,
0000
0000
0000
0000
,
0100
0000
0000
0000
,
0000
0000
0000
0000
,
0001
0000
0000
0000
,
0000
0000
0000
0000
,
1000
0000
0000
0000
,
0000
0000
0000
0000
,
0010
0000
0000
0000
,
0000
0000
0000
0000
,
0100
0000
0000
0000
,
0000
0000
0000
0000
,
1000
0000
0000
0000
,
0000
0000
0000
0000
,
0010
0000
0000
0000
,
0001
0000
0000
0000
,
1000
0000
0000
0000
,
0100
0000
0000
0000
,
0010
0000
0000
0000
,
0001
0000
0000
0000
,
1000
0000
0000
0000
,
0100
0000
0000
0000
,
0010
0000
0000
0000
,
1000
0000
0000
0000
,
0001
0000
0000
0000
,
0100
0000
0000
0000
,
0010
0000
0000
0000
,
1000
0000
0000
0000
,
0001
0000
0000
0000
,
0100
0000
0000
0000
,
0010
0000
0000
0000
,
0100
0000
0000
0000
,
0010
0000
0000
0000
,
0001
0000
0000
0000
,
0100
0000
0000
0000
,
1000
0000
0000
0000
,
0100
0000
0000
0000
,
0010
0000
0000
0000
,
0001
0000
0000
0000
,
0100
0000
0000
0000
,
0001
0000
0000
0000
,
0010
0000
0000
0000
,
1000
0000
0000
0000
,
0001
0000
0000
0000
,
1000
0000
0000
0000
,
0010
0000
0000
0000
,
1001
0000
0000
0000
,
1001
0000
0000
0000
,
0110
0000
0000
0000
,
0110
0000
0000
0000
,
1001
0000
0000
0000
,
1001
0000
0000
0000
,
0200
0000
0300
0000
,
0020
0000
0030
0000
,
1001
0000
0000
0000
,
0110
0000
0000
0000
,
1001
0000
0000
0000
,
0110
0000
0000
0000
,
1001
0000
0000
0000
,
0110
0000
0000
0000
,
1001
0000
0000
0000
,
0110
0000
0000
0000
,
0200
0000
0000
0000
,
0300
0000
0000
0000
0000
1001
0000
0000
;

//---------------dance-double - ----------------
#NOTES:
     dance-double:
     :
     Beginner:
     2:
     0.096,0.220,0.151,0.017,0.000:
00000000
00000000
00000000
00000000
,
00000000
00000000
00000000
00000000
,
00000000
00000000
00000000
00000000
,
00000000
00000020
00000000
00000000
,
00000000
00000000
00000000
00000000
,
00000000
00000000
00000000
00000000
,
00000000
00000000
00000000
00000000
,
00000000
00000000
00000000
00000000
,
00000000
00000000
00000000
00000000
,
00000000
00000000
00000000
00000030
,
00000000
00000010
00000000
00000000
,
00000000
00000000
00000000
00000000
,
00000000
00000010
00000000
00000000
,
00000000
00000000
00000000
00000000
,
00000000
00000100
00000000
00000000
,
00000000
00000000
00000000
00000000
,
00000000
00000001
00000000
00000000
,
00000000
00000000
00000000
00000000
,
00000000
00001000
00000000
00010000
,
00000000
00001000
00000000
00010000
,
00000000
00001000
00000000
00000000
,
00000000
00000000
00000000
00000000
,
10010000
00000000
00000000
00000000
,
00000000
00000000
00000000
00000000
,
00100000
00000000
00000000
00000000
,
00000000
00000000
00000000
00000000
,
10000000
00000000
00000000
00000000
,
00000000
00000000
00000000
00000000
,
00010000
00000000
00000000
00000000
,
00000000
00000000
00000000
00000000
,
10000000
00000000
00000000
00000000
,
00000000
00000000
00000000
00000000
,
00100000
00000000
00000000
00000000
,
00000000
00000000
00000000
00000000
,
00010000
00000000
00000000
00000000
,
00000000
00000000
00000000
00000000
,
00001000
00000000
00000000
00000000
,
00000000
00000000
00000000
00000000
,
00010000
00000000
00000000
00000000
,
00001000
00000000
00000000
00000000
,
00010000
00000000
00000000
00000000
,
00000100
00000000
00000000
00000000
,
00001000
00000000
00000000
00000000
,
00000001
00000000
00000000
00000000
,
00000100
00000000
00000000
00000000
,
00000010
00000000
00000000
00000000
,
00001000
00000000
00000000
00000000
,
00000100
00000000
00000000
00000000
,
00010000
00000000
00000000
00000000
,
00001000
00000000
00000000
00000000
,
00010000
00000000
00000000
00000000
,
00001000
00000000
00000000
00000000
,
01000000
00000000
00000000
00000000
,
00010000
00000000
00000000
00000000
,
10000000
00000000
00000000
00000000
,
00000000
00000000
00000000
00000000
,
00100000
00000000
00000000
00000000
,
00000000
00000000
00000000
00000000
,
01000000
00000000
00000000
00000000
,
00000000
00000000
00000000
00000000
,
00001000
00000000
00000000
00000000
,
00000000
00000000
00000000
00000000
,
00010000
00000000
00000000
00000000
,
00000000
00000000
00000000
00000000
,
00000100
00000000
00000000
00000000
,
00000000
00000000
00000000
00000000
,
00001000
00000000
00000000
00000000
,
00000000
00000000
00000000
00000000
,
00000001
00000000
00000000
00000000
,
00000000
00000000
00000000
00000000
,
00001001
00000000
00000000
00000000
,
00001001
00000000
00000000
00000000
,
00001001
00000000
00000000
00000000
,
00001001
00000000
00000000
00000000
,
00001001
00000000
00000000
00000000
,
00001001
00000000
00000000
00000000
,
00001001
00000000
00000000
00000000
,
00001001
00000000
00000000
00000000
,
00011000
00000000
00000000
00000000
,
00011000
00000000
00000000
00000000
,
00011000
00000000
00000000
00000000
,
00011000
00000000
00000000
00000000
,
00011000
00000000
00000000
00000000
,
00011000
00000000
00000000
00000000
,
00011000
00000000
00000000
00000000
,
00011000
00000000
00000000
00000000
,
02000000
00000000
00000000
00000000
,
03000000
00000000
00000000
00000000
00000000
10010000
00000000
00000000
;

//---------------dance-double - ----------------
#NOTES:
     dance-double:
     :
     Easy:
     4:
     0.242,0.300,0.142,0.075,0.000:
00000000
00000000
00000000
00000000
,
00000000
00000000
00000000
00000000
,
00000000
00000000
00000000
00000000
,
00000000
10000000
00000000
00000000
,
00000000
00000000
00000000
00000000
,
00010000
00000000
00000000
00000000
00000000
00000000
00000000
00100000
,
00000000
00100000
00000000
00001000
,
00000000
00000000
00000000
00000000
,
00000000
00000000
00010000
00000000
,
00000000
00000000
00000000
00000100
00000000
00000000
00000000
00000000
,
00000000
00001000
00000000
00001000
,
00000000
00000001
00000000
00000001
,
00000000
00000100
00000000
00000100
,
00000000
00000010
00000000
00000000
,
00000000
00001000
00000000
00001000
,
00000000
00000100
00000000
00000100
,
00000000
00010000
00000000
00010000
,
00000000
00001000
00000000
00000000
,
00000000
00010000
00100000
10000000
,
00100000
00010000
00001000
00000010
,
00000001
00000010
00001000
00010000
,
00100000
00000000
00000000
00000000
,
20020000
00000000
00000000
00000000
,
00000000
00000000
30030000
00000000
,
00010000
00000000
00010000
00000000
,
10000000
00000000
00000000
00000000
,
00100000
00000000
00100000
00000000
,
01000000
00000000
01000000
00000000
,
00001000
00000000
00001000
00000000
,
00010000
00000000
00000000
00000000
,
00000010
00000000
00000010
00000000
,
00001000
00000000
00001000
00000000
,
00000100
00000000
00000100
00000000
,
00000010
00000000
00000000
00000000
,
00000001
00000000
00000001
00000000
,
00000100
00000000
00000100
00000000
,
00001001
00000000
00011000
00000000
,
10010000
00000000
00000000
00000000
,
10000000
10000000
00100000
00000000
,
00010000
00000000
00000010
00000000
,
00001000
00001000
00000100
00000000
,
00000001
00000000
00000100
00000000
,
00010000
00001000
00001000
00000000
,
01000000
00000000
00010000
00000000
,
01000000
00100000
00100000
00000000
,
10000000
00000000
01000000
00000000
,
00010000
00001000
00010000
00000000
,
00000100
00000000
00001000
00000000
,
00000001
00000100
00001000
00000000
,
00000100
00000000
00001000
00000000
,
00010000
00001000
00010000
00000000
,
01000000
00000000
10000000
00000000
,
10000000
01000000
00010000
00000000
,
00001000
00010000
00001000
00000000
,
00001000
00000000
00001100
00000000
,
00000010
00000000
00000011
00000000
,
00000001
00000000
00001001
00000000
,
00000001
00000100
00000100
00000000
,
00010000
00000000
01010000
00000000
,
01000000
00000000
11000000
00000000
,
00100000
00000000
01100000
00000000
,
10000000
00010000
00010000
00000000
,
00001000
00000000
00011000
00000000
,
00000100
00000000
00001001
00000000
,
00000010
00000000
00001001
00000000
,
00000001
00001000
00001000
00000000
,
00010000
00000000
00011000
00000000
,
01000000
00000000
10010000
00000000
,
00100000
00000000
10010000
00000000
,
10000000
00010000
00010000
00000000
,
00001000
00001000
00000000
00000000
,
00010000
00010000
00000000
00000000
,
00000100
00000100
00000000
00000000
,
00010000
00010000
00000000
00000000
,
00001000
00001000
00000000
00000000
,
00100000
00100000
00000000
00000000
,
00001000
00001000
00020000
00030000
,
00000010
00000000
00020000
00030000
,
00001000
00001000
00000000
00000000
,
00010000
00010000
00000020
00000030
,
00010000
00010000
00000000
00000000
,
00001000
00001000
00200000
00300000
,
00010000
00010000
00000000
00000000
,
10000000
10000000
00000000
00000000
,
01000000
01000000
00020000
00030000
,
00001000
00000000
00000000
00000000
,
00000001
00001000
00010000
10000000
,
00100000
00000000
00000000
00000000
00000000
20020000
00000000
00000000
,
00000000
00000000
00000000
00000000
,
00000000
00000000
00000000
30030000
00000000
00000000
00000000
00000000
;

//---------------dance-double - ----------------
#NOTES:
     dance-double:
     :
     Medium:
     7:
     0.346,0.449,0.377,0.411,0.000:
00000000
00000000
00000000
00000000
,
00000000
00000000
00000000
00000000
,
00000000
00000000
00000000
00000000
,
00000000
00000000
20020000
00000000
00000000
30030000
00000000
00000000
,
00000000
00000000
00000000
00000000
,
22000000
00000000
00000000
33000000
00000000
00000000
00000000
02200000
,
00000000
03300000
02200000
00000000
03300000
00000000
00022000
00000000
,
00000000
00033000
00000000
00000000
00000000
00000000
00000000
00000000
,
00000000
00000000
00000000
00000000
00002002
00000000
00000000
00003003
,
00000000
00000000
00000200
00001300
00000000
00000000
00000200
00000000
,
00000300
00000012
00000000
00000103
,
00000000
00000010
00000000
00001000
,
00000000
00001200
00000000
00010300
,
00000000
00012000
00000000
00103000
,
00000000
21000000
00000000
30010000
,
00000000
01000000
00000000
00100000
,
00000000
01200000
00000000
01300000
,
00000000
00010000
00200000
00000000
00000000
00000000
01300000
00000000
,
00000000
10010000
01000000
00010000
,
00001000
00000100
00010000
00001000
,
00000020
00000100
00000001
00001000
,
00020000
00000000
00030030
00000000
,
00000001
00000010
00000100
00000000
,
00000100
00001000
00000001
00000000
,
00000200
00000000
00002300
00000000
,
00023000
00000000
00230000
00000000
,
10300000
01000000
00010000
00000000
,
01000000
00100000
00010000
00000000
,
00020000
00000000
00230000
00000000
,
02300000
00000000
23000000
00000000
,
30010000
00000000
01100000
00000000
,
01000000
00000000
00011000
00000000
,
00020000
00000000
00032000
00000000
,
00003200
00000000
00000320
00000000
,
00001030
00000000
00000101
00000000
,
00000100
00000000
00001010
00000000
,
00011000
00000000
01100000
00000000
,
10010000
00000000
01100000
00000000
,
00100000
01000000
00010000
00001000
,
01000000
00010000
01000000
00010000
01000000
00000000
00011000
00000000
,
00010000
00001000
00000010
00000001
,
00001000
00000100
00001000
00000100
00001000
00000000
00011000
00000000
,
00000100
00010000
00001000
01000000
,
00100000
00010000
00100000
00010000
00100000
00000000
01100000
00000000
,
01000000
00010000
00001000
00000000
,
00000020
00000000
00000230
00000000
,
00001300
00001000
00000010
00000000
,
00000100
00000000
00000001
00000000
,
00000010
00000010
00001000
00000000
,
00010000
00000000
00001000
00000000
,
01000000
01000000
00100000
00000000
,
10000000
00000000
00010000
00000000
,
00000010
00000010
00000100
00000000
,
00001000
00000000
00000001
00000000
,
00000200
00000000
00000001
00000000
,
00000010
00000000
00001000
00000300
,
00021000
00000000
01000000
00000000
,
00001000
00000000
01000000
00030000
,
02100000
00000000
00010000
00000000
,
10000000
00000000
00100000
03000000
,
00201000
00000000
01000000
00000000
,
00010000
00000000
00001000
00300000
,
00021000
00000000
00000010
00000000
,
00000100
00000000
00000010
00030000
,
00012000
00000000
01000000
00000000
,
00100000
00000000
01000000
00003000
,
02001000
00000000
00001000
00000000
,
00100000
00000000
00010000
03000000
,
00102000
00000000
01000000
00000000
,
00000100
00000000
00013000
00000000
,
00100000
00000000
00110000
00000000
,
00100000
00000000
10100000
00000000
,
10000000
00000000
11000000
00000000
,
01000000
00000000
01010000
00000000
,
00010000
00000000
00011000
00000000
,
00001000
00000000
00001100
00000000
,
00000100
00000000
00000101
00000000
,
00000001
00000000
00000011
00000000
,
00000010
00000000
00001010
00000000
,
00001000
00010000
00011000
00000000
,
00001000
00000000
00001100
00000000
,
00000100
00000001
00000101
00000000
,
00000001
00000000
00000011
00000000
,
00000010
00000000
00001010
00000000
,
00002000
00000000
00003000
00000000
,
02000000
00000000
03000000
00000000
,
20000000
30000000
00000000
00000000
,
00000000
00000000
00000000
00000000
00000000
20020000
00000000
00000000
,
00000000
00000000
00000000
00000000
,
00000000
00000000
00000000
30030000
00000000
00000000
00000000
00000000
;

//---------------dance-double - ----------------
#NOTES:
     dance-double:
     :
     Hard:
     9:
     0.540,0.711,0.209,0.293,0.046:
00000000
00000000
00000000
00000000
,
00000000
00000000
00000000
00000000
,
00000000
00000000
00000000
00002002
,
00003003
00000000
00000001
00000010
00000100
00010000
00010000
00000010
,
00001000
00000100
00000100
00010000
00001000
00100000
00010000
00100000
,
01000000
00010000
00001000
00000010
00000010
00000100
00001000
00000001
,
00000001
00000100
00000010
00001000
00000001
00000100
00001000
00010000
,
00100000
10000000
10000000
01000000
00010000
00001000
00001000
00010000
,
01000000
10000000
00100000
01000000
00010000
10000000
00100000
00010000
,
00010000
00001000
00000100
00000001
00000001
00000100
00000010
00001000
,
00000100
00010000
00000020
00000000
00000000
00000000
00000001
00000000
,
00000000
00000100
00000000
00001000
,
00000000
00020030
00000000
00000100
,
00000000
00032000
00000000
00203000
,
00000000
00320000
00000000
01000000
,
00000000
10000000
00000000
00100000
,
00000000
20030000
00000000
00100000
,
00000000
32000000
00000000
03200000
,
00000000
00301000
00000001
00001000
,
00010000
00000010
00000100
00010000
,
00000000
01100000
00000000
00001000
00000000
00010000
00000000
00000100
,
00000000
00000010
00000000
00000000
00000000
00000000
00000000
00000000
,
20020000
00000000
00000000
00000000
,
00000000
00000000
00000000
30030000
,
01000000
00010000
00001000
00000010
,
00000100
00001000
00010000
01000000
,
00100000
00010000
00001000
00000100
,
00000001
00001000
00000100
00000010
,
00001000
00001000
00010000
00010000
,
00100000
00100000
10000000
10000000
,
01000000
00010000
00110000
00010000
,
00001000
00000010
00001010
00001000
,
00010000
01000000
01100000
00100000
,
01000000
00010000
00011000
00001000
,
00000100
00000010
00010010
00001000
,
00010000
01000000
00110000
10000000
,
00100000
00000000
00010000
00000000
,
00001000
00000000
00001001
00000000
,
00000002
00000000
00000000
00000103
00000000
00000000
00000002
00000000
,
00001003
00000010
00000100
00001000
,
00020000
00000000
00000000
01030000
00000000
00000000
00200000
00000000
,
00310000
01000000
00100000
00020000
,
00002000
00000000
00030000
00003100
00000000
00000000
00000020
00000000
,
00010030
00001000
01000000
00100000
,
10000000
00100000
00000000
01000000
00000000
00001000
00000000
00010000
,
00001000
00000000
00010000
00001000
01000000
00010000
10000000
00100000
,
01000000
00010000
01000000
00001000
01000000
00010000
00100000
01000000
,
10000000
01000000
00001000
01000000
00010000
01000000
00100000
00001000
,
00010000
00000010
00001000
00000001
00000100
00001000
00000100
00000010
,
00010000
00000100
00001000
00000010
00000100
00000001
00000010
00001000
,
00000010
00001000
00010000
00100000
00010000
00001000
01000000
00010000
,
00100000
01000000
10000000
01000000
00010000
00001000
00000010
00000001
,
00001000
00000010
00000000
00000100
00000000
00000001
00000000
00001000
,
00000001
00000000
00000010
00001000
00010000
01000000
10000000
00100000
,
01000000
00100000
10000000
01000000
,
00100000
00001000
00100000
00010000
01000000
00000000
01000000
00010000
,
10000000
01000000
00010000
00001000
,
00000010
00000001
00000010
00000100
00000010
00000000
00000010
00000001
,
00001000
00000001
00000100
00001000
,
00010000
00001000
00100000
00010000
01000000
00000000
01000000
00001000
,
00020000
02030000
23000000
30200000
,
00320000
00030020
00002030
00003002
,
00000103
00000010
00000000
00001000
00000000
00000010
00000000
00000100
,
00000001
00000000
00001000
00000100
00000010
00000000
00000100
00001000
,
00000001
00000000
00000001
00000100
00000010
00000000
00001000
00000100
,
00010000
00000000
00010000
00001000
00100000
00000000
00010000
01000000
,
00100000
10000000
00000000
00010000
00000000
01000000
00000000
00100000
,
10000000
00000000
00010000
00100000
01000000
00000000
10000000
00010000
,
00100000
00000000
00100000
00001000
00010000
00000000
00001000
00000100
,
00000010
00000000
00000010
00000100
00001000
00000001
00000100
00000010
,
00000001
00001000
00000110
00000100
,
00001000
00010000
00011000
00100000
,
00010000
10000000
01100000
00010000
,
10000000
00010000
00110000
00100000
,
00001000
00010000
00010100
00000100
,
00001000
00000001
00000011
00000010
,
00000001
00000010
00001200
00000000
,
00010300
00000000
00012000
00000000
,
01003000
00010000
01010000
00000000
,
10000000
00100000
02100000
00001000
,
03010000
00001000
00011000
00000000
,
00000010
00000000
00000000
00000000
00000001
00000000
00000000
00000000
00000021
00000000
00000000
00000000
00000000
00000000
00000000
00000001
,
00001030
00010000
00011000
00000000
,
00100000
01000000
00011000
00000000
,
00000010
00000100
00002000
00000000
,
00003010
00000000
00000200
00000000
,
00001300
00010000
00000000
00100000
01000000
00010000
00000000
10000000
01000000
00010000
00000000
00001000
00000010
00000100
00000000
00000010
,
00000001
00000000
00000000
00000001
00000100
00000000
00000000
00001000
00010000
00000000
00000000
00000000
00000000
00000000
00000000
00000000
00000000
00000000
00000000
00000000
00022000
00000000
00000000
00000000
00000000
00000000
00000000
00000000
00000000
00000000
00000000
00000000
,
00000000
00000000
00000000
00000000
,
00000000
00000000
00000000
00033000
00000000
00000000
00000000
00000000
;

//---------------dance-single - ----------------
#NOTES:
     dance-single:
     :
     Hard:
     8:
     0.482,0.636,0.285,0.260,0.000:
0000
0000
0000
0000
,
0000
0000
1000
0001
1000
0100
1000
0001
,
1000
0001
1000
0010
1000
0100
2000
0010
,
0020
3030
1000
0000
0000
0000
0000
0000
,
0000
0000
0000
0000
,
1001
0000
0000
0000
0000
0000
0000
1001
,
0000
0000
0000
0110
,
0000
0000
0000
0000
,
0000
0000
0011
0000
,
0000
0000
0000
1100
0000
0000
0000
0000
,
0000
2001
0100
3100
,
0000
0100
0001
0010
,
0000
1002
0100
0103
,
1000
1010
0000
1000
,
0000
2001
0001
3010
,
0001
0100
0000
0010
,
0000
1001
0000
0100
,
0000
1001
0000
0100
,
0010
0100
0100
0100
,
0100
0100
0100
0100
,
0100
0000
0100
0010
0100
0010
0100
0010
,
0100
0001
0100
0010
0100
1000
0100
0010
,
1001
0100
1000
0000
,
0100
0010
0100
0000
0001
0000
1000
0000
,
0010
0001
0010
0000
,
0001
1000
0010
0000
0010
0000
0100
0000
,
0001
0010
0100
0000
,
0100
1000
0010
0000
1000
0000
0100
0000
,
0010
0001
0100
0000
,
1000
0001
0010
0000
0010
0000
0001
0000
,
0100
0001
1000
0000
,
0010
1000
0100
0000
1000
0000
0010
0000
,
0100
0001
1000
0000
,
0100
1000
0010
0000
0100
0010
0001
0000
,
1000
0100
0010
0000
,
1000
0001
0100
0000
0010
1000
0001
0000
,
0010
0001
0100
0010
1000
0000
0000
0000
,
0001
0100
0010
1000
,
1001
0000
1001
0100
,
0200
0000
0310
1000
0010
0000
0000
0000
,
0100
0000
0010
0001
0010
0000
1000
0000
,
0010
0001
0100
1000
0100
0000
0010
0000
,
0001
0000
0100
0000
0010
0100
1000
0000
,
2000
0000
3001
0100
0010
0000
0000
0000
,
1000
0000
0100
0001
0010
0000
0000
0000
,
0010
0100
0001
1000
0100
0000
0010
0000
,
1001
0000
0012
1003
,
1100
0000
0001
1000
0001
0000
0100
0000
,
1000
0000
0001
1000
0100
0000
0000
0000
,
0010
0001
1000
0100
0001
0000
0100
0000
,
1100
0000
0021
0130
,
1010
0000
0010
1000
0001
0000
0000
0000
,
1000
0000
0001
1000
0100
0000
0001
0000
,
0010
1000
0100
0010
0200
0000
0010
0000
,
1300
0001
0000
0100
0000
0010
1000
0000
,
0010
1000
0001
0010
,
0100
0001
0000
0010
0000
0100
1000
0000
,
0100
1000
0010
0000
,
1000
0100
0000
0010
0000
0001
1000
0000
,
0010
1000
0001
0100
,
0100
0010
0000
0100
0000
0001
0100
0000
,
0010
1000
0100
0000
,
0001
1000
0000
0010
0000
1000
0100
0000
,
0010
0001
0010
1000
,
0010
1000
0000
0001
0000
1000
0100
0000
,
0010
0001
0010
0000
,
0001
0100
0000
0010
0000
1000
0100
0000
,
0010
0001
0100
0010
,
0100
1000
0000
0010
0000
0100
0001
0000
,
0100
0010
1000
0000
,
0020
0130
0110
0000
,
0002
1003
1001
0000
,
2000
3100
1100
0000
,
1002
0103
1001
0000
,
0020
0130
0110
0000
,
2000
3100
1100
0000
,
0002
0013
0011
0000
,
0210
0301
0110
0000
,
2000
3010
0001
1000
,
0002
0103
1000
0010
,
0020
0031
1000
0010
,
0200
1300
0001
0010
,
0200
1300
1100
0100
,
0020
0031
0011
1000
,
0200
0310
0200
0310
,
0002
0013
2002
3003
,
0100
0100
0100
0100
,
0100
0100
0100
0100
0000
0220
0000
0000
,
0000
0000
0000
0000
,
0000
0000
0000
0330
0000
0000
0000
0000
;
