#TITLE:Xmix;
#SUBTITLE:(HeartPulse Booster);
#ARTIST:dj PulseViper;
#TITLETRANSLIT:;
#SUBTITLETRANSLIT:;
#ARTISTTRANSLIT:;
#CREDIT:-Viper- and silenttype01;
#BANNER:Xmix (HeartPulse Booster)-bn.png;
#BACKGROUND:Xmix (HeartPulse Booster)-bg.png;
#LYRICSPATH:;
#CDTITLE:Z-I-v simfile collab.png;
#MUSIC:Xmix (HeartPulse Booster).mp3;
#OFFSET:-2.610;
#SAMPLESTART:86.820;
#SAMPLELENGTH:22.040;
#SELECTABLE:YES;
#BPMS:0.000=95.000,36.000=191.000,76.000=190.000,100.000=189.500,130.000=190.000,162.000=188.490,178.995=188.990,186.995=189.740,193.995=190.240,226.995=190.240,262.995=180.750,294.995=179.000,322.995=180.250,326.995=180.500,358.995=180.250,390.995=180.000,423.495=48.999,428.495=195.900,508.495=196.000,715.495=49.000;
#STOPS:100.000=0.320
,162.000=0.955
,650.495=0.315
;
#BGCHANGES:;

//---------------dance-single - ----------------
#NOTES:
     dance-single:
     :
     Beginner:
     3:
     0.204,0.248,0.044,0.000,0.000:
0000
0000
0000
0000
,
0001
0000
0001
0000
,
1000
0000
1000
0000
,
0001
0000
0001
0000
,
1000
0000
1000
0000
,
0010
0000
0010
0000
,
0100
0000
0100
0000
,
1001
0000
0000
0000
,
1001
0000
0000
0000
,
1000
0000
0000
0000
,
0001
0001
0001
0000
,
0000
0000
0000
0000
,
1000
1000
1000
0000
,
0000
0000
0000
0000
,
0010
0010
0010
0000
,
1000
0000
0001
0000
,
0100
0100
0100
0000
,
0000
0000
1000
1000
,
1000
1000
1000
0000
,
0000
0000
0000
0000
,
0001
0001
0001
0000
,
0000
0000
0000
0000
,
0010
0010
0010
0000
,
0001
0000
1000
0000
,
0100
0100
0100
0000
,
0000
1000
0000
0010
,
0000
1000
0000
0001
,
0000
0100
0000
1000
,
0000
0001
0000
1000
,
0000
0100
0000
0001
,
0000
1000
0000
0010
,
0000
0001
0000
0001
,
0000
1000
1000
1000
,
0000
0001
0000
0010
,
0000
0001
0000
1000
,
0000
0100
0000
0001
,
0000
1000
0000
0001
,
0000
0100
0000
1000
,
0000
0001
0000
0010
,
0000
1000
0000
1000
,
0000
0001
0001
0100
,
0100
0000
0000
0100
,
0100
0000
0000
0100
,
0100
0000
0000
0100
,
0100
0000
0000
0010
,
0010
0000
0000
0010
,
0010
0000
0000
0010
,
0010
0000
0000
0010
,
0010
0000
0000
0001
,
0000
0000
0000
1000
,
1000
0000
0000
1000
,
1000
0000
0000
1000
,
1000
0000
0000
0100
,
0000
0000
0000
0001
,
0001
0000
0000
0001
,
0001
0000
0000
0001
,
0001
0000
0000
0010
,
0000
0000
0000
0010
,
0000
0000
0000
0100
,
0000
0000
0000
0100
,
0000
0000
0000
0010
,
0000
0000
0000
0010
,
0000
0000
0000
0100
,
0000
0000
0000
0010
,
0010
0010
0010
0010
,
0010
0010
0000
0001
,
0000
1000
0000
0010
,
0000
1000
1000
1000
,
0000
0100
0000
1000
,
0000
0001
0000
0001
,
0000
0100
0000
0010
,
0000
0001
0000
1000
,
0000
0100
0000
0001
,
0000
1000
0000
1000
,
0000
0000
0000
0001
,
0000
0000
0000
0001
,
0000
0000
0000
1000
,
0000
0000
0000
1000
,
0000
0000
0000
0010
,
0000
0000
0000
0010
,
0000
0000
0000
0100
,
0000
0100
0000
0001
,
0001
0001
0000
0010
,
0000
0100
0000
0001
,
0000
0100
0000
0100
,
0000
0001
0001
0001
,
0000
0100
0000
0010
,
0000
0010
0000
1000
,
0000
0100
0000
0100
,
0000
0010
0000
0100
,
0000
0100
0000
0100
,
0000
1001
1001
0000
,
0010
0000
0010
0000
,
0010
0010
0010
0000
,
1000
0000
0001
0000
,
1001
0000
1000
0000
,
0001
0000
0100
0000
,
0001
0001
0001
0000
,
0000
1000
0000
0000
,
0000
0001
0000
0000
,
0000
1000
0000
0000
,
0000
0001
0000
0000
,
0000
0010
0000
0000
,
0000
0010
0000
0000
,
0000
0010
0000
0010
,
0000
0010
0010
0010
,
0000
0000
0000
0000
,
0000
0000
0000
1000
0000
1000
0000
1000
,
0000
0000
0000
0001
0000
0001
0000
0001
,
0000
0000
0000
1000
0000
1000
0000
1000
,
0000
0000
0000
0001
0000
0001
0000
0001
,
0000
0000
0000
0100
0000
0100
0000
0100
,
0000
0000
0000
0001
0000
0001
0000
0001
,
0000
0000
0000
1000
0000
1000
0000
1000
,
0000
0000
0000
0100
0000
0100
0000
0100
,
0000
0100
0000
0000
0000
0000
0000
0000
,
0000
0001
0000
0000
0000
0000
0000
0000
,
0000
0001
0000
0000
0000
0000
0000
0000
,
0000
0001
0000
0000
0000
0000
0000
0000
,
0000
1000
0000
0000
0000
0000
0000
0000
,
0000
1000
0000
0000
0000
0000
0000
0000
,
0000
1000
0000
0000
0000
0000
0000
0000
,
0000
0010
0000
0010
0000
0010
0000
0000
,
0000
0001
0000
0000
0000
0000
0000
0000
,
0000
1000
0000
0000
0000
0000
0000
0000
,
0000
0001
0000
0000
0000
0000
0000
0000
,
0000
1000
0000
0000
0000
0000
0000
0000
,
0000
0110
0000
0000
0000
0000
0000
0000
,
0000
1001
0000
0000
0000
0000
0000
0000
,
0000
0110
0000
0000
0000
0000
0000
0000
,
0000
1000
0000
1000
0000
1000
0000
0000
,
0000
0010
0000
0010
0000
0010
0000
0000
,
0000
0001
0000
0001
0000
0001
0000
0000
,
0000
0100
0000
0100
0000
0100
0000
0000
,
0000
1000
0000
1000
0000
1000
0000
0000
,
0000
0100
0000
0100
0000
0100
0000
0000
,
0000
0010
0000
0010
0000
0010
0000
0000
,
0000
0001
0000
0001
0000
0001
0000
0000
,
0000
0100
0000
0100
0000
0100
0000
0000
,
0000
0010
0000
0010
0000
0010
0000
0010
,
0000
0010
0000
0010
0000
0010
0000
0010
,
0000
0000
0000
0010
0000
0000
0000
0100
,
0000
0000
0000
1000
0000
0000
0000
0100
,
0000
0000
0000
0100
0000
0000
0000
0100
,
0000
0000
0000
0001
0000
0000
0000
0001
,
0000
0000
0000
0100
0000
0000
0000
0010
,
0000
0000
0000
0001
0000
0000
0000
0010
,
0000
0010
0000
0000
0000
0000
0000
0001
,
0000
0000
0000
0000
0000
0000
0000
0001
,
0000
0000
0000
0000
0000
0000
0000
0001
,
0000
0000
0000
0000
0000
0001
0000
0001
,
0000
0001
0000
0001
0000
0000
0000
0000
,
0000
0010
0000
0010
0000
0000
0000
0000
,
0000
1000
0000
1000
0000
0000
0000
0000
,
0000
0100
0000
0100
0000
0100
0000
0100
,
0000
0100
0000
0000
0000
0000
0000
0000
,
0000
1001
0000
0000
0000
0000
0000
0000
,
0000
0110
0000
0000
0000
0000
0000
0000
,
0000
1001
0000
0000
0000
0000
0000
0000
,
0000
0001
0000
0001
0000
0000
0000
0000
,
0000
1000
0000
1000
0000
0000
0000
0000
,
0000
1000
0000
1000
0000
1000
0000
1000
,
0000
1000
0000
1000
0000
1000
0000
0000
,
0000
0000
0000
0001
0000
0001
0000
0000
,
0000
0000
0000
0001
0000
0001
0000
0000
,
0000
0000
0000
1000
0000
1000
0000
0000
,
0000
0000
0000
1000
0000
1000
0000
0000
,
0000
0000
0000
0010
0000
0010
0000
0000
,
0000
0000
0000
0010
0000
0010
0000
0000
,
0000
0000
0000
0001
0000
0000
0000
0000
,
0000
0000
0000
0001
0000
0000
0000
0000
,
0000
0000
0000
0100
0000
0100
0000
0000
,
0000
0000
0000
0100
0000
0100
0000
0000
,
0000
0000
0000
0010
0000
0010
0000
0000
,
0000
0000
0000
0010
0000
0010
0000
0000
,
0000
0000
0000
1000
0000
1000
0000
1000
,
0000
0000
0000
0001
0000
0001
0000
0001
,
0000
0000
0000
0010
0000
0010
0000
0010
,
0000
0000
0000
0100
0000
0100
0000
0100
;

//---------------dance-single - ----------------
#NOTES:
     dance-single:
     :
     Easy:
     5:
     0.349,0.355,0.127,0.067,0.002:
0000
0000
0000
0000
,
0110
0000
0100
0000
,
0010
0000
0100
0000
,
0001
0000
1000
0000
,
0010
0000
0100
0000
,
0001
0000
1000
0000
,
0010
0000
0100
0000
,
1001
0000
0110
0000
,
0110
0000
0000
0000
,
1000
0000
0001
0001
,
0100
0000
0100
0100
,
2000
3000
0002
0003
,
1000
0001
1000
0000
,
0001
0000
1000
1000
,
0010
0000
0001
0001
,
0010
0000
0100
0000
,
0010
0100
0110
0000
,
0020
0030
1000
0000
,
0200
0300
0001
0000
,
1000
0000
0001
0000
,
0010
0100
0001
0000
,
1000
0000
0001
0001
,
1000
0000
0001
0000
,
0100
1000
0001
0000
,
2000
3000
0002
0003
,
1001
0000
0000
0000
,
0020
0030
1000
0100
,
0200
0300
0001
0100
,
0001
1000
0001
2000
,
0000
3001
0100
0002
,
0000
1003
0100
0020
,
0030
2002
3003
0200
,
0300
1000
0002
1003
,
0000
0100
1000
0100
,
0000
0001
1000
0001
,
0000
0010
0001
0010
,
0000
0000
0010
0000
0010
0000
0000
1001
,
0000
0000
0000
0000
0100
0000
0000
0110
,
0000
0000
0000
0000
0010
0000
0000
0220
,
0000
0000
0000
0330
0000
0000
0000
0000
,
0000
0000
1001
0001
,
0100
0001
1000
0100
,
1000
0000
0000
0010
0000
0010
0000
0000
,
1000
0001
0100
0010
,
0100
0000
0000
0001
0000
0001
0000
0000
,
1000
0001
0100
0010
,
1000
0000
0000
0100
0000
0100
0000
0000
,
0010
0001
0100
0010
,
1000
0000
0000
0100
0000
0100
1000
0000
,
0100
1001
0000
0000
,
0000
0000
0000
1000
,
0001
0100
0001
1000
,
0100
0000
0000
0010
0000
0010
0000
0000
,
0001
1000
0100
0010
,
0100
0000
0000
1000
0000
1000
0000
0000
,
0010
0100
0001
1000
,
0010
0000
0000
0100
0000
0100
1001
0000
,
0000
0100
0000
0100
,
0000
0100
0000
1001
,
0000
0100
0000
0100
,
0000
0100
0000
1001
,
0000
0100
0000
0100
,
0000
1001
0000
1001
,
0000
0000
0000
1000
,
0000
1000
0000
1000
,
0000
1000
0000
0001
,
0000
1000
0000
0010
,
0100
1000
0001
0010
,
0000
0000
0100
0000
0000
0000
1000
0001
,
0000
0100
0000
0001
0000
1000
0001
0000
,
0000
0100
0000
0010
,
1000
0001
0010
1000
,
0000
0100
0000
0001
,
0100
0000
1000
0000
0100
0000
1000
0001
,
0000
0000
0000
0100
,
1000
0000
0001
0000
0000
1000
0001
0000
,
0000
0000
0000
0010
,
0001
0000
0100
0000
0000
0000
1000
0001
,
0000
0000
0000
0000
0000
0000
0000
1001
,
0000
0000
0000
0010
0000
1000
0001
0000
,
0000
0000
0000
0100
,
0000
0010
0000
0010
,
0000
0001
0000
0010
,
1000
0100
0000
0010
,
0001
0010
0100
1000
,
0100
0001
1001
0001
,
0000
0100
0000
0010
,
1000
0010
0000
1000
,
0010
0100
0010
0100
,
0001
0000
0010
0000
1001
0000
0100
0010
,
0000
0010
0000
0010
0000
0010
0010
0000
,
1001
0100
0001
0100
,
1000
0010
0001
0010
,
0001
0000
0010
0000
0001
0000
0100
0010
,
0000
0010
0000
0010
0000
0010
0010
0000
,
1001
0100
1000
0100
,
1000
0100
1000
0010
,
0001
0000
0010
0000
0001
0000
1000
0001
,
0000
0000
0000
1000
,
0100
0000
0001
0000
0100
0000
1000
0001
,
0000
0000
0000
0010
,
1000
0000
0010
0000
0001
0000
1000
0001
,
1000
0000
0000
0010
,
0010
0000
0100
0000
0010
0000
1000
0001
,
0000
0000
0000
0010
,
1000
0000
0100
0000
0001
0000
0000
0100
,
0000
0000
0000
0000
,
0000
0011
0000
1000
0000
1000
0000
1000
,
0000
1000
0000
0100
0000
0001
0000
0010
,
0000
0010
0000
1000
0000
0001
0000
1000
,
0000
0010
0000
0001
0000
1000
0000
0001
,
0000
1010
0000
0001
0000
0001
0000
0001
,
0000
0001
0000
0100
0000
1000
0000
0010
,
0000
0010
0000
0001
0000
1000
0000
0001
,
0000
0010
0000
1000
0000
0001
0000
1000
,
0000
0001
0000
0100
0000
1000
0000
0100
,
0000
0001
0000
0100
0000
1000
0000
0010
,
0000
0001
0000
0100
0000
1000
0000
0100
,
0000
0001
0000
0100
0000
1000
0000
0010
,
0000
0010
0000
0001
0000
0010
0000
1000
,
0000
0010
0000
0001
0000
0010
0000
1000
,
0000
0010
0000
0001
0000
0100
0000
0100
,
0000
0010
0000
1000
0000
0100
0000
0100
,
0000
1000
0000
0001
0000
0001
0000
1000
,
0000
0010
0000
1000
0000
0001
0000
1000
,
0000
0001
0000
1000
0000
1000
0000
0001
,
0000
0010
0000
0001
0000
1000
0000
0001
,
0000
0010
0000
0000
0010
0000
0000
0000
,
0000
0010
0000
0000
1001
0000
0000
0000
,
0000
1001
0000
0000
0110
0000
0000
0000
,
0000
0010
0000
0001
0000
0100
0000
1000
,
0000
0010
0000
0010
0000
0010
0000
0010
,
0000
0001
0000
0001
0000
1000
0000
0001
,
0000
0001
0000
0010
0000
0001
0000
0100
,
0000
0010
0000
0001
0000
0001
0000
0100
,
0000
0100
0000
0100
0000
0100
0000
0100
,
0000
1000
0000
1000
0000
0001
0000
1000
,
0000
1000
0000
0100
0000
1000
0000
0010
,
0000
0100
0000
1000
0000
1000
0000
0000
,
0000
0010
0000
0010
0000
0010
0000
0010
,
0000
1000
0000
1000
0000
0001
0000
1000
,
0000
1000
0000
0010
0000
1000
0000
0100
,
0000
0010
0000
1000
0000
1000
0000
0100
,
0000
0100
0000
0100
0000
0100
0000
0100
,
0000
0001
0000
0001
0000
1000
0000
0001
,
0000
0001
0000
0100
0000
0001
0000
0010
,
0000
0100
0000
0001
0000
0001
0000
0010
,
0000
0010
0000
1001
0000
0100
0000
0001
,
0000
0010
0000
1000
0000
0100
0000
0001
,
0000
0001
0000
1000
0000
0100
0000
0001
,
0000
0010
0000
1000
0000
0100
0000
0001
,
0000
0010
0000
1001
0000
0100
0000
1000
,
0000
0010
0000
0001
0000
0100
0000
1000
,
0000
1000
0000
0001
0000
0100
0000
1000
,
0000
1001
0000
1001
0000
1000
0001
1000
,
0001
1000
0000
0000
0000
0000
0000
0000
,
0000
0000
0000
0000
,
0000
0000
0000
0000
,
0000
0000
0000
0000
,
0000
0001
0000
0001
0000
0100
0000
0001
,
0000
0010
0000
0001
0000
0100
0000
1000
,
0000
1000
0000
1000
0000
0100
0000
1000
,
0000
1000
0000
0100
0000
0001
0000
0001
,
0100
1000
0000
0100
0000
0001
0000
0100
,
0000
1000
0000
0100
0000
0001
0000
0001
,
0100
1000
0000
0100
0000
0001
0000
0010
,
0000
1000
0000
0100
0000
0001
0000
1000
,
0100
0001
0000
0100
0000
1000
0000
0100
,
0000
0001
0000
0100
0000
1000
0000
1000
,
0100
0001
0000
0100
0000
1000
0000
0100
,
0000
0001
0000
0100
0000
1000
0000
1001
,
0000
0001
0000
0010
0000
1000
0000
0010
,
0000
0001
0000
0100
0000
0100
0000
0010
,
0000
1000
0000
0010
0000
0001
0000
0010
,
0000
1000
0000
0100
0000
0100
0000
1000
,
0000
0100
0000
0001
0000
0100
0000
1000
,
0000
0100
0000
0001
0000
0001
0000
1000
,
0000
0001
0000
0010
0000
1000
0000
0100
,
0000
0000
1000
0000
0000
0000
0100
0000
0000
0000
0100
0000
0000
0000
0001
0001
;

//---------------dance-single - ----------------
#NOTES:
     dance-single:
     :
     Medium:
     7:
     0.524,0.532,0.313,0.024,0.016:
0000
0000
0000
0000
,
1001
1000
1001
0001
,
0110
0010
0110
0100
,
1010
1000
0101
0001
,
1100
1000
0011
0001
,
0101
0100
1010
0010
,
1100
0100
0011
0010
,
0110
0000
1001
0000
,
0002
0000
0000
0000
,
1003
0000
0100
0000
0010
0000
0010
0001
,
1000
0000
1000
0000
0001
0100
0001
0000
,
0100
0000
0100
0000
0100
0010
0100
0000
,
1000
0100
1000
0000
0001
0000
0000
0000
,
0001
0100
1000
0100
,
0001
0000
0100
0000
1000
0001
1000
0000
,
0001
0100
1000
0010
,
0001
0100
1001
0000
,
0100
1000
2000
3000
,
0100
0010
0002
0003
,
1000
0001
1000
0000
0001
0100
0001
0000
,
0010
0010
0110
0000
,
0001
0000
0001
0000
0001
1000
0001
0000
,
0100
0000
0100
0000
0010
0100
0001
0000
,
1000
0000
1000
0000
1000
0001
1000
0000
,
0001
0010
0001
1000
0100
0000
0000
0000
,
1001
0000
0001
0000
0010
0000
1000
0001
,
0000
0100
0000
0010
0000
1000
0001
0100
,
0000
0010
0000
0100
0000
0001
0010
0100
,
0000
0001
0000
0101
0000
0000
0000
1000
,
0000
0001
0000
0100
0001
0010
0000
1000
,
0000
0100
0000
1000
0010
0100
0000
0001
,
0000
1000
0000
0001
0010
0100
0000
1000
,
0000
0001
0000
1000
0200
0000
0300
1000
,
0000
0010
0000
0100
0001
0010
0000
0001
,
0000
0001
0000
0010
0100
1000
0000
0010
,
0000
0001
0000
1000
0001
0100
0000
0001
,
0000
1000
0000
0000
0010
0000
0000
0101
,
0000
0000
0000
0000
1000
0000
0000
1100
,
0000
0000
0000
0000
0010
0000
0000
0220
,
0000
0000
0000
0000
,
0000
0000
0330
0000
1001
0000
1000
0100
,
0010
0000
0010
0001
0100
0000
0100
0010
,
1000
0000
0000
0001
0000
0001
0010
0100
,
1000
0000
1000
0010
0100
0000
0100
0001
,
0010
0000
0000
0010
0000
0010
0100
1000
,
0001
0000
0100
0010
1000
0000
0100
0010
,
0001
0000
0000
0000
1000
0100
0010
0100
,
1000
0000
0000
0000
0001
0010
0001
0100
,
0010
0000
0000
0000
0010
0100
1001
0000
,
0100
0000
0010
0000
0000
0000
0001
0010
,
0001
0000
0000
0100
0000
0100
0001
0100
,
0010
0000
1000
0100
0010
0000
0010
0001
,
0100
0000
0000
0010
0000
0010
1000
0100
,
0010
0000
0010
0001
0100
0000
0010
1000
,
0100
0000
0000
0000
0010
0001
1000
0100
,
0010
0000
0000
0000
0100
1000
0000
0000
,
0100
0000
0000
0000
0100
0010
0001
1000
,
0100
0000
0000
0100
0000
0000
0000
0100
,
0000
0000
0000
0100
0000
0000
1000
0010
,
0100
0000
0000
0100
0000
0000
0000
0100
,
0000
0000
0000
0100
0000
0000
0001
0010
,
0100
0000
0000
0100
0000
0000
0000
0100
,
0000
0000
0000
1001
0000
1001
0000
0000
,
1001
0000
0000
0000
0000
0000
0000
0000
0000
0000
0000
0000
1000
0000
0000
1000
,
0000
0000
1000
0000
1000
0000
0000
1000
0000
0000
1000
0000
1000
0000
0000
1000
,
0000
1000
1000
0000
0000
0000
0010
0000
,
0001
0100
1000
0010
,
0001
0000
0100
1000
0010
0000
1000
0000
,
0001
0000
0100
0000
0010
0000
0100
0001
,
0100
0001
0100
0001
0010
0001
0010
0001
,
0010
1000
0100
0001
,
0010
0000
1000
0100
0001
0000
1000
0000
,
0001
0000
0100
0000
0010
0000
0100
0001
,
1000
0000
0100
0000
0100
0000
1000
0001
,
0000
0010
0100
0000
0000
0000
1000
0100
,
0001
0000
0001
0100
1000
0010
0100
0000
,
0001
1000
0000
0000
0000
0000
1100
0000
,
0101
0000
1001
0000
0000
0000
1000
0010
,
0000
0100
0001
0000
0000
0000
0000
1001
,
0000
0000
0000
0010
0000
1000
0001
0000
,
0010
0000
0000
0100
0000
0000
0000
0000
0000
0000
0000
0000
0000
0000
0000
0000
0000
0000
0001
0000
0000
0000
0100
0000
,
0000
0001
0000
1000
0000
0100
0000
1000
0000
0010
0000
0000
,
0010
0001
0010
0100
,
1000
0000
0100
0000
0100
0000
0010
1000
,
0001
0000
0010
0001
1000
0000
0100
1000
,
0001
0100
1001
0010
,
0010
1000
0010
0100
,
0001
0000
0100
0000
0100
0000
0010
0001
,
1000
0000
0010
1000
0001
0000
0100
0001
,
1000
0000
0100
0000
1001
0000
0010
1000
,
0010
1000
0010
1000
0100
0001
0100
0000
,
1000
0010
0001
0010
,
0100
0000
1000
0000
0100
0000
0001
0100
,
0001
0000
1000
0100
1000
0000
0010
0001
,
0010
0001
0010
0001
0100
1000
0100
0000
,
0001
0010
1000
1001
,
1100
0000
0001
0000
0001
0000
0001
1000
,
0100
0000
1000
0001
0100
0000
0010
1000
,
0000
0001
0010
0000
0000
0000
1000
0100
,
0001
0000
1000
0000
1100
0000
0001
0100
,
0000
1000
0100
0000
0000
0000
1000
0010
,
1000
0000
0001
0010
0001
0000
0010
0100
,
1000
0000
0001
0000
0101
0000
0010
1000
,
0100
0000
0011
0000
0101
0000
1000
0100
,
0000
0001
0010
0000
0000
0000
1000
0100
,
0001
0000
0100
1000
0100
0000
0000
0010
,
0000
0000
0000
0000
,
0000
0011
0000
1000
0001
1000
0000
1000
,
0000
1000
0000
0101
0000
0001
0000
0010
,
0000
0010
0000
1000
0001
0100
0000
1000
,
0000
0010
0000
0101
0000
1000
0000
0001
,
0000
1010
0000
0001
1000
0001
0000
0001
,
0000
0001
0000
1100
0000
1000
0000
0010
,
0000
0010
0000
0001
1000
0100
0000
0001
,
0000
0010
0000
1100
0000
0001
0000
1000
,
0000
1000
0001
0100
0010
1000
0000
0100
,
0010
0001
0000
0100
0001
1000
0000
0010
,
0001
1000
0000
0100
1000
0001
0000
0100
,
0001
0010
0000
0001
0000
1100
0000
0101
,
0000
1000
0001
0100
0010
1000
0000
0100
,
1000
0001
0000
0100
0010
1000
0000
0100
,
1000
0001
0000
0100
0001
1000
0000
0100
,
0001
0010
0000
0100
1000
0010
0000
0100
,
0000
0001
0100
0001
1000
0010
0000
0100
,
0010
0001
0000
0100
0010
0100
0000
0010
,
1000
0001
0000
0100
0010
1000
0000
0100
,
0010
0001
0000
0100
0000
1100
0000
0101
,
0000
1000
0100
0001
0100
0000
0000
0000
,
0000
0001
0100
1000
0100
0000
0000
0000
,
0000
0001
1000
0001
0100
0000
0000
0000
,
0000
1000
0001
1000
0100
1000
0010
0100
,
0000
0010
0000
0010
0000
1010
0000
0010
,
0000
0001
1000
0001
0000
0010
1000
0001
,
0000
0001
0000
0110
0000
1001
0000
0100
,
0000
0010
0000
0001
0000
0001
1000
0100
,
0000
0010
0000
0010
0000
0011
0000
0010
,
0000
1000
0001
1000
0000
0010
0001
1000
,
0000
1000
0000
0110
0000
1001
0000
0100
,
0000
0010
0000
1000
0000
1000
0001
0100
,
0000
0010
0000
0010
0000
0011
0000
0010
,
0000
1000
0001
1000
0000
0010
0001
1000
,
0000
1000
0000
0110
0000
1001
0000
0100
,
0000
0010
0000
1000
0000
1000
0001
0100
,
0000
0010
0000
0010
0000
1010
0000
0010
,
0000
0001
1000
0001
0000
0010
1000
0001
,
0000
0001
0000
0110
0000
1001
0000
0110
,
0000
0011
0000
0101
0000
1100
0000
1010
,
0000
0010
0000
1000
0100
0010
0000
0001
,
0100
0010
0000
1000
0001
0100
0000
0001
,
0000
1000
0000
1100
0000
0100
0000
0001
,
1000
0010
0000
1000
0001
0100
0010
0001
,
0000
0010
0000
0101
0000
0010
0000
1000
,
0100
0010
0000
0001
1000
0100
0000
1000
,
0001
1000
0000
0001
1000
0100
0000
1000
,
0001
0010
0001
1000
0000
1000
0001
1000
,
0001
1000
0000
0001
1100
0000
0000
0000
,
0000
0011
0000
1000
0100
0000
0000
0000
,
0000
1010
0000
0001
0100
0000
0000
0000
,
0000
0110
0000
1000
0001
0000
0000
0000
,
0000
0011
0000
0001
1000
0100
0000
0001
,
0000
1010
0000
1000
0001
0100
0000
1000
,
0000
1001
0000
1000
0001
0100
0000
1000
,
0000
0110
0000
1000
0001
0100
0000
0001
,
1000
0001
0000
0010
0100
1000
0001
0100
,
0010
1000
0000
0100
0000
0001
0000
0001
,
0100
0010
0000
0100
0001
1000
0100
0010
,
0001
1000
0000
0100
0000
0001
0000
1000
,
0001
1000
0000
0010
0100
0001
1000
0100
,
0010
0001
0000
0101
0000
1100
0000
1000
,
0100
0010
0000
0100
1000
0001
0100
0010
,
1000
0001
0000
1100
0000
0101
0000
0010
,
0000
0100
0010
0100
0000
0010
0100
0001
,
0000
0001
1000
0100
0000
0100
0010
0100
,
0000
1000
0001
0010
0000
1000
0001
0010
,
0000
1000
0001
0100
0001
0100
0001
1000
,
0000
0100
1000
0001
0000
0100
0001
1000
,
0000
0100
1000
0001
0000
0001
1000
0001
,
0000
0001
1000
0010
0000
1000
0001
0100
,
0000
0000
1000
0000
0001
0000
0100
0000
1000
0000
0010
0000
1000
0000
0001
0001
;

//---------------dance-single - ----------------
#NOTES:
     dance-single:
     :
     Hard:
     9:
     0.674,0.745,0.357,0.020,0.075:
0000
0000
0000
0000
,
0011
0000
1000
0100
1000
0000
0000
0001
0100
0000
1000
0010
1000
0000
0000
0100
,
1000
0000
0010
0001
0010
0000
0000
0001
0100
0000
1000
0010
1000
0000
0000
0010
,
0100
0000
1000
0001
1000
0000
0000
0001
0010
0000
1000
0100
1000
0000
0000
0001
,
0100
0000
1000
0010
1000
0000
0000
0100
0010
0000
1000
0001
1000
0000
0000
0010
,
0100
0000
0100
0001
0100
0000
0000
0001
0010
0000
0010
0100
0010
0000
0000
0100
,
1000
0000
1000
0010
1000
0000
0000
0001
1000
0000
1000
0001
1000
0000
0000
0000
,
1002
0103
0220
0300
,
2030
0000
0000
0000
0000
0000
3010
0000
0100
0000
0001
0100
0001
1000
0100
0010
,
0001
0000
1000
0010
0000
1001
0000
1100
,
0000
1001
0000
0100
0001
0010
0001
1000
,
0001
0000
0010
0100
0000
1001
0000
0101
,
0000
1001
0000
0100
1000
0010
0100
0000
,
0010
0000
1000
0001
0000
0110
0000
0110
,
0000
1001
0000
0001
0100
0010
1000
0100
,
0010
0000
0001
1000
0000
0110
0000
1100
,
0000
0011
0000
0100
1000
0001
0100
0000
,
1000
0000
0000
0000
0100
0000
0000
0000
0010
0100
0010
0100
0010
0000
0000
0000
,
0001
0000
0000
0000
0100
0000
0000
0000
0010
0100
0010
0100
0010
0000
0000
0000
,
0001
0000
0010
0001
0000
1100
0000
0101
,
0000
1010
0000
0001
1000
0100
1000
0000
,
0010
0000
1000
0001
0000
0110
0000
1001
,
0000
0110
0000
0001
1000
0001
0010
0100
,
1000
0000
0001
1000
0000
0110
0000
0101
,
0000
1100
0000
0011
0100
1000
0100
0000
,
0000
1000
0000
0001
0000
0100
1000
0010
,
0000
0001
0000
1000
0000
0100
0001
0010
,
0000
0100
0000
0001
0000
0010
0100
1000
,
0000
0010
0000
1001
0000
0001
0000
1000
,
0000
0001
0000
0100
1000
0010
0000
0001
,
0000
1000
0000
0100
0001
0010
0000
0100
,
0000
0001
0000
0010
0100
1000
0000
0010
,
0000
1001
0000
1000
0002
0000
0003
0100
,
0000
0001
0000
0010
1000
0100
0000
0010
,
0000
1000
0000
0100
0001
1000
0000
0100
,
0000
0001
0000
1000
0100
0010
0000
0100
,
0000
0001
0000
0100
0110
0000
0000
1001
,
0000
0100
1000
0001
0101
0000
0000
0011
,
0000
0100
0001
0010
0110
0000
0000
1000
,
0000
0010
0100
0001
0000
0010
0000
1000
,
0000
1000
0100
0010
1001
0000
1000
0100
,
0010
0000
0010
0001
0100
0000
0100
0010
,
1000
0000
1000
0001
0010
0000
0010
0100
,
1000
0000
1000
0010
0100
0000
0100
0001
,
0010
0000
0010
0100
0010
0000
0100
1000
,
0001
0000
0100
0010
1000
0000
0100
0010
,
0001
0000
0100
0010
1000
0000
0100
0010
,
0001
0000
1000
0100
0010
0000
0001
0100
,
0010
0000
1000
0100
0001
0000
0100
0000
,
1000
0100
1000
0000
0000
0000
0001
0100
,
0001
0010
0100
1000
0000
1000
0010
0100
,
0001
0010
0100
0010
0100
1000
0010
0100
,
0001
0010
0100
1000
0000
1000
0100
0010
,
0001
0100
0010
0100
0001
0010
0100
1000
,
0100
0010
0001
0100
0000
0100
0010
1000
,
0100
0010
0001
0100
0010
0100
0001
1000
,
0100
0010
0001
1000
0000
1000
0100
0000
,
0010
0001
0100
1001
,
0100
0010
0000
0010
0001
0000
0001
0000
,
0100
0010
1000
0100
,
0100
1000
0100
1000
0001
0000
1000
0000
,
0010
0100
0001
1001
,
0010
0100
0000
0001
1000
0000
0100
0000
,
0010
0000
0000
0000
0001
0000
0000
0000
1000
0000
0000
0000
1000
0000
0000
0100
,
0000
0000
0001
0000
1000
0000
0000
0100
0000
0000
0010
0000
1000
0000
0000
0001
,
0000
0010
0100
0000
0000
0000
0010
1000
,
0010
0000
0010
0100
0010
0000
0010
0001
,
0010
0000
0110
0000
1010
0000
0010
1000
,
0001
0000
0100
0001
1000
0000
0010
1000
,
0001
0010
0100
1000
0001
0100
1000
0100
,
0001
0000
1100
0000
0101
0000
0010
1000
,
0100
0011
1100
0001
,
0100
0000
0010
1000
0001
0000
1000
0010
,
0001
0000
0010
0001
1000
0000
0100
0001
,
0000
0100
1000
0000
1001
0000
0010
1000
,
1000
0100
0100
1000
0010
0100
0001
0000
,
0100
1000
0000
0000
0000
0000
0010
1000
,
0100
0010
1001
0000
0000
0000
0100
0001
,
0000
0100
1000
0000
1001
0000
0000
0110
,
0000
0000
0000
0100
1000
0010
0100
0000
,
0001
0000
0000
0100
0000
0000
0000
0000
0000
0000
0000
0000
0000
0000
0000
0000
0000
0000
0001
0000
0000
0000
0100
0000
,
0000
0101
0000
1000
0000
0100
0000
1100
0000
0010
0000
0000
,
0100
0000
0001
0100
1000
0000
0001
0100
,
0010
0000
1000
0100
0010
0000
0010
0001
,
1000
1001
0100
1000
0001
1001
1000
0100
,
0001
0100
1000
0000
1001
0000
0010
0000
,
0100
0000
1000
0010
0001
0000
0010
1000
,
0100
0000
0010
0001
0100
0000
1000
0001
,
0100
0101
0001
1000
0100
1100
0001
0010
,
0100
1000
0010
0000
1001
0000
1000
0100
,
0001
0100
1000
0100
0001
0100
1000
0000
,
0101
0000
0010
1000
0100
0000
0010
0001
,
1000
0001
1000
0100
1000
0000
0010
0010
,
0010
0100
0100
0001
1000
0000
1000
0010
,
0001
0010
1000
0010
0001
0010
1000
0000
,
0101
0000
1000
0001
0100
0010
1000
0001
,
0100
0000
0010
1000
0001
0000
0010
0001
,
1000
0000
0010
1000
0001
0000
0110
0001
,
0000
0110
1000
0000
0000
0000
0010
1000
,
1010
0100
0001
0101
1000
0000
0010
0100
,
0000
0100
0010
0000
1100
0000
0010
0001
,
0101
0000
0010
1000
1100
0000
0001
0010
,
1000
0000
0110
0000
1001
0000
0100
1000
,
0010
0010
0100
0100
0001
0000
1010
0100
,
0010
0000
0011
0100
0010
0000
1000
0100
,
0001
0100
1000
0100
0001
0000
0000
1000
,
0000
0000
0000
0000
,
0000
0011
0000
1000
0001
0100
0010
1000
,
0100
0010
0000
0001
1000
0100
0010
0001
,
0100
0010
0000
1000
0100
0001
0010
1000
,
0100
0010
0000
0001
0100
1000
0010
0001
,
0100
0001
0000
1000
0100
0001
0010
1000
,
0100
0010
0000
0001
0100
1000
0010
0001
,
0100
0010
0000
1000
0001
0100
0010
1000
,
0100
0010
0000
0001
0100
1000
0010
0001
,
0100
0010
0000
0001
1000
0010
0000
1000
,
0100
0010
0000
0001
0100
0001
0010
1000
,
0100
0010
0000
1000
0100
0001
0000
1000
,
0100
0010
0000
0001
0100
1000
0010
0001
,
0100
0010
0000
0001
0100
1000
0000
0001
,
0100
0010
0000
1000
0100
0001
0010
1000
,
0100
0010
0000
0001
0100
1000
0000
0001
,
0100
0010
0000
0001
1000
0010
0001
1000
,
0001
1100
0000
0001
0100
0001
0000
1000
,
0100
0010
0000
1000
0001
0100
0010
1000
,
0100
0010
0000
0001
1000
0100
0000
0001
,
0100
0010
0000
0001
1000
0100
0010
1000
,
0001
1000
0000
0010
0101
0000
0000
0000
,
0000
0001
0000
0010
1100
0000
0000
0000
,
0000
1010
0000
0010
0101
0000
0000
0000
,
0000
0001
1000
0010
0100
0001
0010
0100
,
0000
1010
0000
0010
0000
0010
0100
0010
,
0100
0001
1000
0001
0010
1000
0010
0001
,
1000
0001
0000
0010
1000
0001
1000
0100
,
0000
0010
1000
0001
1000
0001
1000
0100
,
0000
0101
0000
0100
0000
0100
0010
0100
,
0010
1000
0001
1000
0100
0001
0100
1000
,
0001
1000
0000
0100
0001
1000
0001
0010
,
0000
0100
0001
1000
0001
1000
0001
0010
,
0000
0011
0000
0010
0000
0010
0100
0010
,
0100
1000
0001
1000
0010
0001
0010
1000
,
0001
1000
0000
0010
0001
1000
0001
0100
,
0000
0010
0001
1000
0001
1000
0001
0100
,
0000
1100
0000
0100
0000
0100
0010
0100
,
0010
0001
1000
0001
0100
1000
0100
0001
,
1000
0001
0000
0100
1000
0001
1000
0010
,
0000
0100
1000
0001
0100
0001
1000
0010
,
0100
0010
0000
1100
0000
0010
0100
0001
,
0100
0010
0000
1000
0001
0100
0000
0001
,
0000
1000
0000
1100
0000
0100
1000
0001
,
0100
0001
0000
0010
0100
0001
1000
0100
,
0100
0010
0000
0101
0000
0010
0100
1000
,
0100
0010
0000
0001
1000
0100
0000
1000
,
0000
0001
0000
0101
0000
0100
0001
1000
,
0100
1000
0000
0010
0100
0001
1000
0001
,
0100
1000
0000
0100
0101
0000
0000
1010
,
0000
0001
0000
0100
1100
0000
0000
0011
,
0000
1100
0000
0010
0110
0000
0000
0011
,
0000
0101
0000
0010
0110
0000
0000
1001
,
0000
0010
0000
0100
1000
0010
0100
0001
,
0100
0001
0000
0001
0100
0001
1000
0010
,
0100
0001
0000
0010
1000
0010
0100
0010
,
1000
0100
0000
0001
1000
0010
0001
0010
,
0100
1000
0010
0100
0001
1000
0100
0010
,
0001
0100
0001
1000
0100
1000
0001
0010
,
0001
1000
0010
0100
0001
1000
0100
0010
,
0001
0100
0010
1000
0001
1000
0001
0010
,
1000
0100
0010
0001
1000
0001
1000
0100
,
0010
0001
0100
0010
1000
0001
1000
0010
,
0001
0100
0001
1000
0100
0010
0001
0100
,
0010
1000
0001
0100
0001
1000
0100
0001
,
0100
0010
1000
0001
1000
0010
0100
0001
,
1000
0100
0010
0001
0100
0001
0100
1000
,
0100
0010
0001
0010
0001
0100
0001
0010
,
0100
1000
0001
0100
0010
1000
0001
0010
,
1000
0001
0010
0001
0100
0001
1000
0100
,
0010
0001
1000
0100
1000
0001
0100
0010
,
0001
1000
0100
0010
0001
0100
0010
1000
,
0001
0000
0010
0000
0100
0000
1000
0000
0010
0000
0100
0000
0100
0000
0001
0001
;

//---------------dance-single - ----------------
#NOTES:
     dance-single:
     :
     Challenge:
     10:
     0.838,0.851,0.452,0.170,0.323:
0000
0000
0000
0000
,
1100
0000
0100
0010
0000
0001
1000
0100
1100
0000
0110
0000
1001
0000
0001
0010
,
0100
0000
0001
0100
1000
0000
1000
0010
0100
0001
0010
0100
1100
0000
0100
0000
,
0010
0000
0001
1000
0001
0000
0000
0000
1100
0000
0100
0010
0100
0000
0000
0001
,
1000
0000
0010
0100
0010
0000
0000
0000
1001
0000
0000
0010
0000
0000
1000
0000
,
0101
0000
0100
0010
0000
1000
0001
0100
0101
0000
0110
0000
1001
0000
1000
0010
,
0100
0000
1000
0100
0001
0000
0001
0010
0100
1000
0010
0100
0101
0000
0000
0000
,
1002
1003
2001
3001
,
2002
0000
0000
0000
3003
0000
0001
0000
0010
0000
0100
0000
1000
0010
0100
0001
,
1000
0010
0100
0010
1000
0000
0001
0000
,
0101
0000
1000
0000
1100
0000
0001
0010
,
0100
1000
0010
0100
0001
0000
1000
0100
,
1000
0001
1000
0100
1000
0001
1000
0010
,
0100
0001
0010
0100
1000
0000
0001
0000
,
0011
0000
1000
0000
1010
0000
1000
0010
,
0100
0010
1000
0001
0010
0011
0000
0110
,
0000
1010
0000
2001
0000
0010
0000
0001
,
3001
0000
0010
0000
0100
0000
1000
0000
0001
1000
0001
1000
0001
0000
0000
0000
,
1000
0000
0100
0000
0001
0000
0100
0000
1000
0010
0100
0001
2000
0000
0000
0000
,
3010
0100
0001
0100
1000
0000
1000
0100
,
0001
0000
0010
1000
0010
0100
0010
0001
,
0010
0012
1003
1020
,
0031
0000
1000
0001
1000
0000
0010
0100
,
0010
0000
1000
0010
0100
0001
0010
0000
,
1001
0000
1000
0100
0000
0010
0001
0000
0010
0100
0000
0000
,
1001
1000
0100
0001
0100
1000
0100
0001
,
0000
0001
0100
1000
0100
0001
0100
1000
,
0000
1000
0010
0001
0010
1000
0010
0001
,
0000
1000
0100
0001
0010
0001
0100
0001
,
1000
0000
0100
0010
0100
0000
0100
0000
1000
0000
0010
0000
0000
0000
0010
0000
,
0001
0000
0010
0100
0010
0000
0010
0000
0001
0000
0100
0000
0000
0000
1000
0000
,
0100
0010
0001
0010
0100
1000
0000
0001
,
0010
0100
1000
0100
0002
0000
0103
0000
,
0100
0010
0001
0000
0001
0100
0010
0000
,
1000
0010
0100
0001
0010
0100
1000
0000
,
0011
0000
0101
0000
0010
0001
0010
0100
,
1100
0000
1010
0000
1000
0010
0010
1000
,
0001
0001
0010
0100
1000
0010
0010
0100
,
0001
0001
0100
0010
1000
0010
0100
0010
,
1000
0001
0100
0010
0100
0001
0010
0100
,
1000
0000
0001
0000
0010
0000
0100
1000
0010
0000
0000
0000
1000
0000
0010
0000
,
0100
0001
0010
0100
1100
0000
0001
0010
,
0100
0000
1000
0010
0100
0000
0001
0000
0010
0000
1000
0000
0001
0000
0101
0000
,
0000
1010
0000
1100
0000
0011
0000
0110
,
0000
0000
0001
1000
0001
0000
0010
0000
0100
0000
1000
0000
0001
0000
0010
0100
,
0010
0000
0010
0000
0100
0000
1000
0010
1000
0000
0100
0000
0010
0000
0001
0100
,
0001
0000
1000
0010
1000
0000
0001
0100
0001
0000
0010
0000
0001
0000
0100
0010
,
0100
0000
0100
0000
0010
0000
1000
0100
1000
0000
0001
0000
0100
0000
0001
0010
,
0001
0000
1000
0100
1000
0000
0001
0010
0001
0000
0100
0000
0001
0000
0010
0000
,
0100
1000
0010
0011
0000
0000
1000
0010
,
0100
0000
0001
0010
0100
0000
1000
0000
0010
0000
0000
0000
0001
0000
1000
0100
,
1000
0000
0010
0000
0100
0000
0001
0100
0001
0000
1000
0000
0001
0000
1000
0001
,
1000
0000
0010
0000
0100
0000
0001
0000
1000
0000
0001
0000
1000
0000
0010
0100
,
0010
0000
0010
0000
0100
0000
0001
0010
0001
0000
0100
0000
0010
0000
1000
0100
,
1000
0000
0001
0010
0001
0000
1000
0100
1000
0000
0010
0000
1000
0000
0010
0100
,
0010
0000
0010
0000
0100
0000
0001
0010
0001
0000
0100
0000
0010
0000
1000
0100
,
1000
0000
0001
0010
0001
0000
1000
0100
1000
0000
0000
0000
2001
0000
0000
0000
,
0010
0000
0100
0000
3000
0001
1002
0000
,
0010
1000
0103
0210
,
0001
0000
1000
0000
0300
0000
0001
1000
,
0100
0000
1000
0001
0010
0000
1002
0000
,
0010
1000
0103
2100
,
0010
0000
0001
0000
3100
1000
0001
0000
,
0010
0000
0001
0000
0100
0000
0000
0000
1000
0000
0001
0000
0101
0000
0000
0010
,
0000
0000
1010
0000
0100
0000
0000
0001
0000
0000
0011
0000
1000
0000
0000
1100
,
0000
0001
1001
0000
0000
0000
1000
0100
,
0010
0000
0001
0100
0010
1000
0001
0000
0010
0000
0100
0000
1000
0000
0010
1000
,
0100
0010
0011
0000
1100
0000
1001
1000
,
0010
0000
0100
0001
0010
0100
1000
0010
0100
0001
0000
0000
1000
0000
0100
0000
,
0001
0000
0100
0010
0000
0000
0001
0000
0010
0000
0100
0000
1000
0000
0010
0000
,
0100
0000
0001
0010
0100
1000
0010
0100
0001
0000
1000
0001
0100
0000
0001
0000
,
0100
0010
1001
0000
0110
0000
1001
0001
,
0010
0000
0100
0000
1000
0001
0100
0010
1000
0001
0010
0100
1000
0000
0000
0000
,
1000
0100
0000
0000
0001
0000
0100
0000
1000
0000
0100
0000
0012
0000
0000
0100
,
0000
0000
2013
0000
0000
0100
0000
0000
3001
0010
0000
0000
0100
0000
1000
0000
,
0100
0010
0001
0000
0100
0010
1000
0100
0010
0001
0000
0001
0100
0010
2100
0000
,
0000
0010
0000
0000
3102
0000
0000
0010
0000
0000
0003
0000
1000
0100
0000
0000
,
0100
0010
0000
0000
0010
0002
2000
0000
0000
0000
3003
0000
1000
0000
0010
0000
,
0100
0010
0000
0010
1000
0000
1000
0000
1000
0001
1000
0000
0001
0000
1000
0000
,
0010
0100
0001
0000
0001
0010
0100
1000
0000
0000
1000
0000
0100
0000
0010
0001
,
0100
0000
0000
0000
0000
0000
0001
0000
0000
1000
0000
0000
0001
0000
0000
0000
0000
0000
1000
0000
0000
0001
0000
0000
0000
0000
0000
0001
0000
0000
1000
0000
0000
0000
0000
0000
1001
0000
0000
0000
0000
0000
0000
0000
0110
0000
0000
0000
,
0000
1001
0000
0011
0000
1010
0000
0110
0000
1001
0000
0000
,
0110
0000
1000
0100
1100
0000
0010
0001
,
0101
0000
0000
0000
0001
0000
1000
0000
1001
0000
0000
0000
0001
0000
1000
0100
,
1000
0100
0010
1000
0001
1000
1001
0001
,
0101
1000
2100
0000
3001
0000
1000
0010
,
0100
0000
1000
0100
0001
0000
0001
0010
,
0100
0000
0001
0100
1000
0000
0010
1000
,
0100
0000
0010
0001
0101
0010
1100
0001
,
1010
1000
0102
0000
1003
0000
1000
0100
,
0001
0100
1000
0110
0001
0100
1000
0100
,
0001
0110
1000
0100
0001
0100
1000
0100
,
1000
0100
0001
0100
0001
0100
1000
0010
,
0001
0010
1000
0100
0001
0100
1000
0001
,
1000
0001
0100
0010
0100
0010
1000
0010
,
1000
0001
0010
1000
0010
0001
0110
1000
,
0010
0001
0010
1000
0110
0001
0010
1000
,
0010
0001
0110
0000
1001
0000
0020
0100
,
0000
0000
2000
0030
,
0001
0000
0000
0000
3100
0000
1000
0001
,
1000
0000
0000
0000
0001
0000
1000
0000
0001
0000
0000
0000
1000
0000
0010
0100
,
0001
0000
0000
0000
0001
0000
0010
0100
1000
0000
0000
0000
1000
0000
0001
0000
,
2001
0000
0001
0000
,
3020
0000
0100
0000
,
0032
0000
1000
0000
,
0013
0000
0200
0000
1000
0000
0300
0000
0010
0000
0200
0000
0001
0000
0010
0010
,
0000
0000
0300
0000
0010
0000
0000
0000
1000
0000
0100
0000
0010
0000
0001
0100
,
0010
1000
0100
0010
0001
0000
0000
0000
0100
0000
0000
0000
0010
0000
0000
0000
1000
0000
0000
0000
0001
0000
0000
0000
0010
0000
0000
0000
0110
0000
0000
0000
,
0000
1000
0010
0100
0001
0010
0100
1100
,
0000
0100
1000
0010
0100
0001
1000
0001
,
0010
1000
0010
0001
1000
0010
0100
0101
,
0000
0000
1000
0000
0010
0100
0001
0000
0010
0000
0100
0000
1000
0000
0010
0000
,
0000
0000
0001
0000
0010
0100
1000
0000
0010
0000
0100
0000
0001
0000
1000
0000
,
0000
0000
1000
0000
0001
0010
0100
0000
1000
0000
0010
0000
0100
0000
1000
0000
,
0010
0000
0100
0000
0001
0000
0010
0000
0100
0001
1000
0000
0010
0000
1001
0000
,
0000
0010
1000
0001
0010
0100
0000
1000
,
0010
0000
0100
0000
0000
0000
0001
0000
0010
1000
0001
0000
0010
0000
1000
0000
,
0010
0001
0000
1000
0010
0100
0001
1000
,
0100
0110
0000
0001
0100
0010
1000
0100
,
0010
0011
0000
0010
0001
0100
0010
1000
,
0001
1000
0100
0001
0100
1000
0001
0100
,
0010
1000
0010
0001
0010
1000
0100
0010
,
0001
0000
0100
0000
0000
0000
1000
0000
0100
0010
0001
0000
0100
0000
0010
0000
,
1000
0000
0001
0000
0000
0000
0001
0000
1000
0100
0010
0000
0001
0000
0100
0000
,
0010
0000
0001
0000
0100
0000
0010
0000
1000
0000
0100
0000
0010
1000
0001
0000
,
0001
0100
0010
0000
1000
0000
0100
0000
0001
0000
1000
0000
0100
0000
0110
0000
,
0000
0000
0001
0000
0100
0000
0010
0000
0000
0000
1000
0000
0100
0001
1000
0000
,
0100
0102
0000
1000
1003
0000
0100
0101
,
0000
1020
0000
0001
0031
0000
0110
0000
,
0000
2001
0000
0010
3010
0000
2002
0000
,
3003
1000
0001
1000
0001
0010
1000
0001
,
1000
0001
0000
1000
0000
0001
0010
0100
,
1000
1100
0000
1010
0000
1000
0010
0100
,
0001
0101
0000
1001
0000
0001
0100
1000
,
0100
0001
0100
1000
0100
0001
0000
0001
,
0000
0001
0010
0100
1000
0010
0100
0001
,
1000
0010
0100
0001
0010
0110
0000
1000
,
0010
0100
0001
0010
0100
1000
0010
0100
,
0001
0100
1000
0100
0001
0010
0100
1000
,
0100
0010
0001
0100
0001
1000
0001
0010
,
0100
1100
0000
1010
0000
1000
0010
0100
,
0001
0101
0000
1001
0000
0001
0100
1000
,
0100
0001
0000
1000
0100
0001
0100
1000
,
0100
0001
0100
0010
1000
0100
0001
0100
,
0001
0100
0010
0100
0001
0010
1000
0010
,
1000
0000
0010
0000
0100
0000
0001
1000
0010
0000
0100
0001
1000
0000
0010
0000
,
0100
0001
0100
1100
0000
0011
0000
0110
,
0000
0000
1001
0000
0100
0000
0010
0000
0001
0000
1000
0010
0100
0001
0010
0000
,
0100
0000
1000
0000
0000
0000
0001
0000
0100
0001
0010
0100
1000
0000
0001
0000
,
0100
0000
0001
0000
0100
0000
0010
0000
0100
0001
0010
0100
0001
0000
1000
0000
,
0002
0023
0230
2300
,
3002
0000
1003
0000
0001
0010
0100
1000
,
0010
0100
0001
0000
1000
0010
0100
0001
,
0010
0100
1000
0000
0001
0010
0100
1000
,
0010
0001
0010
1000
0000
0100
0001
1000
,
0001
0000
1000
0000
0000
0000
0010
0001
0010
0002
0000
0000
0000
0000
0100
0000
,
0000
0000
1000
0000
0003
0000
0010
1000
0010
2000
0000
0000
0000
0000
0100
0000
,
0000
0000
0001
0000
3000
0000
0010
1000
0001
0020
0000
0000
0000
0000
0000
0000
,
0000
0100
0030
0001
1002
0000
0000
1003
,
0000
1000
0000
0010
0100
0001
0010
0100
,
1000
0011
0000
1000
0100
0010
0001
0100
,
0010
1001
0000
1000
0100
0001
0100
1000
,
0100
0000
1001
0000
0000
0000
1000
0100
0010
0001
0100
0000
0001
0000
0010
0000
,
0100
0000
1000
0000
0010
0100
0001
0000
0010
0000
0100
0000
0001
0000
0100
0000
,
1000
0010
0100
0001
0010
0100
1000
0010
,
0001
0000
0010
0000
1000
0010
0100
0000
0001
0000
0100
0000
0010
0000
1000
0000
,
0100
0000
0001
0000
0100
0000
0001
0100
0010
0000
0010
0100
1000
0000
0100
0000
,
0001
0000
0100
0000
1000
0000
0001
0000
0010
0100
1000
0000
0010
0000
0100
0000
,
0001
0000
0100
0000
0001
0000
0010
0000
0100
0001
1000
0000
0010
0000
0100
0000
,
0001
0000
0100
0000
1000
0000
0010
0000
0001
0010
0100
0000
0001
0000
0010
0000
,
0100
0000
0001
0000
0100
0000
1000
0000
1000
0100
0010
0000
0010
0100
0001
0000
,
1000
0000
0010
0000
1000
0000
0010
0100
0001
0000
1000
0000
0010
0000
0001
0000
,
0100
0000
1000
0000
0001
0000
0010
1000
0001
0000
0010
0000
0100
0000
1000
0000
,
0010
0000
0001
0000
0010
0000
1000
0010
0100
0000
0001
0000
0010
0000
0100
0000
,
1000
0000
0100
0000
0001
0000
0100
0000
0001
0100
0010
0000
0010
0100
1000
0000
,
0010
0000
0100
0000
1000
0000
1000
0100
0001
0000
0010
0000
0100
0000
0001
0000
,
0100
0000
1000
0000
0010
0000
0100
1000
0001
0000
0010
0000
0100
0000
0001
0000
,
0010
0000
1000
0000
0010
0000
0001
0010
0100
0000
1000
0000
0001
0100
0010
0000
,
1000
0010
0100
0000
0001
0000
1000
0000
0001
0100
0010
0000
0010
0100
1000
1001
;

//---------------dance-double - ----------------
#NOTES:
     dance-double:
     :
     Easy:
     5:
     0.400,0.497,0.321,0.000,0.002: // measure 1
00000000
00000000
00000000
00000000
,  // measure 2
00001010
00000001
00000101
00001000
,  // measure 3
00001100
00000010
00000011
00000001
,  // measure 4
00000101
00000100
00001100
00001000
,  // measure 5
00011000
00010000
00011000
00001000
,  // measure 6
01001000
01000000
01010000
10000000
,  // measure 7
11000000
00100000
00110000
00010000
,  // measure 8
00101000
00000000
00110000
00000000
,  // measure 9
01010000
00000000
00000000
00000000
,  // measure 10
00011000
00001000
00000000
00010000
,  // measure 11
00000000
00001000
00000100
00000001
,  // measure 12
00000000
00001000
00000000
00000001
,  // measure 13
00000000
00000001
00000100
00001000
,  // measure 14
00000000
00010000
00000000
00010000
,  // measure 15
00000000
00010000
01000000
10000000
,  // measure 16
00000000
00010000
00010000
01000000
,  // measure 17
00100000
00100000
00100000
00000000
,  // measure 18
10010000
00000000
01000000
00000000
,  // measure 19
01000000
00010000
00001000
00001000
,  // measure 20
00010000
00000000
00001000
00000000
,  // measure 21
00000010
00000001
00000100
00000100
,  // measure 22
00000010
00000000
00001000
00000000
,  // measure 23
00000001
00000010
00001000
00010000
,  // measure 24
00010000
00000000
00100000
00000000
,  // measure 25
01000000
01000000
00010000
00010000
,  // measure 26
10000000
00000000
00000000
00000000
,  // measure 27
01000000
00000000
00010000
00001000
,  // measure 28
00001000
00000000
00001000
00000000
,  // measure 29
00010000
00010000
00001000
00000010
,  // measure 30
00000001
00000000
00000001
00000000
,  // measure 31
00000100
00000000
00000100
00000100
,  // measure 32
00000100
00000000
00001000
00000000
,  // measure 33
00001000
00000000
00001000
00001000
,  // measure 34
00000000
00010000
00000000
00010000
,  // measure 35
00000000
01000000
10000000
00010000
,  // measure 36
00000000
00100000
00000000
01000000
,  // measure 37
00000000
00100000
00100000
00100000
,  // measure 38
00000000
00000000
10000000
10000000
,  // measure 39
00010000
00010000
00000000
10000000
,  // measure 40
00100000
00010000
00001000
00001000
,  // measure 41
00000010
00000001
00001001
00000001
,  // measure 42
00000001
00000001
00000100
00001000
,  // measure 43
00001000
00001000
00000100
00000001
,  // measure 44
00000100
00001000
00000100
00001000
,  // measure 45
00010000
01000000
01000000
10000000
,  // measure 46
10000000
10000000
01000000
00010000
,  // measure 47
00010000
00010000
01000000
10000000
,  // measure 48
01000000
00010000
01000000
00010000
,  // measure 49
00001000
00000100
00000010
00000001
,  // measure 50
00001001
00000100
00000010
00001000
,  // measure 51
00001000
00000100
00000010
00000001
,  // measure 52
00000001
00000100
00001000
00010000
,  // measure 53
01000000
10000000
00100000
10000000
,  // measure 54
10010000
01000000
00100000
00010000
,  // measure 55
00010000
01000000
00100000
10000000
,  // measure 56
10000000
01000000
00010000
00001000
,  // measure 57
00001000
00001000
01001000
00011000
,  // measure 58
01001000
00011000
00001000
00000100
,  // measure 59
00001000
00010000
00010000
00010100
,  // measure 60
00011000
00010100
00011000
00010000
,  // measure 61
01000000
00010000
00001000
01001000
,  // measure 62
00011000
01001000
00011000
00001000
,  // measure 63
00000100
00001000
00010000
00010100
,  // measure 64
00011000
00010100
00011000
00010000
,  // measure 65
00000000
01000000
00000000
10000000
,  // measure 66
00000000
01000000
00000000
00001000
,  // measure 67
00001000
00000001
00000001
00000010
,  // measure 68
00000100
00001000
00010000
01000000
,  // measure 69
01000000
00000000
10000000
00000000
00100000
00000000
00100000
00010000
,  // measure 70
00000000
00001000
00000000
00010000
00000000
01000000
10000000
00000000
,  // measure 71
10000000
00010000
00010000
01100000
,  // measure 72
00010000
10010000
01000000
01100000
,  // measure 73
10000000
00010000
01000000
00010000
,  // measure 74
00001000
00000000
00000100
00000000
00010000
00000000
00010000
01000000
,  // measure 75
00000000
00000000
00000000
01100000
,  // measure 76
00010000
00000000
00001000
00000000
00000000
00001000
00000100
00000000
,  // measure 77
00000000
00000000
00000000
00001001
,  // measure 78
00000100
00000000
00000001
00000000
00000000
00000000
00000010
00000001
,  // measure 79
00000000
00000000
00000000
00000000
00000000
00000000
00000000
00000110
,  // measure 80
00000000
00000000
00000000
00001000
00000000
00000100
00000010
00000000
,  // measure 81
00000000
00000000
00000000
00001000
,  // measure 82
00000000
00010000
00000000
00010100
,  // measure 83
00011000
00010100
00011000
00001000
,  // measure 84
00000100
00001000
00010000
01000000
,  // measure 85
10000000
00010000
01000000
10000000
,  // measure 86
10000000
01000000
10010000
01100000
,  // measure 87
10000000
00010000
01000000
00100000
,  // measure 88
00010000
00001000
00000100
00000010
,  // measure 89
00000001
00000010
00000001
00000100
,  // measure 90
00001000
00000000
00000010
00000000
00010010
00000000
00000010
00001000
,  // measure 91
00000000
00000001
00000000
00000001
00000000
00000001
00000100
00000000
,  // measure 92
00000110
00000001
00000100
00001000
,  // measure 93
00011000
01000000
10000000
01100000
,  // measure 94
10000000
00000000
00100000
00000000
10000000
00000000
00100000
00010000
,  // measure 95
00000000
01000000
00000000
01000000
00000000
01000000
10000000
00000000
,  // measure 96
01100000
00010000
00100000
01000000
,  // measure 97
10010000
01000000
00010000
00011000
,  // measure 98
00010100
00000000
00011000
00000000
00000100
00000000
00000010
00001000
,  // measure 99
00000000
00000000
00000000
00000110
,  // measure 100
00000001
00000000
00000010
00000000
00000010
00000000
00001000
00000100
,  // measure 101
00000000
00000000
00000000
00000100
,  // measure 102
00001001
00000000
00000100
00000000
00000010
00000000
00000010
00001000
,  // measure 103
00010000
00000000
00000000
00100000
,  // measure 104
00100000
00000000
00010000
00000000
10010000
00000000
00100000
01000000
,  // measure 105
00000000
00000000
00000000
01001000
,  // measure 106
00010000
00000000
01000000
00000000
10000000
00000000
00000000
00100000
,  // measure 107
00000000
00000000
00000000
00000000
,  // measure 108
00000000
00110000
00000000
10000000
00000000
10000000
00000000
10000000
,  // measure 109
00000000
10000000
00000000
01000000
00000000
00010000
00000000
00001000
,  // measure 110
00000000
00001000
00000000
00000100
00000000
00000001
00000000
00000100
,  // measure 111
00000000
00000001
00000000
00000010
00000000
00000100
00000000
00001000
,  // measure 112
00000000
00001100
00000000
00000001
00000000
00000001
00000000
00000001
,  // measure 113
00000000
00000001
00000000
00000100
00000000
00001000
00000000
00010000
,  // measure 114
00000000
00010000
00000000
01000000
00000000
10000000
00000000
01000000
,  // measure 115
00000000
10000000
00000000
00100000
00000000
01000000
00000000
00010000
,  // measure 116
00000000
00010000
00000000
01000000
00000000
10000000
00000000
01000000
,  // measure 117
00000000
00010000
00000000
01000000
00000000
10000000
00000000
00100000
,  // measure 118
00000000
00010000
00000000
01000000
00000000
10000000
00000000
01000000
,  // measure 119
00000000
00010000
00000000
00001000
00000000
00000100
00000000
00000001
,  // measure 120
00000000
00001000
00000000
00000100
00000000
00000001
00000000
00000100
,  // measure 121
00000000
00001000
00000000
00000100
00000000
00000001
00000000
00000010
,  // measure 122
00000000
00001000
00000000
00000100
00000000
00000001
00000000
00000100
,  // measure 123
00000000
00001000
00000000
00010000
00000000
01000000
00000000
10000000
,  // measure 124
00000000
00010000
00000000
10000000
00000000
10000000
00000000
01000000
,  // measure 125
00000000
00010000
00000000
00001000
00000000
00010000
00000000
00001000
,  // measure 126
00000000
00000100
00000000
00000001
00000000
00000001
00000000
00000100
,  // measure 127
00000000
00001000
00000000
00010000
00000000
00001000
00000000
00010000
,  // measure 128
00000000
00011000
00000000
00000000
01000000
00000000
00000000
00000000
,  // measure 129
00000000
00011000
00000000
00000000
00000100
00000000
00000000
00000000
,  // measure 130
00000000
00011000
00000000
00000000
00100000
00000000
00000000
00000000
,  // measure 131
00000000
01000000
00000000
10000000
00000000
00010000
00000000
01000000
,  // measure 132
00000000
10100000
00000000
01000000
00000000
00010000
00000000
00011000
,  // measure 133
00000000
00000010
00000000
00000011
00000000
00000100
00000000
00000001
,  // measure 134
00000000
00001000
00000000
00001100
00000000
00000011
00000000
00001000
,  // measure 135
00000000
00010000
00000000
01000000
00000000
01000000
00000000
10000000
,  // measure 136
00000000
01000000
00000000
01000000
00000000
01000000
00000000
01000000
,  // measure 137
00000000
00010000
00000000
00010000
00000000
10000000
00000000
01000000
,  // measure 138
00000000
00010000
00000000
00001000
00000000
00000100
00000000
00000001
,  // measure 139
00000000
00000100
00000000
00001000
00000000
00001000
00000000
00000000
,  // measure 140
00000000
00000011
00000000
00000100
00000000
00001000
00000000
00011000
,  // measure 141
00000000
00100000
00000000
10100000
00000000
01000000
00000000
10000000
,  // measure 142
00000000
00010000
00000000
01010000
00000000
10100000
00000000
00010000
,  // measure 143
00000000
01000000
00000000
00010000
00000000
00010000
00000000
00001000
,  // measure 144
00000000
00000100
00000000
00000100
00000000
00000100
00000000
00000100
,  // measure 145
00000000
00000001
00000000
00000001
00000000
00001000
00000000
00000001
,  // measure 146
00000000
00000001
00000000
00000100
00000000
00001000
00000000
00010000
,  // measure 147
00000000
01000000
00000000
10000000
00000000
10000000
00000000
00100000
,  // measure 148
00000000
00100000
00000000
00000000
00000000
00000000
00000000
00000000
,  // measure 149
00000000
00000000
00000000
00000000
00000000
00000000
00000000
00000010
,  // measure 150
00000000
00000010
00000000
00000001
00000000
00001000
00000000
00000100
,  // measure 151
00000000
00000010
00000000
00000001
00000000
00000100
00000000
00001000
,  // measure 152
00000000
00010000
00000000
00011000
00000000
01000000
00000000
00100000
,  // measure 153
00000000
10000000
00000000
00100000
00000000
00010000
00000000
01000000
,  // measure 154
00000000
10000000
00000000
01000000
00000000
00010000
00000000
00001000
,  // measure 155
00000000
00011000
00000000
00011000
00000000
00010000
00001000
00010000
,  // measure 156
00001000
00010000
00000000
00000000
00000000
00000000
00000000
00000000
,  // measure 157
00000000
00011000
00000000
00000000
00000100
00000000
00000000
00000000
,  // measure 158
00000000
00000010
00000000
00000000
00001000
00000000
00000000
00000000
,  // measure 159
00000000
00010000
00000000
00000000
10000000
00000000
00000000
00000000
,  // measure 160
00000000
10000000
00000000
10000000
00000000
01000000
00000000
10000000
,  // measure 161
00000000
00100000
00000000
10000000
00000000
01000000
00000000
00010000
,  // measure 162
00000000
00001000
00000000
00001000
00000000
00010000
00000000
00001000
,  // measure 163
00000000
00001000
00000000
00000100
00000000
00000001
00000000
00000001
,  // measure 164
00000100
00001000
00000000
00000100
00000000
00001000
00000000
00010000
,  // measure 165
00000000
10000000
00000000
01000000
00000000
10000000
00000000
00100000
,  // measure 166
00000000
10000000
00000000
01000000
00000000
00010000
00000000
00001000
,  // measure 167
00000000
00000100
00000000
00000001
00000000
00001000
00000000
00001000
,  // measure 168
00000100
00000001
00000000
00000100
00000000
00001000
00000000
00010000
,  // measure 169
00000000
01000000
00000000
10000000
00000000
00010000
00000000
00010000
,  // measure 170
01000000
10000000
00000000
01000000
00000000
10000000
00000000
00100000
,  // measure 171
00000000
10000000
00000000
01000000
00000000
00010000
00000000
00011000
,  // measure 172
00000000
00001000
00000000
00000100
00000000
00000001
00000000
00000010
,  // measure 173
00000000
00000100
00000000
00001000
00000000
00001000
00000000
00000001
,  // measure 174
00000000
00000001
00000000
00001000
00000000
00000100
00000000
00001000
,  // measure 175
00000000
00000001
00000000
00000010
00000000
00000100
00000000
00001000
,  // measure 176
00000000
00010000
00000000
00100000
00000000
01000000
00000000
10000000
,  // measure 177
00000000
00100000
00000000
10000000
00000000
10000000
00000000
01000000
,  // measure 178
00000000
00100000
00000000
10000000
00000000
01000000
00000000
00010000
,  // measure 179
00000000
00000000
00001000
00000000
00000000
00000000
00000100
00000000
00000000
00000000
00000100
00000000
00000000
00000000
00000001
00000001
;

//---------------dance-double - ----------------
#NOTES:
     dance-double:
     :
     Medium:
     7:
     0.528,0.532,0.389,0.012,0.016: // measure 1
00000000
00000000
00000000
00000000
,  // measure 2
00001010
00000100
00010100
00001000
,  // measure 3
00011000
00010000
00101000
00010000
,  // measure 4
01001000
00010000
10100000
10000000
,  // measure 5
11000000
01000000
00110000
01000000
,  // measure 6
01010000
00001000
00110000
00100000
,  // measure 7
00011000
00000010
00010100
00010000
,  // measure 8
01100000
00000000
11000000
00000000
,  // measure 9
00020000
00000000
00000000
00030000
,  // measure 10
00010000
00010000
10000000
01000000
,  // measure 11
00010000
00001000
00000100
00000001
,  // measure 12
00000010
00000100
00001000
00000001
,  // measure 13
00000100
00001000
00100000
01000000
,  // measure 14
10000000
00000000
00010000
00000000
10000000
00010000
10000000
00000000
,  // measure 15
00100000
01000000
00010000
00100000
,  // measure 16
00001000
00010000
00000100
00000010
,  // measure 17
00000001
00000000
00000001
00000000
00000010
00000100
00000010
00000000
,  // measure 18
00001001
00000000
00000010
00000000
00000100
00000010
00000100
00000000
,  // measure 19
00000001
00000010
00001000
00010000
,  // measure 20
01010000
00100000
00010000
10000000
,  // measure 21
00100000
00000000
01000000
00000000
00010000
00100000
01000000
00000000
,  // measure 22
01000000
10000000
00100000
00010000
,  // measure 23
00001000
00000010
00000001
00001000
,  // measure 24
00001000
00000010
00000100
00000001
,  // measure 25
00000001
00000000
00001000
00000010
00000000
00000010
00000000
00000010
,  // measure 26
00000000
00000010
00000000
00000010
00000000
00000100
00000000
00001100
,  // measure 27
00000000
00000001
00000000
00000100
00000000
00001000
00010000
01000000
,  // measure 28
00000000
10000000
00000000
10000000
00000000
00010000
00100000
01000000
,  // measure 29
00000000
10000000
00000000
00010000
00000000
00100000
00010000
01000000
,  // measure 30
00000000
01000000
00000000
00100000
10000000
01000000
00000000
00010000
,  // measure 31
00000000
00001000
00000000
00000100
00000001
00000010
00000000
00000100
,  // measure 32
00000000
00001000
00000000
00000001
00000100
00001000
00000000
00010000
,  // measure 33
00000000
00010000
00000000
01000000
20000000
00000000
30000000
00010000
,  // measure 34
00000000
00100000
00000000
01000000
10000000
00100000
00000000
00010000
,  // measure 35
00000000
00010000
00000000
00001000
00000100
00000001
00000000
00000010
,  // measure 36
00000000
00000100
00000000
00001000
00000001
00000100
00000000
00001000
,  // measure 37
00000000
00011000
00000000
00000000
01100000
00000000
00000000
00010000
,  // measure 38
00000000
00000000
00000000
10000000
01000000
00000000
00000000
01010000
,  // measure 39
00000000
00000000
10000000
00100000
02000000
00000000
00000000
00000000
,  // measure 40
00000000
00000000
00000000
00000000
,  // measure 41
00000000
00000000
03001000
01100000
,  // measure 42
00010000
00010000
10000000
01000000
,  // measure 43
10000000
01000000
10000000
01000000
,  // measure 44
00010000
00001000
00000100
00001000
,  // measure 45
00001000
00000100
00000001
00000110
,  // measure 46
00001000
00001000
00000001
00000100
,  // measure 47
00000001
00000100
00000001
00000100
,  // measure 48
00001000
00010000
01000000
01100000
,  // measure 49
00110000
11000000
10010000
00100000
,  // measure 50
10000000
01000000
01000000
00110000
,  // measure 51
10000000
01000000
01000000
00100000
,  // measure 52
10000000
00100000
10000000
01000000
,  // measure 53
00010000
00001000
00000100
00000010
,  // measure 54
00000001
00000100
00000100
00001010
,  // measure 55
00000001
00000100
00000100
00000010
,  // measure 56
00000001
00000010
00000001
00000100
,  // measure 57
00001000
00010000
00010000
00010010
,  // measure 58
00011000
00101000
00110000
00010000
,  // measure 59
01000000
00010000
00100000
00101000
,  // measure 60
00011000
00010010
00001010
00001000
,  // measure 61
00000100
00001000
00000010
00010010
,  // measure 62
00011000
00101000
00110000
00010000
,  // measure 63
01000000
00010000
00100000
01000000
,  // measure 64
01000000
00000000
00000000
00000000
10000000
00000000
00000000
00000000
00010000
00000000
00000000
00000000
10000000
00000000
00000000
10000000
,  // measure 65
00000000
00000000
01000000
00000000
00010000
00000000
00000000
00010000
00000000
00000000
00001000
00000000
00000100
00000000
00000000
00000100
,  // measure 66
00000000
00000001
00001000
00000000
00000000
00000000
00000001
00000000
,  // measure 67
00000010
00000000
00001000
00000000
00000010
00000000
00000001
00000010
,  // measure 68
00001000
00000000
00000101
00000000
00001010
00000000
00000010
00010000
,  // measure 69
00001000
00000000
00010000
00001000
00000100
00000000
00000010
00001000
,  // measure 70
00000000
00000100
00000000
00000100
00000000
00000100
00000010
00001000
,  // measure 71
00010000
00000000
01000000
00000000
01100000
00000000
00100000
00010000
,  // measure 72
01000000
01001000
01010000
00100000
,  // measure 73
01000000
10000000
01000000
00100000
,  // measure 74
01000000
00000000
00010000
00000000
01000000
00000000
00100000
01000000
,  // measure 75
00000000
01000000
00010000
00000000
01000000
00000000
00100000
00010000
,  // measure 76
00001000
00000000
00010010
00000000
00001000
00000100
00000001
00000000
,  // measure 77
00000001
00000100
00000000
00000000
00001000
00000000
00000010
00000000
,  // measure 78
00000100
00000000
00000011
00000000
00001000
00000000
00000001
00000100
,  // measure 79
00000000
00000100
00001000
00000000
00000100
00000000
00000000
00000011
,  // measure 80
00000000
00000000
00000000
00001000
00000000
00000100
00000001
00000000
,  // measure 81
00000001
00000000
00000000
00000100
00000000
00000000
00000000
00000000
00000000
00000000
00000000
00000000
00000000
00000000
00000000
00000000
00000000
00000000
00000010
00000000
00000000
00000000
00001000
00000000
,  // measure 82
00000000
00010000
00000000
00100000
00000000
00010000
00000000
00001000
00000000
00010000
00000000
00000000
,  // measure 83
01000000
00010000
00010000
00001000
,  // measure 84
00000100
00000000
00001000
00000000
00001000
00000000
00010000
01000000
,  // measure 85
00010000
00000000
00001000
00000100
00001000
00000000
00010000
01000000
,  // measure 86
10000000
00100000
10010000
00100000
,  // measure 87
10000000
01000000
00010000
00001000
,  // measure 88
00000100
00000000
00000001
00000000
00000010
00000000
00000010
00000001
,  // measure 89
00000100
00000000
00000010
00001000
00000100
00000000
00000001
00000100
,  // measure 90
00001000
00000000
00010000
00000000
01100000
00000000
00100000
00010000
,  // measure 91
00000000
10000000
00000000
00010000
00000000
01000000
00010000
00000000
,  // measure 92
10000000
00000000
01000000
00010000
00001000
00000000
00010000
00000000
,  // measure 93
01000000
00000000
10000000
00000000
01000000
00000000
00010000
00001000
,  // measure 94
00010000
00000000
00001000
00000100
00000010
00000000
00000001
00000010
,  // measure 95
00000000
00000110
00000000
00001000
00000000
00000010
00000100
00000000
,  // measure 96
00000001
00000000
00000001
00000010
00001000
00000000
00010000
00000000
,  // measure 97
00010010
00001010
00000101
00000010
,  // measure 98
00000100
00000000
00001000
00000000
00010000
00000000
00000010
00001000
,  // measure 99
00000000
00001000
00010000
00000000
01000000
00000000
00010000
00000000
,  // measure 100
00001000
00000000
00000100
00001000
00000100
00000000
00000001
00000100
,  // measure 101
00000000
00000100
00001000
00000000
00001000
00000000
00010000
01000000
,  // measure 102
10000000
00000000
10000000
01000000
00010000
00000000
00010000
01000000
,  // measure 103
00100000
00110000
00101000
00010000
,  // measure 104
00010010
00000000
00000010
00001000
00000100
00000000
00000010
00000001
,  // measure 105
00000000
00000001
00000100
00000000
00001000
00000000
00010000
01000000
,  // measure 106
10000000
00000000
00010000
00100000
10000000
00000000
00000000
01100000
,  // measure 107
00000000
00000000
00000000
00000000
,  // measure 108
00000000
00110000
00000000
10000000
00010000
10000000
00000000
10000000
,  // measure 109
00000000
10000000
00000000
01010000
00000000
10000000
00000000
01000000
,  // measure 110
00000000
00010000
00000000
00001000
00000100
00000001
00000000
00001000
,  // measure 111
00000000
00000010
00000000
00000101
00000000
00001000
00000000
00000001
,  // measure 112
00000000
00001010
00000000
00000001
00001000
00000001
00000000
00000001
,  // measure 113
00000000
00000001
00000000
00001100
00000000
00000001
00000000
00000100
,  // measure 114
00000000
00001000
00000000
00010000
01000000
10000000
00000000
00010000
,  // measure 115
00000000
00100000
00000000
11000000
00000000
00010000
00000000
10000000
,  // measure 116
00000000
00010000
10000000
01000000
00010000
00001000
00000000
00010000
,  // measure 117
00001000
00000100
00000000
00000001
00001000
00000100
00000000
00000001
,  // measure 118
00001000
00000100
00000000
00000001
00001000
00000100
00000000
00000010
,  // measure 119
00000001
00000100
00000000
00000010
00000000
00001010
00000000
00000101
,  // measure 120
00000000
00001000
00000001
00000100
00001000
00010000
00000000
00001000
,  // measure 121
00010000
01000000
00000000
10000000
00010000
01000000
00000000
10000000
,  // measure 122
00010000
01000000
00000000
10000000
00010000
01000000
00000000
00100000
,  // measure 123
10000000
01000000
00000000
10000000
00010000
10000000
00000000
01000000
,  // measure 124
00000000
00100000
10000000
00100000
01000000
00100000
00000000
10000000
,  // measure 125
01000000
00100000
00000000
00010000
01000000
01000000
00010000
00001000
,  // measure 126
00000100
00000001
00000000
00000010
00000100
00001000
00000000
00000010
,  // measure 127
00000100
00000001
00000000
00000100
00000000
00000101
00000000
00001100
,  // measure 128
00000000
00000010
00001000
00000010
00000100
00000000
00000000
00000000
,  // measure 129
00000000
00001000
00010000
00001000
01000000
00000000
00000000
00000000
,  // measure 130
00000000
00010000
00100000
00010000
01000000
00000000
00000000
00000000
,  // measure 131
00000000
00100000
10000000
01000000
00010000
00001000
00010000
00001000
,  // measure 132
00000000
00100000
00000000
00100000
00000000
00110000
00000000
00100000
,  // measure 133
00000000
10000000
00010000
10000000
00000000
00100000
10000000
00010000
,  // measure 134
00000000
01000000
00000000
01010000
00000000
00011000
00000000
00000100
,  // measure 135
00000000
00000010
00000000
00000001
00000000
00001000
00000001
00000100
,  // measure 136
00000000
00000010
00000000
00000010
00000000
00001010
00000000
00000010
,  // measure 137
00000000
00000001
00001000
00000001
00000000
00000100
00001000
00010000
,  // measure 138
00000000
00001000
00000000
00011000
00000000
01010000
00000000
00100000
,  // measure 139
00000000
01000000
00000000
00010000
00000000
00001000
00000100
00000001
,  // measure 140
00000000
00000010
00000000
00000010
00000000
00000011
00000000
00000010
,  // measure 141
00000000
00000001
00001000
00000001
00000000
00000010
00000001
00001000
,  // measure 142
00000000
00000100
00000000
00001100
00000000
00011000
00000000
01000000
,  // measure 143
00000000
00100000
00000000
10000000
00000000
00010000
10000000
01000000
,  // measure 144
00000000
00100000
00000000
00100000
00000000
00110000
00000000
00100000
,  // measure 145
00000000
10000000
00010000
10000000
00000000
01000000
00010000
00001000
,  // measure 146
00000000
00010000
00000000
00011000
00000000
00001100
00000000
00000010
,  // measure 147
00000000
00000011
00000000
00000101
00000000
00001100
00000000
00011000
,  // measure 148
00000000
00100000
00000000
00010000
01000000
00100000
00000000
10000000
,  // measure 149
01000000
00100000
00000000
10000000
00010000
10000000
00000000
01000000
,  // measure 150
00000000
00010000
00000000
00011000
00000000
00001000
00000000
00000100
,  // measure 151
00000001
00001000
00000000
00000100
00001000
00000100
00000010
00000001
,  // measure 152
00000000
00000100
00000000
00001010
00000000
00000100
00000000
00000001
,  // measure 153
00001000
00000100
00000000
00000010
00000001
00000100
00000000
00001000
,  // measure 154
00010000
00001000
00000000
00010000
01000000
10000000
00000000
00010000
,  // measure 155
10000000
00100000
10000000
01000000
00000000
10000000
00010000
10000000
,  // measure 156
00010000
10000000
00000000
00100000
01010000
00000000
00000000
00000000
,  // measure 157
00000000
00110000
00000000
00001000
01000000
00000000
00000000
00000000
,  // measure 158
00000000
00011000
00000000
00000010
00000100
00000000
00000000
00000000
,  // measure 159
00000000
00000101
00000000
00001000
00000001
00000000
00000000
00000000
,  // measure 160
00000000
00001010
00000000
00000100
00001000
00000100
00000000
00000010
,  // measure 161
00000000
00000101
00000000
00000001
00001000
00000100
00000000
00010000
,  // measure 162
00000000
00011000
00000000
00010000
01000000
10000000
00000000
00010000
,  // measure 163
00000000
01100000
00000000
10000000
00010000
01000000
00000000
00010000
,  // measure 164
10000000
00010000
00000000
00100000
01000000
10000000
00010000
01000000
,  // measure 165
00010000
00100000
00000000
01000000
00000000
00010000
00000000
00001000
,  // measure 166
00010000
00001000
00000000
00000100
00000001
00001000
00000100
00000010
,  // measure 167
00000001
00001000
00000000
00000100
00000000
00000010
00000000
00000001
,  // measure 168
00001000
00000001
00000000
00000010
00000100
00001000
00000001
00000100
,  // measure 169
00000001
00001000
00000000
00001100
00000000
00011000
00000000
00010000
,  // measure 170
00001000
00010000
00000000
01000000
10000000
00100000
01000000
00010000
,  // measure 171
10000000
01000000
00000000
11000000
00000000
01010000
00000000
10000000
,  // measure 172
00000000
00010000
01000000
00010000
00000000
00100000
00001000
00010000
,  // measure 173
00000000
00001000
00000100
00000001
00000000
00000010
00000100
00000010
,  // measure 174
00000000
00000001
00001000
00000010
00000000
00000001
00001000
00000010
,  // measure 175
00000000
00000100
00001000
00010000
00001000
00010000
00001000
00010000
,  // measure 176
00000000
01000000
10000000
00010000
00000000
01000000
00100000
01000000
,  // measure 177
00000000
00010000
00100000
01000000
00000000
10000000
00010000
10000000
,  // measure 178
00000000
01000000
00010000
00001000
00000000
00001000
00000100
00000001
,  // measure 179
00000000
00000000
00001000
00000000
00000001
00000000
00000100
00000000
00000001
00000000
00000010
00000000
00000001
00000000
00001000
00001000
;

//---------------dance-double - ----------------
#NOTES:
     dance-double:
     :
     Hard:
     9:
     0.656,0.745,0.238,0.040,0.069: // measure 1
00000000
00000000
00000000
00000000
,  // measure 2
00000101
00000000
00000100
00000001
00000100
00000000
00000000
00000010
00001000
00000000
00010000
00001000
00010000
00000000
00000000
00001000
,  // measure 3
00010000
00000000
00100000
01000000
00100000
00000000
00000000
00010000
01000000
00000000
10000000
01000000
10000000
00000000
00000000
00100000
,  // measure 4
01000000
00000000
01000000
00010000
01000000
00000000
00000000
00010000
00100000
00000000
00100000
00001000
00100000
00000000
00000000
00001000
,  // measure 5
00010000
00000000
00010000
00000100
00010000
00000000
00000000
00000100
00001000
00000000
00000010
00000001
00000010
00000000
00000000
00001000
,  // measure 6
00000100
00000000
00010000
00001000
00010000
00000000
00000000
00001000
01000000
00000000
00100000
00010000
00100000
00000000
00000000
00010000
,  // measure 7
00001000
00000000
00010000
00000010
00010000
00000000
00000000
00000100
00001000
00000000
00000010
00001000
00000010
00000000
00000000
00000100
,  // measure 8
00000002
00000103
00002000
00000000
,  // measure 9
00203000
00000000
00000000
00000000
00000000
00000000
00310000
00000000
01000000
00000000
00100000
01000000
00100000
10000000
00010000
10000000
,  // measure 10
00100000
01000000
00100000
10000000
,  // measure 11
01000000
00000000
01000000
00000000
00100000
00010000
10000000
00000000
,  // measure 12
01000000
00010000
00001000
00000100
,  // measure 13
00000001
00000000
00001000
00000000
00000010
00000100
00000010
00000000
,  // measure 14
00001000
00000001
00000010
00001000
,  // measure 15
00010000
00000000
00100000
00000000
10000000
00010000
01000000
00000000
,  // measure 16
00100000
10000000
00010000
10000000
,  // measure 17
01000000
00010000
00001000
00000000
00010000
00001000
00000100
00000000
,  // measure 18
00001001
00000000
00000010
00000000
00000100
00000010
00000100
00000000
,  // measure 19
00001000
00000001
00000020
00000130
,  // measure 20
00001001
00000000
00000001
00000000
00000010
00001000
00010000
00000000
,  // measure 21
00100000
00000000
10000000
00000000
00010000
00100000
01000000
00000000
,  // measure 22
10000000
00100000
00010000
00001000
,  // measure 23
00000010
00000000
00000001
00000000
00001000
00000100
00000010
00000000
,  // measure 24
00001000
00010000
00100000
10000000
,  // measure 25
01000000
00100000
00010000
10000000
01000000
00100000
00010000
00000000
,  // measure 26
01010000
00001000
00000000
00010000
00000000
00000100
00000010
00000100
,  // measure 27
00000000
00001000
00000000
00000001
00000000
00000010
00000100
00001000
,  // measure 28
00000000
00000001
00000000
00000100
00000000
00001000
00010000
00001000
,  // measure 29
00000000
01000000
00000000
00100000
00000000
10000000
00010000
00100000
,  // measure 30
00000000
01000000
00000000
10000000
00100000
01000000
00000000
00010000
,  // measure 31
00000000
00000010
00000000
00000100
00001000
00000010
00000000
00000100
,  // measure 32
00000000
00000001
00000000
00000010
00001000
00010000
00000000
00100000
,  // measure 33
00000000
00100000
00000000
00100000
20000000
00000000
30010000
00100000
,  // measure 34
00000000
01000000
00000000
10000000
00010000
00100000
00000000
01000000
,  // measure 35
00000000
00010000
00000000
00000010
00001000
00000001
00000000
00000001
,  // measure 36
00000000
00000010
00000000
00001000
00000010
00000001
00000000
00001000
,  // measure 37
00000000
00000010
00000100
00000010
00001000
00000001
00000000
00000220
,  // measure 38
00000000
00000000
00000330
00000000
00001001
00000000
00000000
00000010
,  // measure 39
00010000
00000000
00000000
00000000
00011000
00000000
00000000
02200000
,  // measure 40
00000000
03000000
10000000
10000000
,  // measure 41
10000000
00000000
10000000
00000000
02300000
00000000
03010000
01000000
,  // measure 42
00010000
01000000
00100000
01000000
00010000
00000000
00001000
01000000
,  // measure 43
00010000
00100000
00001000
00010000
00001000
00000000
00000010
00000100
,  // measure 44
00000001
00000000
00000010
00000100
00001000
00000000
00000010
00010000
,  // measure 45
00001000
00000100
00000010
00010000
00001000
00000000
00010000
01000000
,  // measure 46
10000000
00100000
00010000
00100000
10000000
00000000
01000000
10000000
,  // measure 47
00010000
00100000
01000000
10000000
01000000
00000000
00100000
01000000
,  // measure 48
00010000
00000000
10000000
00100000
00010000
00000000
10100000
00000000
,  // measure 49
01010000
00000000
10010000
00000000
11000000
00000000
00100000
10000000
,  // measure 50
01000000
00010000
00001000
00000100
00000010
00000000
00010000
00001000
,  // measure 51
00000100
00000010
00010000
00001000
00000100
00000000
00000010
00001000
,  // measure 52
00000100
00000000
00000010
00000001
00000100
00000000
00000010
00001000
,  // measure 53
00010000
01000000
00010000
01000000
10000000
00000000
10000000
01000000
,  // measure 54
00100000
00010000
10000000
01000000
00010000
00000000
00001000
00000100
,  // measure 55
00000010
00001000
00000001
00000100
00000010
00000000
00000100
00000001
,  // measure 56
00000010
00000000
00001000
00000001
00000100
00000000
00001000
00010000
,  // measure 57
00001000
00010000
01000000
10000000
00100000
00000000
01000000
10000000
,  // measure 58
01000000
10000000
01000000
10000000
01000000
00010000
00001000
00000000
,  // measure 59
00001000
00000100
00000000
00000001
00000100
00000000
00000100
00000001
,  // measure 60
00000100
00000001
00000100
00000001
00000100
00001000
00010000
00000000
,  // measure 61
00010000
01000000
00000000
10000000
01000000
00000000
01000000
10000000
,  // measure 62
01000000
10000000
01000000
10000000
01000000
00010000
00001000
00000000
,  // measure 63
00001000
00000100
00000000
00000001
00000100
00000000
00000100
00000001
,  // measure 64
00000100
00000000
00000001
00000000
00000100
00000000
00000001
00000000
00000100
00000000
00000000
00000000
00001000
00000000
00000000
00010000
,  // measure 65
00000000
00000000
01000000
00000000
10000000
00000000
00000000
00100000
00000000
00000000
00010000
00000000
00001000
00000000
00000000
00000100
,  // measure 66
00000000
00000001
00001000
00000000
00000000
00000000
00010010
00000000
,  // measure 67
00001010
00000000
00000100
00001000
00000010
00000000
00010000
00000010
,  // measure 68
00001000
00000000
00000100
00010000
00001000
00000000
00101000
00000000
,  // measure 69
00110000
00000000
01000000
00010000
00100000
00000000
00001000
01000000
,  // measure 70
00010000
01000000
00001000
00010000
00001000
01000000
00010000
01000000
,  // measure 71
00010000
00000000
00100000
00010000
01000000
00000000
00100000
00001000
,  // measure 72
00010000
00000000
01001000
00000000
01010000
00000000
00100000
00010000
,  // measure 73
01000000
00000000
00100000
00001000
00010000
00000000
00010100
00000000
,  // measure 74
00001100
00000000
00000010
00001000
00000001
00000000
00000010
00000001
,  // measure 75
00000000
00000100
00000001
00000000
00000010
00000000
00001000
00010000
,  // measure 76
01000000
00000000
00100000
01000000
10000000
00010000
01000000
00000000
,  // measure 77
10000000
00100000
00000000
00000000
01100000
00000000
00010000
00100000
,  // measure 78
00010000
00001000
00000100
00000010
00000100
00000000
00001000
00000010
,  // measure 79
00000000
00001000
00000100
00000000
00000011
00000000
00000000
00001001
,  // measure 80
00000000
00000000
00000000
00000010
00000100
00001000
00010000
00000000
,  // measure 81
01000000
00000000
00000000
00010000
00000000
00000000
00000000
00000000
00000000
00000000
00000000
00000000
00000000
00000000
00000000
00000000
00000000
00000000
00100000
00000000
00000000
00000000
01000000
00000000
,  // measure 82
00000000
00010000
00000000
00001000
00000000
00000100
00000000
00000010
00000000
00000100
00000000
00000000
,  // measure 83
00000110
00000000
00000010
00001000
00000100
00000000
00000001
00000100
,  // measure 84
00001000
00000000
00000001
00000010
00001000
00000000
00001000
00000010
,  // measure 85
00000001
00000100
00001000
00000100
00001000
00010000
01000000
00010000
,  // measure 86
01000000
10000000
00100000
00000000
10010000
00000000
01000000
00000000
,  // measure 87
01100000
00000000
00100000
00010000
01000000
00000000
10000000
01000000
,  // measure 88
00010000
00000000
10000000
00100000
00010000
00000000
00010000
00100000
,  // measure 89
10000000
01000000
00010000
01000000
00010000
00001000
00000100
00001000
,  // measure 90
00000100
00000001
00000010
00000000
00001001
00000000
00000010
00010000
,  // measure 91
00000010
00001000
00000010
00000100
00000010
00000001
00000010
00000100
,  // measure 92
00000001
00000000
00000110
00000000
00001000
00000000
00010000
00100000
,  // measure 93
01000000
00100000
10000000
00100000
00010000
00000000
10000000
01000000
,  // measure 94
00010000
00000000
00001000
00000100
00001000
00000000
00000100
00010000
,  // measure 95
00000100
00001000
00000100
00000010
00000100
00000001
00000100
00000010
,  // measure 96
00000001
00000000
00000010
00000100
00001000
00010000
01000000
00100000
,  // measure 97
10000000
00110000
11000000
00010000
,  // measure 98
01010000
00000000
00110000
00000000
01000000
00000000
00001000
01000000
,  // measure 99
00000000
00100000
00010000
00000000
01000000
00000000
10000000
01000000
,  // measure 100
00100000
00010000
00001000
00000100
00000010
00000000
00000010
00000100
,  // measure 101
00000000
00000100
00000001
00000000
00001000
00000000
00000100
00001000
,  // measure 102
00010000
00001000
00010000
01000000
10000000
00000000
00010000
01000000
,  // measure 103
10000000
00000000
10000000
00100000
00010000
00000000
01000000
00001000
,  // measure 104
00010000
01000000
10000000
00100000
00010000
00000000
10000000
00010000
,  // measure 105
00000000
01000000
00100000
00000000
01000000
00000000
00010000
01000000
,  // measure 106
00001000
00010000
00000100
00001000
00000010
00000000
00000000
00000100
,  // measure 107
00000000
00000000
00000000
00000000
,  // measure 108
00000000
00110000
00000000
10000000
00010000
01000000
00100000
10000000
,  // measure 109
01000000
00100000
00000000
00010000
10000000
01000000
00010000
00001000
,  // measure 110
00000100
00000001
00000000
00001000
00000100
00001000
00000010
00000100
,  // measure 111
00000001
00000100
00000000
00000001
00000010
00000100
00001000
00010000
,  // measure 112
01000000
00010000
00000000
10000000
01000000
00100000
00010000
10000000
,  // measure 113
01000000
00100000
00000000
00010000
00100000
01000000
10000000
01000000
,  // measure 114
00010000
00001000
00000000
00000100
00000001
00001000
00000010
00001000
,  // measure 115
00000100
00000010
00000000
00000001
00000100
00001000
00000010
00000001
,  // measure 116
00000100
00000010
00000000
00000001
00000100
00001000
00000000
00010000
,  // measure 117
01000000
10000000
00000000
00010000
01000000
00010000
00100000
10000000
,  // measure 118
01000000
00100000
00000000
10000000
01000000
00010000
00000000
00001000
,  // measure 119
00000100
00000001
00000000
00001000
00000100
00000001
00000010
00001000
,  // measure 120
00000100
00000010
00000000
00000001
00000100
00001000
00000000
00010000
,  // measure 121
01000000
00100000
00000000
00010000
10000000
01000000
00100000
00010000
,  // measure 122
01000000
00100000
00000000
10000000
01000000
00010000
00000000
00001000
,  // measure 123
00000100
00000001
00000000
00001000
00000001
00000010
00000001
00001000
,  // measure 124
00000001
00001100
00000000
00001000
00000100
00001000
00000000
00000010
,  // measure 125
00001000
00000100
00000000
00000010
00000100
00001000
00010000
01000000
,  // measure 126
10000000
00100000
00000000
00010000
10000000
01000000
00000000
00010000
,  // measure 127
00001000
00000100
00000000
00000001
00000100
00001000
00000000
00000001
,  // measure 128
00001000
00000001
00000000
00000010
00000101
00000000
00000000
00000000
,  // measure 129
00000000
00001000
00000000
00000100
00001100
00000000
00000000
00000000
,  // measure 130
00000000
00011000
00000000
01000000
01010000
00000000
00000000
00000000
,  // measure 131
00000000
10000000
00010000
00100000
01000000
00010000
10000000
00010000
,  // measure 132
10000000
10100000
00000000
01000000
00000000
00001000
00010000
00001000
,  // measure 133
00010000
00000010
00000000
00000011
00000000
00000100
00001000
00000001
,  // measure 134
00000010
00001000
00000000
00001100
00000000
00000010
00000100
00001000
,  // measure 135
00000100
00001000
00010000
00001000
00010000
00001000
00010000
00000100
,  // measure 136
00000000
00011000
00000000
01000000
00000000
01000000
00100000
01000000
,  // measure 137
00100000
00010000
10000000
00010000
01000000
00001000
01000000
00010000
,  // measure 138
01000000
10000000
00000000
01000000
00010000
10000000
00010000
00100000
,  // measure 139
00000000
01000000
00010000
00001000
00010000
00001000
00000000
00001100
,  // measure 140
00000000
00000011
00000000
00000100
00000000
00010000
00001000
00010000
,  // measure 141
00001000
00100000
00000000
10100000
00000000
01000000
00010000
10000000
,  // measure 142
00100000
00010000
00000000
01010000
00000000
00100000
01000000
00010000
,  // measure 143
01000000
00010000
00001000
00010000
00001000
00010000
00001000
01000000
,  // measure 144
00000000
00011000
00000000
00000100
00000000
00000100
00000010
00000100
,  // measure 145
00000010
00001000
00000001
00001000
00000100
00010000
00000100
00001000
,  // measure 146
00100000
00010000
00000000
00100000
10000000
00010000
10000000
01000000
,  // measure 147
10000000
01000000
00000000
00010000
00001000
00000100
00000000
00000010
,  // measure 148
00000100
00000010
00000000
00000101
00000000
00000010
00000100
00000001
,  // measure 149
00000100
00000010
00000000
00000001
00000100
00001000
00000000
00010000
,  // measure 150
00000000
01000000
00000000
11000000
00000000
01000000
10000000
00010000
,  // measure 151
01000000
00010000
00000000
00100000
01000000
00010000
10000000
01000000
,  // measure 152
00000000
00010000
00000000
00011000
00000000
00000010
00001000
00000100
,  // measure 153
00001000
00000100
00000000
00010000
00001000
00000100
00000000
00000001
,  // measure 154
00000000
00001000
00000000
00001100
00000000
00000100
00000001
00001000
,  // measure 155
00000100
00010000
00000000
00001000
00000000
00001000
00010000
00001000
,  // measure 156
00010000
00000100
00000000
00001000
00001100
00000000
00000000
00011000
,  // measure 157
00000000
01000000
00000000
00010000
01010000
00000000
00000000
00110000
,  // measure 158
00000000
11000000
00000000
00100000
01100000
00000000
00000000
00001000
,  // measure 159
00000000
00011000
00000000
00000010
00000110
00000000
00000000
00001001
,  // measure 160
00000000
00000010
00000000
00000100
00000001
00000010
00000100
00001000
,  // measure 161
00000100
00001000
00000000
00000010
00000100
00010000
00001000
00010000
,  // measure 162
01000000
10000000
00000000
00100000
10000000
00100000
01000000
00100000
,  // measure 163
10000000
01000000
00000000
00100000
00001000
00000100
00000001
00000010
,  // measure 164
00000100
00001000
00000010
00000100
00000001
00001000
00000010
00000100
,  // measure 165
00001000
00010000
01000000
10000000
01000000
10000000
00010000
00100000
,  // measure 166
00010000
10000000
01000000
00100000
00010000
10000000
01000000
00010000
,  // measure 167
00001000
00000100
00000001
00001000
00000001
00001000
00000001
00000010
,  // measure 168
00001000
00000100
00000010
00000100
00001000
00000001
00001000
00000001
,  // measure 169
00001000
00000010
00000100
00001000
00010000
01000000
10000000
00100000
,  // measure 170
00010000
01000000
00010000
10000000
01000000
00100000
00010000
01000000
,  // measure 171
00100000
10000000
01000000
10000000
01000000
00010000
00001000
00000010
,  // measure 172
00001000
00000001
00000100
00000001
00000010
00000100
00001000
00000001
,  // measure 173
00000100
00000010
00001000
00000100
00000001
00000100
00001000
00000010
,  // measure 174
00000001
00000100
00001000
00010000
00001000
00010000
01000000
10000000
,  // measure 175
01000000
10000000
00010000
01000000
00100000
10000000
00010000
00100000
,  // measure 176
10000000
00010000
00100000
00010000
01000000
00010000
10000000
01000000
,  // measure 177
00100000
00010000
10000000
01000000
00010000
00001000
00000100
00000001
,  // measure 178
00000100
00001000
00000100
00000010
00000001
00000100
00000010
00001000
,  // measure 179
00000001
00000000
00000010
00000000
00000100
00000000
00001000
00000000
00010000
00000000
01000000
00000000
01000000
00000000
00010000
00010000
;

//---------------dance-double - ----------------
#NOTES:
     dance-double:
     :
     Challenge:
     10:
     0.778,1.000,0.420,0.103,0.216: // measure 1
00000000
00000000
00000000
00000000
,  // measure 2
10000000
01000000
10000000
01000000
10000000
00010000
01000000
00100000
01000000
00001000
01000000
00001000
00010000
00000100
00001000
00000100
,  // measure 3
00000010
00000001
00000010
00000001
00001000
00000010
00000100
00000001
00001000
00000100
00001000
00000100
00000010
00000001
00000100
00000010
,  // measure 4
00010000
00001000
00010000
00001000
01000000
00010000
10000000
01000000
00100000
00010000
00100000
00010000
10000000
01000000
00100000
00010000
,  // measure 5
01000000
00001000
01000000
00001000
00010000
00000100
00000010
00000001
00001000
00000010
00001000
00000010
00010000
00001000
01000000
00010000
,  // measure 6
00100000
01000000
00100000
01000000
10000000
00010000
01000000
00100000
00010000
00001000
00010000
00001000
00000010
00000001
00000100
00000010
,  // measure 7
00001000
00000001
00001000
00000001
00000100
00001000
00010000
00100000
10000000
00010000
10000000
00010000
10000000
01000000
00010000
00001000
,  // measure 8
00000020
00000032
00002003
00003020
,  // measure 9
00000130
00000000
00000000
00000000
00000001
00000000
00000000
00000000
00000000
00000000
00000000
00000000
00000010
00000000
00000000
00000000
00000001
00000000
00000000
00000000
00001000
00000000
00000010
00000000
00000100
00000000
00000001
00000000
00001000
00000100
00001000
00000100
,  // measure 10
00000010
00000001
00000010
00000100
00010000
00000010
00000100
00000001
,  // measure 11
00000000
00000001
00000000
00000100
00000010
00010000
00100000
10000000
,  // measure 12
01000000
00100000
00001000
01000000
00100000
10000000
01000000
00010000
,  // measure 13
00000000
00010000
00000000
00001000
00010000
01000000
00100000
00001000
,  // measure 14
00010000
00100000
10000000
01000000
00010000
00001000
00010000
00000100
,  // measure 15
00000000
00000100
00000000
00000010
00000001
00000100
00001000
00000100
,  // measure 16
00000010
00010000
00001000
00011000
00000000
10010000
00000000
01100000
,  // measure 17
00000000
10010000
00000000
00100000
01000000
00000000
10010000
00000000
,  // measure 18
01000000
00000000
00100000
00000000
00001000
00000000
00010000
00000000
01000000
10000000
01000000
10000000
00100000
00000000
01000000
00000000
,  // measure 19
00001000
00000000
00010000
00000000
00000100
00000000
00000010
00000000
00000001
00001000
00000001
00001000
00000100
00000000
00000000
00000000
,  // measure 20
00000010
00000001
00000100
00001000
00010000
00000100
00010000
00001000
,  // measure 21
01000000
00100000
10000000
01000000
00100000
00001000
00010000
00100000
,  // measure 22
10000000
00010000
00100000
01000000
10000000
00100000
01001000
00010000
,  // measure 23
00000100
00000010
00000001
00000100
00001000
00000100
00000010
00010000
,  // measure 24
00001000
00000010
00001000
00011000
00000000
00001001
00000000
00000110
,  // measure 25
00000000
00001001
00000000
00000010
00000100
00000000
00001001
00000000
,  // measure 26
00000100
00000010
00000001
00000100
00001000
00010000
00000100
00001000
,  // measure 27
00000000
00000001
00000010
00000100
00010000
00000100
00000010
00000001
,  // measure 28
00000000
00000100
00000010
00010000
00001000
00100000
01000000
10000000
,  // measure 29
00000000
00100000
10000000
01000000
00001000
01000000
10000000
00100000
,  // measure 30
01000000
00001000
00010000
00100000
10000000
01000000
00000000
00100000
,  // measure 31
00001000
00010000
00001000
00000010
00000001
00000100
00000000
00001000
,  // measure 32
00010000
00001000
00000100
00000010
00001000
00000100
00000000
00000001
,  // measure 33
00000100
00000010
00000001
00000100
00002002
00003003
00001001
00000100
,  // measure 34
00000010
00000001
00000100
00000010
00010000
00001000
01000000
00100000
,  // measure 35
00010000
00001000
00100000
01000000
10000000
01000000
00100000
00010000
,  // measure 36
01000000
00001000
00010000
00000100
00010000
00001000
00100000
00001000
,  // measure 37
00010000
00000010
00000001
00000100
00000210
00000000
00000310
00010010
,  // measure 38
00000000
00000000
00010000
00001000
01002000
00000000
01003000
01100000
,  // measure 39
00000000
00000000
00100000
00010000
00021000
00000000
00031000
01001000
,  // measure 40
00000000
00000000
00100000
10000000
01000000
00010000
00001000
00000100
,  // measure 41
00000001
00000010
00000200
00000000
00000310
00000000
00000010
00000001
,  // measure 42
00000010
00000001
00000100
00001000
00000100
00001000
00010000
01000000
,  // measure 43
00010000
01000000
10000000
00100000
00000000
00100000
10000000
01000000
,  // measure 44
10000000
01000000
00010000
00001000
00010000
00001000
00000100
00000001
,  // measure 45
00000100
00000001
00001000
00000010
00000000
00000010
00001000
00000001
,  // measure 46
00001000
00000001
00000100
00001000
00000100
00001000
00100000
00010000
,  // measure 47
00100000
00010000
10000000
00100000
00000000
00100000
01000000
00001000
,  // measure 48
00010000
00000100
00000010
00000001
00000100
00001000
00020000
00000000
,  // measure 49
00001000
00000000
01000000
00000000
01030000
00000000
01000000
10000000
,  // measure 50
00100000
00010000
00001000
00000010
00000001
00000100
00000001
00000010
,  // measure 51
00001000
00010000
00100000
10000000
01000000
10000000
00010000
01000000
,  // measure 52
10000000
01000000
00010000
00100000
00010000
00001000
00000100
00001000
,  // measure 53
00000010
00001000
00000001
00000100
00001000
00000100
00001000
00010000
,  // measure 54
01000000
00010000
01000000
00100000
00010000
10000000
00100000
00010000
,  // measure 55
00000010
00010000
00000100
00001000
00000100
00010000
00001000
00000100
,  // measure 56
00000001
00000010
00000100
00010000
00001000
00000100
00000010
00000100
,  // measure 57
00001000
00010000
00200000
00000000
00300000
00000000
10000000
00010000
,  // measure 58
01000000
00001000
00010000
00000100
00001000
00000001
00001000
00000100
,  // measure 59
00010000
00001000
01000000
00010000
10000000
10010000
00100000
00001000
,  // measure 60
00010000
00000010
00001000
00000001
00001000
00000010
00010000
00001000
,  // measure 61
00100000
00010000
10000000
00010000
00100000
00011000
00011000
00000100
,  // measure 62
00001000
00000001
00000010
00000001
00001000
00000010
00010000
00001000
,  // measure 63
01000000
00010000
00100000
01100000
00000000
01100000
00000000
10010000
,  // measure 64
10000000
00000000
01000000
00000000
00010000
00000000
00001000
00000000
00000010
00000000
00000001
00000000
00000100
00000000
00000000
00000100
,  // measure 65
00000000
00000000
00000100
00000000
00000100
00000000
00000000
00000100
00000000
00000000
00000100
00000000
00000100
00000000
00000000
00000100
,  // measure 66
00000000
00000100
00000100
00000000
00000000
00000000
00000001
00001000
,  // measure 67
00000010
00000000
00010000
00000100
00010000
00000000
00001000
00000000
01000000
00000000
00010000
00000000
00100000
00000000
10000000
00000000
,  // measure 68
01000000
00010000
01100000
00000000
01100000
00000000
10000000
00010000
,  // measure 69
00100000
00000000
00001000
00010000
00001000
00000000
00010000
00000000
00000100
00000000
00001000
00000000
00000010
00000000
00000001
00000000
,  // measure 70
00000000
00000011
00000000
00001010
00000000
00010100
00000000
00011000
,  // measure 71
01000000
00000000
00000000
00000000
00100000
00000000
10000000
01000000
10000000
00000000
00010000
00000000
00100000
00000000
01000000
00000000
,  // measure 72
00010000
00001000
00011000
00000000
00011000
00000000
00000100
00010000
,  // measure 73
00001000
00000000
00010000
00000010
00010000
00000000
00000100
00000000
00001000
00000000
00000001
00000000
00000010
00000000
00000100
00000000
,  // measure 74
00001000
01000000
00010000
01000000
10000000
00010000
00100000
00000000
,  // measure 75
00000000
00000000
01000000
00000000
10000000
01000000
10000000
01000000
10000000
00000000
00000000
00000000
00110000
00000000
00101000
00000000
,  // measure 76
00110000
00000000
00000000
00000000
00001000
01000000
00000000
00000000
00000100
00010000
00000000
00000000
00000001
00000000
00000100
00000000
,  // measure 77
00000010
00000000
00001000
00000000
00000000
00000001
00000000
00000001
00000010
00000000
00000100
00000000
00001001
00000000
00000000
00000000
,  // measure 78
00000110
00000000
00000000
00000000
00001001
00000000
00000000
00000000
00000000
00000000
00000000
00000000
00010000
00000010
00010000
00000000
,  // measure 79
00001000
00000000
00100000
00010000
00000000
00010000
00000000
01000000
00100000
00000000
00000000
00000000
00000000
00000000
10010000
00000000
,  // measure 80
00000000
00000000
00100000
00010000
00100000
00010000
00100000
00000000
00000000
00000000
00001000
00000000
00001000
00000000
00010000
00000100
,  // measure 81
00010000
00000000
00000000
00000100
00000000
00000000
00010000
00000000
00000000
00000000
00000000
00000000
00000000
00000000
00000000
00000000
00000000
00000000
00001001
00000000
00000000
00000000
00000000
00000000
00001001
00000000
00000000
00000000
00000000
00000000
00000000
00000000
00000000
00000000
00000000
00000000
00000001
00000000
00000000
00000000
00000000
00000000
00000000
00000000
00000010
00000000
00000000
00000000
,  // measure 82
00000000
00001000
00000000
00010000
00000000
01000000
00000000
10000000
00000000
10010000
00000000
00000000
,  // measure 83
10010000
00000000
00000000
10100000
00000000
00110000
00000000
00010010
,  // measure 84
00000000
00001100
00000000
00000101
00000000
00010100
00000000
01010000
,  // measure 85
00000000
01100000
00000000
00101000
00000000
01001000
10010000
00000000
,  // measure 86
00011000
00000000
00001001
00000000
00000110
00000000
00000000
00000001
,  // measure 87
00001000
00000100
00000010
00000100
00000000
00000000
00010000
00000100
,  // measure 88
00000000
00000000
00001000
01000000
00001000
01000000
00000000
00010000
,  // measure 89
00010000
00100000
01000000
10000000
00000000
00010000
10010000
00000000
,  // measure 90
00011000
00000000
00001001
00000000
00000110
00000000
00000001
00000100
,  // measure 91
00000001
00000100
00010000
01000000
00010000
01000000
00100000
01000000
,  // measure 92
00100000
01000000
10010000
00000000
10000000
10000000
10000000
01000000
,  // measure 93
10000000
01000000
00001000
00000100
00001000
00000100
00000010
00000100
,  // measure 94
00000010
00000100
00000020
00000000
00000001
00000001
00000031
00000100
,  // measure 95
00000001
00000100
00001000
00000100
00001000
00000100
00010000
01000000
,  // measure 96
00010000
01000000
10000000
01000000
00010000
10000000
01000000
10000000
,  // measure 97
01000000
10000000
01000000
00010000
01000000
00010000
01000000
00001000
,  // measure 98
00000100
00000000
00001000
00000000
00000100
00000000
00000000
00000010
00000001
00000000
00001000
00000000
00000100
00000000
00000010
00000000
,  // measure 99
00000000
00000200
00000000
00020300
,  // measure 100
00000000
00000000
00030020
00000000
00000000
00000000
00010030
00010000
,  // measure 101
00010000
00000000
00000100
00000100
00000100
00000000
00001000
00001000
,  // measure 102
00001000
00000000
01000000
01000000
01000000
00000000
00020000
00000000
,  // measure 103
00000000
02030000
00000000
03200000
,  // measure 104
00000000
00000000
20300000
00000000
00000000
00000000
31000000
01000000
,  // measure 105
01000000
00000000
00001000
00001000
00001000
00000000
00000100
00000100
,  // measure 106
00000100
00000000
00000000
00000000
00000010
00000000
00000010
00000000
00000010
00000000
00000000
00000000
00000000
00000000
00000001
00000001
,  // measure 107
00000000
00000000
00000000
00000000
,  // measure 108
00000000
00000011
00000000
00000001
00000100
00000010
00001000
00000100
,  // measure 109
00000010
00000100
00000000
00010000
00001000
00000100
00001000
00010000
,  // measure 110
01000000
00010000
00000000
01000000
10000000
00010000
01000000
00100000
,  // measure 111
10000000
00010000
00000000
01000000
00001000
00010000
00000010
00010000
,  // measure 112
00001000
00000100
00000000
00000001
00000010
00001000
00000010
00000100
,  // measure 113
00010000
00001000
00000000
01000000
10000000
01000000
00100000
01000000
,  // measure 114
00001000
00010000
00000000
00000100
00000001
00000100
00000010
00000001
,  // measure 115
00000100
00001000
00000000
00010000
01000000
10000000
00100000
01000000
,  // measure 116
00100000
01010000
00000000
10000000
00100000
01000000
00001000
00010000
,  // measure 117
00000100
00001000
00000000
00000001
00000010
00000100
00010000
00001000
,  // measure 118
01000000
00010000
00000000
10000000
00100000
00010000
00001000
00000010
,  // measure 119
00000001
00001000
00000000
00000001
00000010
00001000
00010000
00100000
,  // measure 120
10000000
00010000
00000000
10000000
01000000
00010000
00001000
00000100
,  // measure 121
00000001
00001000
00000000
00000001
00000100
00001000
00010000
01000000
,  // measure 122
10000000
00010000
00000000
10000000
01000000
10000000
00100000
00010000
,  // measure 123
00001000
00010000
00000000
00000100
00001000
00000010
00000001
00000010
,  // measure 124
00001000
00001001
00000000
00000001
00000010
00000001
00000010
00000001
,  // measure 125
00000010
00000001
00000000
00001000
00010000
00001000
00010000
00001000
,  // measure 126
00010000
00001000
00000000
10000000
00100000
10000000
00100000
10000000
,  // measure 127
00100000
10000000
00000000
00010000
00001000
00010000
00001000
00010000
,  // measure 128
00001000
00011000
00000000
00000000
00010100
00000000
00000000
00000000
,  // measure 129
00000000
00011000
00000000
00000000
01001000
00000000
00000000
00000000
,  // measure 130
00000000
00011000
00000000
00000000
00010010
00000000
00000000
00000000
,  // measure 131
00000000
00000000
00001000
00000000
00010000
00000000
00001000
00000000
00010000
00000000
00001000
00000000
00010000
00000000
00001000
00010000
,  // measure 132
00001000
00010000
00001000
00000000
00000000
00000000
00010000
00000000
00000100
00000000
00001000
00000000
00000010
00000000
00000100
00000000
,  // measure 133
00000001
00000010
00000100
00001000
00010000
00100000
01000000
10000000
,  // measure 134
00100000
00010000
00100000
10000000
01000000
00010000
00001000
00000100
,  // measure 135
00000001
00000010
00000100
00000010
00000100
00000020
00000000
00000001
,  // measure 136
00000000
00000230
00000000
00010000
00000000
00000001
00000000
00000320
,  // measure 137
00000000
00000001
00000000
00000100
00000000
00010000
00000000
00000031
,  // measure 138
00000000
00000101
00000000
00001100
00000000
00000101
00000000
00000011
,  // measure 139
00000000
00001010
00000000
00000110
00000000
00010100
00000000
00011000
,  // measure 140
00000000
00001000
01000000
00001000
00100000
00010000
01000000
00100000
,  // measure 141
10000000
01000000
00100000
00010000
00001000
00000100
00000010
00000001
,  // measure 142
00000100
00001000
00000100
00000001
00000010
00001000
00010000
00100000
,  // measure 143
10000000
00100000
01000000
00100000
01000000
00200000
00000000
10000000
,  // measure 144
00000000
02300000
00000000
00001000
00000000
10000000
00000000
03200000
,  // measure 145
00000000
10000000
00000000
01000000
00000000
00001000
00000000
10300000
,  // measure 146
00000000
11000000
00000000
01010000
00000000
11000000
00000000
10100000
,  // measure 147
00000000
00110000
00000000
01100000
00000000
01001000
00000000
00011000
,  // measure 148
00000000
00010010
00000000
00000010
00001000
00000001
00000100
00001000
,  // measure 149
00000100
00000001
00000000
00000001
00000010
00000100
00010000
00001000
,  // measure 150
00000100
00000001
00000000
00000001
00000100
00001000
00010000
01000000
,  // measure 151
10000000
00100000
00000000
10000000
00100000
00000000
00100000
00000000
,  // measure 152
00000000
10010000
00000000
00100000
00010000
10000000
01000000
00010000
,  // measure 153
01000000
10000000
00000000
10000000
00100000
01000000
00001000
00010000
,  // measure 154
01000000
10000000
00000000
10000000
01000000
00010000
00001000
00000100
,  // measure 155
00000001
00001000
00000000
00000100
00010000
00001000
00010000
00001000
,  // measure 156
00010000
00011000
00000000
00000000
00010100
00000000
00000000
00001000
,  // measure 157
00001000
00011000
00000000
00000000
01001000
00000000
00000000
00010000
,  // measure 158
00010000
00011000
00000000
00000000
00010010
00000000
00000000
00001000
,  // measure 159
00001000
00011000
00000000
00000000
00101000
00000000
00000000
00000000
,  // measure 160
00000000
11000000
00000000
00000000
01010000
00000000
00000000
00000000
,  // measure 161
00000000
00001010
00000000
00000000
00000011
00000000
00000000
00000000
,  // measure 162
00000000
00000101
00000000
00000000
00001100
00000000
00000000
00000000
,  // measure 163
00000000
00000000
01100000
00000000
00000000
00000000
00000000
00000000
00000000
00000000
10010000
00000000
00000000
00000000
01000000
00100000
,  // measure 164
01000000
00100000
01000000
00000000
00100000
00000000
00010000
00000000
01000000
00000000
00100000
00000000
10000000
00000000
00010000
00000000
,  // measure 165
01000000
00000000
00100000
00000000
00010000
00000000
00001000
00000000
00000010
00000000
00000001
00000000
00000010
00000000
00000001
00001000
,  // measure 166
00000001
00001000
00000001
00000000
00001000
00000000
00000100
00000000
00001000
00000000
00000001
00000000
00000010
00000000
00000100
00000000
,  // measure 167
00001000
00000000
00000001
00000000
00000010
00000000
00001000
00000000
00010000
00000000
00100000
00000000
10000000
00000000
00010000
10000000
,  // measure 168
00010000
10000000
00010000
00000000
10000000
00000000
01000000
00000000
00010000
00000000
01000000
00000000
10000000
00000000
00100000
00000000
,  // measure 169
00010000
00000000
10000000
00000000
01000000
00000000
00010000
00000000
00100000
00000000
01000000
00000000
00100000
00000000
00001000
00010000
,  // measure 170
00001000
00010000
00001000
00000000
00010000
00000000
00000010
00000000
00000100
00000000
00000001
00000000
00001000
00000000
00000010
00000000
,  // measure 171
00001000
00000000
00000001
00000000
00000010
00000000
00000100
00000000
00001000
00000000
00000010
00000000
00000100
00000000
00000001
00000010
,  // measure 172
00000001
00000010
00000001
00000000
00000010
00000000
00001000
00000000
00010000
00000000
01000000
00000000
00010000
00000000
00001000
00000000
,  // measure 173
00100000
00000000
00010000
00000000
01000000
00000000
00100000
00000000
00010000
00000000
00100000
00000000
10000000
00000000
01000000
00010000
,  // measure 174
01000000
00010000
01000000
00000000
00010000
00000000
00001000
00000000
00010000
00000000
01000000
00000000
00100000
00000000
01000000
00000000
,  // measure 175
10000000
00000000
00100000
00000000
00010000
00000000
00001000
00000000
00010000
00000000
00001000
00000000
00000010
00000000
00000001
00001000
,  // measure 176
00000001
00001000
00000001
00000000
00001000
00000000
00000010
00000000
00000100
00000000
00000001
00000000
00001000
00000000
00000100
00000000
,  // measure 177
00000001
00000000
00001000
00000000
00000100
00000000
00001000
00000000
00000010
00000000
00001000
00000000
00000001
00000000
00000010
00000100
,  // measure 178
00000010
00000100
00000010
00000000
00001000
00000000
00000001
00000000
00000010
00000000
00001000
00000000
00010000
00000000
00100000
00000000
,  // measure 179
10000000
00000000
00100000
00000000
00010000
00000000
00100000
00000000
01000000
00000000
00010000
10000000
00010000
10000000
01000000
01000000
,  // measure 180
00000000
00000000
00000000
00000000
00000100
00000100
00000000
00010000
00010000
00000000
00000000
00000010
00000010
00000000
00000001
00000001
;
