#TITLE:UM3 SP Medley;
#SUBTITLE:;
#ARTIST:Various;
#TITLETRANSLIT:;
#SUBTITLETRANSLIT:;
#ARTISTTRANSLIT:;
#CREDIT:;
#BANNER:UM3 SP Medley.png;
#BACKGROUND:UM3 SP Medley-bg.png;
#LYRICSPATH:;
#CDTITLE:Z-I-v simfile collab.png;
#MUSIC:UM3 SP Medley.mp3;
#OFFSET:-4.141;
#SAMPLESTART:43.497;
#SAMPLELENGTH:15.100;
#SELECTABLE:YES;
#BPMS:0.000=125.000,56.000=250.000,119.000=323.314,120.000=62.500,123.000=67.096,124.000=150.000,219.000=143.492,220.000=145.005,315.000=154.304,316.000=167.005,380.000=150.000,383.000=128.822,384.000=150.000,453.000=167.005;
#STOPS:;
#BGCHANGES:;

//---------------dance-single - ----------------
#NOTES:
     dance-single:
     :
     Beginner:
     2:
     0.142,0.187,0.100,0.005,0.000: // measure 1
0000
0000
0000
0000
,  // measure 2
0000
0000
0000
0000
,  // measure 3
1000
1000
1000
0000
,  // measure 4
0000
0000
0000
0000
,  // measure 5
0001
0001
0001
0000
,  // measure 6
0000
0000
0000
0000
,  // measure 7
1000
1000
0000
0000
,  // measure 8
0100
0100
0000
0000
,  // measure 9
0001
0001
0000
0000
,  // measure 10
0100
0100
0000
0000
,  // measure 11
1000
1000
0000
0000
,  // measure 12
0010
0010
0000
0000
,  // measure 13
0001
0001
0000
0000
,  // measure 14
1001
0000
0000
0000
,  // measure 15
1001
0000
0000
0000
,  // measure 16
0000
0000
0000
0000
,  // measure 17
0110
0000
0000
0000
,  // measure 18
0000
0000
0000
0000
,  // measure 19
1000
0000
0001
0000
,  // measure 20
1000
0000
0000
0000
,  // measure 21
0001
0000
1000
0000
,  // measure 22
0001
0000
0000
0000
,  // measure 23
0010
0000
0000
0000
,  // measure 24
0100
0000
0000
0000
,  // measure 25
0010
0000
0000
0000
,  // measure 26
0100
0000
0000
0000
,  // measure 27
0110
0000
0000
0000
,  // measure 28
1001
0000
0000
0000
,  // measure 29
0110
0000
0000
0000
,  // measure 30
1001
0000
0000
0000
,  // measure 31
1001
0000
0000
0000
,  // measure 32
1000
0000
0000
0000
,  // measure 33
0001
0000
0000
0000
,  // measure 34
1000
0000
0000
0000
,  // measure 35
0100
0000
0000
0000
,  // measure 36
0001
0000
0000
0000
,  // measure 37
1000
0000
0000
0000
,  // measure 38
0001
0000
0000
0000
,  // measure 39
0100
0000
0000
0000
,  // measure 40
1000
0000
1000
0000
,  // measure 41
1000
0000
0000
0000
,  // measure 42
0001
0000
0001
0000
,  // measure 43
0001
0000
0000
0000
,  // measure 44
1000
0000
0001
0000
,  // measure 45
1000
0000
0000
0000
,  // measure 46
0001
0000
1000
0000
,  // measure 47
0001
0000
0000
0000
,  // measure 48
1001
0000
0000
0000
,  // measure 49
0110
0000
0000
0000
,  // measure 50
1001
0000
0000
0000
,  // measure 51
0110
0000
0000
0000
,  // measure 52
1000
0000
1000
0000
,  // measure 53
0001
0000
0001
0000
,  // measure 54
1000
0000
1000
0000
,  // measure 55
0001
0000
0001
0000
,  // measure 56
0110
0000
0010
0000
,  // measure 57
0001
0000
0000
0000
,  // measure 58
0100
0000
0010
0000
,  // measure 59
1000
1000
1000
0000
,  // measure 60
1000
0000
0001
0000
,  // measure 61
0010
0000
0000
0000
,  // measure 62
0100
0000
1000
0000
,  // measure 63
0001
0000
0001
0000
,  // measure 64
1000
0000
0000
1000
,  // measure 65
1000
0000
0000
0001
,  // measure 66
0001
0000
0000
1000
,  // measure 67
1000
0000
0000
0010
,  // measure 68
0010
0000
0000
0100
,  // measure 69
0100
0000
0000
0010
,  // measure 70
0010
0000
0000
0100
,  // measure 71
0200
0000
0000
0300
,  // measure 72
0100
0000
0001
0000
,  // measure 73
0010
0000
0000
0000
,  // measure 74
0100
0000
1000
0000
,  // measure 75
0010
0010
0010
0000
,  // measure 76
0010
0000
0100
0000
,  // measure 77
0010
0000
0100
0000
,  // measure 78
0110
0000
0000
0000
,  // measure 79
1001
0000
0000
0000
,  // measure 80
1001
0000
0000
0000
,  // measure 81
0100
0000
0000
0000
,  // measure 82
0001
0000
0001
0000
,  // measure 83
0001
0000
0000
0000
,  // measure 84
1000
0000
1000
0000
,  // measure 85
1000
0000
0000
0000
,  // measure 86
0010
0000
0010
0000
,  // measure 87
0010
0000
0000
0000
,  // measure 88
0100
0000
0000
0100
,  // measure 89
0100
0000
0000
0001
,  // measure 90
0001
0000
0000
1000
,  // measure 91
1000
0000
0000
0001
,  // measure 92
0001
0000
0000
0010
,  // measure 93
0010
0000
0000
1000
,  // measure 94
1000
0000
1000
0000
,  // measure 95
0001
0001
0001
0000
,  // measure 96
1001
0000
0000
0000
,  // measure 97
1000
0000
1000
0000
,  // measure 98
0001
0000
0001
0000
,  // measure 99
1000
0000
1000
0000
,  // measure 100
0001
0000
0001
0000
,  // measure 101
1001
0000
0000
0000
,  // measure 102
0110
0000
0000
0000
,  // measure 103
1000
0000
0000
0000
,  // measure 104
0001
0000
0000
0000
,  // measure 105
0010
0000
0000
0000
,  // measure 106
0001
0000
0000
0000
,  // measure 107
0100
0000
0000
0000
,  // measure 108
1000
0000
0000
0000
,  // measure 109
0010
0000
0000
0000
,  // measure 110
1000
0000
0000
0000
,  // measure 111
0100
0000
0000
0000
,  // measure 112
0001
0000
0000
0000
,  // measure 113
1001
0000
0000
0000
,  // measure 114
0001
0000
0000
0000
,  // measure 115
0000
0000
1000
1000
,  // measure 116
1000
0000
0000
0000
,  // measure 117
0000
0000
0100
0100
,  // measure 118
0100
0000
0000
0000
,  // measure 119
0000
0000
0010
0010
,  // measure 120
0010
0000
0000
0000
,  // measure 121
0000
0000
0000
0000
,  // measure 122
1001
0000
0000
0000
,  // measure 123
0000
0000
0001
0001
,  // measure 124
0001
0000
0000
0000
,  // measure 125
0000
0000
0100
0100
,  // measure 126
0100
0000
0000
0000
,  // measure 127
0000
0000
0010
0010
,  // measure 128
0010
0000
0000
0000
,  // measure 129
1000
0000
1000
0000
,  // measure 130
0010
0000
0000
0000
,  // measure 131
0100
0000
0000
0000
,  // measure 132
0001
0000
0000
0000
,  // measure 133
1000
0000
0000
0000
,  // measure 134
0100
0000
0000
0000
,  // measure 135
0010
0000
0010
0000
,  // measure 136
0010
0000
0000
0000
,  // measure 137
0001
0000
0000
0000
,  // measure 138
1001
0000
0000
0000
;

//---------------dance-single - ----------------
#NOTES:
     dance-single:
     :
     Easy:
     4:
     0.289,0.374,0.214,0.168,0.000: // measure 1
0000
0000
0000
0000
,  // measure 2
0000
0000
0000
0000
,  // measure 3
1000
0001
1000
0001
,  // measure 4
0010
0001
0100
1000
,  // measure 5
0001
1000
0001
1000
,  // measure 6
0010
1000
0100
0001
,  // measure 7
1000
0001
1000
1100
,  // measure 8
0001
1000
0001
0101
,  // measure 9
1000
0001
0010
0110
,  // measure 10
0001
1000
0010
0110
,  // measure 11
1000
0100
0001
1001
,  // measure 12
0001
0100
1000
1001
,  // measure 13
0010
0100
0010
0100
,  // measure 14
2002
0000
3003
0000
,  // measure 15
1001
0000
0000
0000
,  // measure 16
0110
0000
0000
0000
,  // measure 17
1001
0000
0000
0000
,  // measure 18
0110
0000
0000
0000
,  // measure 19
1000
0000
0001
0000
,  // measure 20
1000
0000
0100
0000
,  // measure 21
0001
0000
1000
0000
,  // measure 22
0001
0000
0100
0000
,  // measure 23
0010
1000
0100
0000
,  // measure 24
0010
0001
0100
0000
,  // measure 25
0010
1000
0100
0000
,  // measure 26
0010
0001
0100
0000
,  // measure 27
1100
0000
0000
0000
,  // measure 28
1001
0000
0000
0000
,  // measure 29
0101
0000
0000
0000
,  // measure 30
1001
0000
0000
0000
,  // measure 31
2002
0000
3003
0000
,  // measure 32
0100
0000
1000
0000
,  // measure 33
0100
0000
0001
0000
,  // measure 34
0100
0000
1000
0000
,  // measure 35
0100
0000
0001
0000
,  // measure 36
0100
1000
0010
0000
,  // measure 37
0100
0001
0010
0000
,  // measure 38
0100
1000
0001
0000
,  // measure 39
0100
0001
1000
0000
,  // measure 40
0010
1000
0200
0300
,  // measure 41
0010
0001
0200
0300
,  // measure 42
0010
1000
0002
0003
,  // measure 43
0010
0001
2000
3000
,  // measure 44
0010
0100
0002
0003
,  // measure 45
0010
0100
2000
3000
,  // measure 46
0001
1000
0200
0300
,  // measure 47
2002
0000
0000
3003
,  // measure 48
1010
0000
0100
0100
,  // measure 49
0011
0000
0100
0100
,  // measure 50
1001
0000
0010
0010
,  // measure 51
1001
0000
0010
0010
,  // measure 52
1000
0001
0100
0100
,  // measure 53
0001
1000
0100
0100
,  // measure 54
1001
0000
0100
0100
,  // measure 55
2002
0000
0000
3003
,  // measure 56
1001
0000
0010
0100
,  // measure 57
1000
0000
0010
0100
,  // measure 58
0001
0000
0010
0001
,  // measure 59
0100
0000
0010
1000
,  // measure 60
0100
0000
0010
0001
,  // measure 61
1000
0000
0010
1000
,  // measure 62
0001
0000
0100
0001
,  // measure 63
1000
0001
1000
0000
,  // measure 64
1002
0000
0003
0001
,  // measure 65
0200
0000
0300
0100
,  // measure 66
0020
0000
0030
0010
,  // measure 67
2000
0000
3000
1000
,  // measure 68
0200
0000
0310
0100
,  // measure 69
0020
0000
0031
0010
,  // measure 70
0002
0000
1003
0001
,  // measure 71
2000
0000
0000
3000
,  // measure 72
1001
0000
0010
0100
,  // measure 73
1000
0000
0010
0100
,  // measure 74
0001
0000
0010
0001
,  // measure 75
0100
0100
0010
0010
,  // measure 76
0100
0000
0010
1000
,  // measure 77
0001
0010
0100
0000
,  // measure 78
2000
3000
0002
0003
,  // measure 79
1000
0001
1000
0001
,  // measure 80
0100
0000
0001
0000
,  // measure 81
1001
0000
0000
0010
,  // measure 82
0020
0030
2000
3000
,  // measure 83
0002
0003
1000
0100
,  // measure 84
1000
0000
0010
0000
,  // measure 85
0110
0000
0000
0001
,  // measure 86
0002
0003
2000
3000
,  // measure 87
0020
0000
0000
0030
,  // measure 88
0100
0100
0100
0000
,  // measure 89
0001
1000
0001
0000
,  // measure 90
0010
0010
0010
0000
,  // measure 91
0100
1000
0100
0000
,  // measure 92
1000
1000
1000
0000
,  // measure 93
0001
0010
0001
0000
,  // measure 94
0100
0000
1001
0000
,  // measure 95
1000
1000
0001
0000
,  // measure 96
0110
0000
0000
0000
,  // measure 97
1000
0001
0100
0100
,  // measure 98
0001
1000
0100
0100
,  // measure 99
1001
0000
0100
0100
,  // measure 100
2002
0000
0000
3003
,  // measure 101
1000
0000
0100
0000
,  // measure 102
1000
0000
0100
0000
,  // measure 103
0001
0000
0100
0000
,  // measure 104
0001
0000
0100
0000
,  // measure 105
1000
0000
0010
0000
,  // measure 106
1000
0000
0010
0000
,  // measure 107
0001
0000
0010
0000
,  // measure 108
0001
0000
0010
0000
,  // measure 109
1000
0000
1100
1100
,  // measure 110
0001
0000
0101
0101
,  // measure 111
1000
0000
1010
1010
,  // measure 112
0001
0000
0011
0011
,  // measure 113
2002
0000
0000
3003
,  // measure 114
1000
0100
0010
0001
,  // measure 115
0100
0000
1001
0000
,  // measure 116
0001
1000
0001
1000
,  // measure 117
0010
0000
1000
0001
,  // measure 118
0100
0010
0100
0010
,  // measure 119
0100
0000
0110
0000
,  // measure 120
0001
0010
0100
1000
,  // measure 121
0100
0000
1001
0000
,  // measure 122
1000
0001
1000
0001
,  // measure 123
0010
0000
0001
1000
,  // measure 124
0010
0100
0010
0100
,  // measure 125
0010
0000
1000
0010
,  // measure 126
0100
0001
0100
0001
,  // measure 127
0100
0000
0001
1000
,  // measure 128
2002
0000
0000
0000
,  // measure 129
0000
0000
0000
3003
,  // measure 130
0100
0000
0010
1000
,  // measure 131
0010
0000
0010
0100
,  // measure 132
0010
0000
1000
0001
,  // measure 133
1000
0000
0001
0010
,  // measure 134
0001
0000
1000
0100
,  // measure 135
1000
0000
0001
1000
,  // measure 136
0001
0000
0110
0000
,  // measure 137
0010
0100
0010
0100
,  // measure 138
1001
0000
0000
0000
;

//---------------dance-single - ----------------
#NOTES:
     dance-single:
     :
     Medium:
     6:
     0.454,0.468,0.360,0.200,0.039: // measure 1
0000
0000
0000
0000
,  // measure 2
0000
0000
0000
0000
,  // measure 3
0001
0000
1000
0000
0010
0100
0001
0000
,  // measure 4
1000
0000
0001
0000
0010
0100
1000
0000
,  // measure 5
0001
0000
1000
0000
0100
0010
0001
0000
,  // measure 6
1000
0000
0001
0000
0100
0010
1000
0000
,  // measure 7
0001
1000
0010
0000
1000
0001
0010
0000
,  // measure 8
0001
1000
0100
0000
1000
0001
0100
0000
,  // measure 9
0001
1000
0010
0000
1000
0001
0100
0000
,  // measure 10
0001
1000
0100
0000
1000
0001
0010
0000
,  // measure 11
0001
1000
0001
1000
0010
0100
0001
0000
,  // measure 12
1000
0001
1000
0001
0010
0100
1000
0000
,  // measure 13
0001
1000
0001
1000
0100
0010
0001
0000
,  // measure 14
1000
0001
1000
0001
0100
0010
1000
0000
,  // measure 15
0001
0001
1000
1000
,  // measure 16
0001
1000
0001
1000
,  // measure 17
0010
0010
0100
0100
,  // measure 18
0010
0100
0010
0100
,  // measure 19
0001
0010
0100
1000
,  // measure 20
0001
0010
0100
1000
,  // measure 21
0001
0001
1000
1000
,  // measure 22
0001
0001
1000
1000
,  // measure 23
0001
0000
1001
0000
,  // measure 24
1000
0000
1001
0000
,  // measure 25
0001
0000
1001
0000
,  // measure 26
1000
0000
1001
0000
,  // measure 27
0100
0100
0100
0100
,  // measure 28
1001
1001
1001
1001
,  // measure 29
0100
0100
0100
0100
,  // measure 30
1001
1001
1001
1001
,  // measure 31
2002
0000
0000
0000
0000
3003
0110
0110
,  // measure 32
1000
0001
1000
0100
,  // measure 33
0001
1000
0001
0100
,  // measure 34
1000
0001
1000
0010
,  // measure 35
0001
1000
0001
0010
,  // measure 36
0100
1000
0001
0100
,  // measure 37
0010
1000
0001
0010
,  // measure 38
0100
1000
0001
0100
,  // measure 39
0010
1000
0001
0010
,  // measure 40
1000
0000
0000
0000
0001
0001
0100
0000
,  // measure 41
0001
0000
0000
0000
0010
0010
0100
0000
,  // measure 42
1000
0000
0000
0000
0001
0001
0010
0000
,  // measure 43
0100
0000
0000
0000
1000
1000
0001
0000
,  // measure 44
0100
0000
0000
0000
0010
0010
1000
0000
,  // measure 45
0001
0000
0000
0000
0100
0100
0001
0000
,  // measure 46
1000
0000
0000
0000
0010
0010
0100
0000
,  // measure 47
0001
0000
0000
1000
0000
0000
0001
0000
0000
1000
0000
0000
0100
0000
0000
0000
,  // measure 48
1000
0000
0000
0001
0000
0000
2000
0000
0100
0000
0000
0000
0100
0000
0000
0000
,  // measure 49
3001
0000
0000
0100
0000
0000
0002
0000
0010
0000
0000
0000
0010
0000
0000
0000
,  // measure 50
1003
0000
0000
0010
0000
0000
0200
0000
0001
0000
0000
0000
0001
0000
0000
0000
,  // measure 51
0310
0000
0000
1000
0000
0000
0020
0000
0100
0000
0000
0000
0100
0000
0000
0000
,  // measure 52
1030
0000
0000
0100
0000
0000
0010
0000
0002
0000
0000
0000
2003
0000
0000
0000
,  // measure 53
3001
0000
0000
0010
0000
0000
0100
0000
2000
0000
0000
0000
3002
0000
0000
0000
,  // measure 54
1003
0000
0000
0100
0000
0000
1000
0000
0020
0000
0000
0000
0230
0000
0000
0000
,  // measure 55
0301
0000
0000
0001
0000
0000
1000
0000
0000
0100
0000
0000
0010
0000
0000
0000
,  // measure 56
1001
0001
0000
0001
0100
0000
0100
0010
,  // measure 57
0000
0010
1000
0000
0001
0000
1000
0000
,  // measure 58
0001
1000
0000
1000
0100
0000
0100
0010
,  // measure 59
0001
0101
1010
1100
,  // measure 60
0001
0100
0000
0010
1000
0000
0001
0100
,  // measure 61
0000
0010
1000
0000
0001
0000
1000
0000
,  // measure 62
0100
1000
0000
0001
0010
0000
0100
1000
,  // measure 63
0010
0000
0100
0000
0001
1000
0010
0000
,  // measure 64
0200
0000
0000
0000
0000
0000
0301
1000
,  // measure 65
0002
0000
0000
0000
0000
0000
0013
0100
,  // measure 66
0020
0000
0000
0000
0000
0000
0130
1000
,  // measure 67
0200
0000
0000
0000
0000
0000
1300
0001
,  // measure 68
0020
0000
0000
0001
0000
0000
0031
1000
,  // measure 69
0020
0000
0000
1000
0000
0000
1030
0001
,  // measure 70
0200
0000
0000
0001
0000
0000
0301
1000
,  // measure 71
0200
0000
0000
0300
,  // measure 72
0100
0000
0010
0000
0001
1000
0100
0000
,  // measure 73
0010
0000
0001
0000
1000
0100
0010
0000
,  // measure 74
0001
0000
0100
0000
0010
1000
0001
0000
,  // measure 75
0100
0010
0100
0020
0000
0000
0030
1000
,  // measure 76
0001
0000
0010
0000
0100
1000
0010
0000
,  // measure 77
0100
0000
0010
0000
0001
1000
0010
0000
,  // measure 78
0110
0000
0000
0101
0000
0000
1001
0000
,  // measure 79
1100
0000
0000
0110
0000
0000
0011
0000
,  // measure 80
0100
0110
0010
0110
,  // measure 81
0100
0110
0000
0001
,  // measure 82
1001
0000
1000
0000
1000
0100
0001
0000
,  // measure 83
0100
0000
1000
0000
0001
0100
1000
0000
,  // measure 84
0100
0110
0010
0110
,  // measure 85
0100
0110
0000
1000
,  // measure 86
1001
0000
0001
0000
0010
0100
0000
0100
,  // measure 87
2002
0000
0000
3003
,  // measure 88
0100
1100
0100
0101
,  // measure 89
0100
0000
1100
0000
0001
0100
0000
1000
,  // measure 90
0100
0110
0100
1001
,  // measure 91
0100
0000
0110
0000
0010
0100
0000
0001
,  // measure 92
1000
1100
0100
0101
,  // measure 93
0100
0000
1100
0000
0001
0100
0000
1000
,  // measure 94
0200
0300
0020
0030
,  // measure 95
0002
0100
0103
0000
,  // measure 96
2002
0000
0000
3003
,  // measure 97
1000
0000
0000
0100
0000
0000
0010
0000
0002
0000
0000
0000
2003
0000
0000
0000
,  // measure 98
3001
0000
0000
0010
0000
0000
0100
0000
2000
0000
0000
0000
3002
0000
0000
0000
,  // measure 99
1003
0000
0000
0100
0000
0000
1000
0000
0020
0000
0000
0000
0230
0000
0000
0000
,  // measure 100
0301
0000
0000
1000
0000
0000
0001
0000
0000
1000
0000
0000
0100
0000
0000
0000
,  // measure 101
1000
0100
1000
0001
,  // measure 102
0010
0100
0010
0001
,  // measure 103
0100
0010
1000
0001
,  // measure 104
0010
0100
1000
0001
,  // measure 105
1000
0100
1000
1001
,  // measure 106
0001
0100
0001
1001
,  // measure 107
0010
1000
0100
0110
,  // measure 108
0010
0001
0100
0110
,  // measure 109
1000
1000
1100
0011
,  // measure 110
0001
0001
0101
1010
,  // measure 111
0100
0100
0110
1001
,  // measure 112
0010
0010
0110
1001
,  // measure 113
0220
0000
0000
0330
,  // measure 114
1000
0100
1000
0100
,  // measure 115
0010
0001
1001
0011
,  // measure 116
0001
0010
0001
0010
,  // measure 117
0100
1000
1001
1100
,  // measure 118
0100
0010
0100
0010
,  // measure 119
0001
1000
0110
1001
,  // measure 120
0001
1000
0001
1000
,  // measure 121
0110
0000
1001
1100
,  // measure 122
1001
0100
0001
0100
,  // measure 123
0010
1000
1010
1001
,  // measure 124
1000
0100
1000
0100
,  // measure 125
0010
0001
1001
0011
,  // measure 126
0001
0010
0001
0010
,  // measure 127
0100
1000
1001
1100
,  // measure 128
0100
0010
0100
0010
,  // measure 129
1001
1100
1001
0101
,  // measure 130
0001
0010
1000
0000
1000
0010
0001
0000
,  // measure 131
2000
0001
3002
1000
,  // measure 132
1003
0010
0100
0000
0010
0100
0001
0000
,  // measure 133
0200
0010
0320
1000
,  // measure 134
1030
0100
0010
0000
0001
0000
1001
0000
,  // measure 135
0001
0010
0100
0000
1000
0000
1001
0000
,  // measure 136
2000
3200
0320
0032
,  // measure 137
1003
0000
0100
0000
0010
0000
0001
0000
1000
0000
0000
0010
0000
0000
0100
0000
,  // measure 138
0001
0000
0000
0000
;

//---------------dance-single - ----------------
#NOTES:
     dance-single:
     :
     Hard:
     9:
     0.740,0.780,0.610,0.178,0.319: // measure 1
0000
0000
0000
0000
,  // measure 2
0000
0000
0000
0000
,  // measure 3
0001
0000
1000
0010
2000
0000
0000
3001
1000
0000
0010
0000
0100
0000
0001
0000
,  // measure 4
0010
0000
0100
1000
0200
0000
0000
0310
0100
0000
1000
0000
0001
0000
0010
0000
,  // measure 5
0001
0000
0100
0010
2000
0000
0000
3100
1000
0000
0010
0000
0100
0000
0001
0000
,  // measure 6
0010
0000
0001
1000
0020
0000
0000
0130
0010
0000
1000
0000
0001
0000
0010
0000
,  // measure 7
0001
0000
1000
0100
1000
0001
0000
0010
0000
0000
0001
0100
0010
0100
0001
0000
,  // measure 8
1000
0000
0001
0100
0010
0100
0000
0001
0000
1000
0100
0010
0100
1000
0100
0000
,  // measure 9
0010
0000
0001
1000
0001
0100
0000
0010
0000
0000
1000
0001
1000
0100
1000
0000
,  // measure 10
0010
0000
0100
0001
0100
0010
0000
1000
0000
0001
0010
0100
0010
0001
0010
0000
,  // measure 11
0100
0000
1000
0001
0100
0001
0000
0010
0000
0000
0100
1000
0100
0010
0001
0000
,  // measure 12
0100
0000
0010
1000
0010
0100
0000
0001
0000
0010
0100
1000
0010
0100
0001
0000
,  // measure 13
1000
0000
0001
1000
0001
0010
0000
0100
0000
0000
1000
0001
1000
0010
0100
0000
,  // measure 14
0001
0010
0100
1000
0001
0010
0100
1000
,  // measure 15
1100
0101
1100
0101
,  // measure 16
0001
0010
0100
1000
0010
0100
0001
0000
,  // measure 17
0101
1100
0101
1100
,  // measure 18
1000
0001
0010
0100
0010
0001
0100
0000
,  // measure 19
0010
1000
0010
0100
0001
0010
0100
0000
,  // measure 20
1000
0010
0100
0001
0100
0010
1000
0000
,  // measure 21
0010
1000
0010
0100
0001
0010
0100
0010
,  // measure 22
0001
0100
0010
1000
0100
1000
0010
0000
,  // measure 23
0100
0001
0010
0100
1000
0010
0100
0010
,  // measure 24
1000
0100
0010
0001
1000
0001
0010
0100
,  // measure 25
0010
0001
0100
0010
1000
0001
0010
0100
,  // measure 26
1000
0100
0010
0001
1000
0010
0100
0000
,  // measure 27
0101
1010
1100
0011
,  // measure 28
1001
0110
1001
0110
,  // measure 29
1100
0011
0101
1010
,  // measure 30
0110
1001
0110
1001
,  // measure 31
2002
0000
0000
0000
0000
0000
0000
0000
0000
0000
3003
0000
1000
1000
0001
0001
,  // measure 32
1000
0001
1000
0010
0100
0000
1001
0000
,  // measure 33
0001
1000
0010
1000
0100
0000
1001
0000
,  // measure 34
1000
0100
0010
0001
0010
0000
1001
0000
,  // measure 35
0001
0010
0100
1000
0010
0000
1001
0000
,  // measure 36
1000
0100
0001
0010
0011
0000
1100
0000
,  // measure 37
1000
0001
0010
0001
0100
0010
0010
1000
,  // measure 38
0001
0100
1000
0010
1010
0000
0101
0000
,  // measure 39
0001
1000
0010
1000
0100
0010
0010
0000
,  // measure 40
0001
0000
1000
0000
0001
0000
0010
0000
0100
1000
0000
1000
0001
0000
0000
0000
,  // measure 41
1000
0100
0001
0100
0010
0001
0100
0010
,  // measure 42
1000
0000
0001
0000
1000
0000
0010
0000
0100
0001
0000
0001
1000
0000
0000
0000
,  // measure 43
0001
0100
1000
0100
0010
1000
0100
0010
,  // measure 44
0001
0000
1000
0000
0010
0000
0001
0000
0010
1000
0000
1000
0100
0000
0010
0000
,  // measure 45
0001
1000
0001
0100
0010
1000
0100
0100
,  // measure 46
1000
0000
0001
0000
0010
0000
1000
0000
0010
0001
0000
0001
0100
0000
0010
0000
,  // measure 47
1010
0000
0000
0101
0000
0000
0011
0000
0000
1100
0000
0000
1001
0000
0000
0000
,  // measure 48
0001
0000
0000
1000
0000
0000
0001
0000
0101
0000
0000
0000
1100
0000
0000
0000
,  // measure 49
1000
0000
0000
0001
0000
0000
1000
0000
1100
0000
0000
0000
0101
0000
0000
0000
,  // measure 50
0010
0000
0000
0100
0000
0000
0010
0000
1010
0000
0000
0000
1100
0000
0000
0000
,  // measure 51
0010
0000
0000
0100
0000
0000
0010
0000
0011
0000
0000
0000
0101
0000
0000
0000
,  // measure 52
0001
0000
1000
0100
1000
0000
0001
0000
0101
0000
0000
0000
1001
0000
0000
0000
,  // measure 53
1000
0000
0001
0100
0001
0000
1000
0000
1000
0000
0100
0000
0010
0000
0001
0000
,  // measure 54
1000
0000
0010
0100
0010
0000
1000
0000
1001
0000
0000
0000
0110
0000
0000
0000
,  // measure 55
0010
0000
0000
1000
0000
0000
0100
0000
0000
0001
0000
0000
0010
0000
0100
0000
,  // measure 56
0110
0000
0100
0001
0010
1000
0001
0100
,  // measure 57
0010
0001
0100
1000
0001
0010
0100
0000
,  // measure 58
0110
0000
0010
1000
0100
0001
1000
0010
,  // measure 59
0101
1100
1010
0011
,  // measure 60
1001
0000
0010
1000
0100
0001
1000
0010
,  // measure 61
0100
1000
0010
0001
1000
0100
0010
1000
,  // measure 62
0010
0001
1000
0001
0010
1000
0001
0100
,  // measure 63
1010
0000
0001
0000
1000
0000
0010
0100
0000
0100
0010
1000
0001
0000
0000
0000
,  // measure 64
1002
0000
0013
0200
0000
0300
0101
0011
,  // measure 65
0002
0000
0013
0200
0000
0300
1100
1010
,  // measure 66
0020
0000
0130
0002
0000
0003
0011
0101
,  // measure 67
0200
0000
0310
2000
0000
3000
1100
1010
,  // measure 68
2000
0010
3010
0200
0001
0301
0101
0011
,  // measure 69
0002
0010
0013
0200
1000
1300
1100
1010
,  // measure 70
0020
0100
0130
0002
0010
0013
0011
0101
,  // measure 71
0200
0010
0310
2000
0000
0002
0000
3003
,  // measure 72
0001
0100
0010
1000
0001
0100
0010
1000
,  // measure 73
0100
0000
0010
0000
0001
0000
1000
0000
0100
0010
0001
0000
1000
0000
0100
0000
,  // measure 74
1000
0010
0100
0001
1000
0010
0100
0001
,  // measure 75
1001
0000
1001
0000
0110
0000
0110
0000
0000
1010
0000
0000
1000
0000
0001
0000
,  // measure 76
1000
0010
0100
0001
1000
0010
0100
0001
,  // measure 77
0010
0001
0100
0010
0001
1000
0100
0010
,  // measure 78
1001
0000
0000
0100
0010
0100
0000
0001
0000
0000
1000
0000
0010
0000
0100
0000
,  // measure 79
0001
0010
0001
0000
0001
0100
0001
0000
1000
0000
0001
0000
1000
0001
1000
0000
,  // measure 80
1001
0100
0010
0000
0110
0010
0100
0000
,  // measure 81
1001
0100
0010
0000
2000
0000
3002
0000
,  // measure 82
1003
0000
0100
0000
0000
0020
0000
0000
0001
0000
0000
0032
0000
0000
1000
0000
,  // measure 83
1000
0000
1003
0000
0000
0020
0000
0000
0100
0000
0000
0100
0000
0000
0130
0000
,  // measure 84
0110
0100
0010
0000
1001
0010
0100
0000
,  // measure 85
0110
0100
0010
0000
2000
0000
3002
0000
,  // measure 86
1003
0100
1000
0100
1000
0100
1000
0001
,  // measure 87
1002
0000
0003
0001
,  // measure 88
0100
1000
0000
1000
0001
0000
0001
0100
0000
0100
0010
0000
0100
0000
0000
0000
,  // measure 89
0001
1000
0000
1000
0100
0000
0100
1000
0000
1000
0001
0000
0010
0000
0100
0000
,  // measure 90
1000
0010
0000
0010
0100
0000
0100
0001
0000
0001
1000
0000
1000
0000
0000
0000
,  // measure 91
0001
0010
0000
0010
0100
0000
0100
1000
0000
1000
0100
0000
0001
0000
0100
0000
,  // measure 92
1000
0001
0000
0001
1000
0000
1000
0100
0000
0100
0010
0000
0010
0000
0000
0000
,  // measure 93
0100
1000
0000
1000
0001
0000
0001
0010
0000
0010
1000
0000
1000
0000
0010
0000
,  // measure 94
0110
0000
1010
0000
,  // measure 95
0011
1100
0011
0000
,  // measure 96
2020
0000
0000
3030
,  // measure 97
0001
0000
1000
0100
1000
0000
0001
0000
0101
0000
0000
0000
1001
0000
0000
0000
,  // measure 98
1000
0000
0001
0100
0001
0000
1000
0000
1000
0000
0100
0000
0010
0000
0001
0000
,  // measure 99
1000
0000
0010
0100
0010
0000
1000
0000
1001
0000
0000
0000
0110
0000
0000
0000
,  // measure 100
0010
0000
0000
1000
0000
0000
0100
0000
0000
0001
0000
0000
0010
0000
0100
0000
,  // measure 101
1000
0010
0001
0100
1000
0010
0100
0001
,  // measure 102
1000
0100
0010
0100
1000
0001
0100
0100
,  // measure 103
0001
0010
1000
0100
0001
0010
0001
0100
,  // measure 104
0010
1000
0001
0010
0100
1000
0001
0100
,  // measure 105
0010
0000
1000
0000
0001
0000
0010
0000
0100
1000
0100
0000
1000
0100
1000
0000
,  // measure 106
0010
0100
0001
1000
0010
1000
0100
0100
,  // measure 107
1000
0000
0100
0000
0010
0000
0001
0000
0100
0001
0100
0000
0001
0100
0001
0000
,  // measure 108
1000
0000
0000
0100
0000
0000
0001
0000
0000
0010
0000
0000
1001
0000
0000
0000
,  // measure 109
0100
0000
0000
0100
0000
0000
1000
0000
0001
0000
0000
0000
1001
0000
0000
0000
,  // measure 110
0100
0000
0000
0100
0000
0000
0001
0000
1000
0000
0000
0000
1001
0000
0000
0000
,  // measure 111
0110
0000
0000
1001
0000
0000
0010
0000
0100
0000
0000
0000
1001
0000
0000
0000
,  // measure 112
0001
0010
0100
1000
2002
0000
3003
0000
,  // measure 113
0220
0000
0000
0330
,  // measure 114
1010
1000
0001
1000
0100
0010
1000
0100
,  // measure 115
0010
1000
1100
0000
1001
0000
1100
0000
,  // measure 116
0101
1000
0100
0010
0001
0100
1000
0100
,  // measure 117
0001
0100
1100
0000
0101
0000
1001
0000
,  // measure 118
1100
0001
0100
1000
0100
0001
0010
0100
,  // measure 119
0001
0100
1001
0000
0110
0000
1100
0000
,  // measure 120
0101
1000
0100
0010
0001
0100
0010
0100
,  // measure 121
0010
0100
0010
0100
2002
0000
3003
0000
,  // measure 122
0110
0001
0100
1000
0100
0001
0100
1000
,  // measure 123
0100
0001
1001
0000
0011
0000
1100
0000
,  // measure 124
0110
0100
0001
0010
0100
0001
0100
1000
,  // measure 125
0100
0001
1001
0000
0110
0000
1100
0000
,  // measure 126
0101
1000
0100
0010
0001
0100
1000
0100
,  // measure 127
0001
0100
1100
0000
0110
0000
0011
0000
,  // measure 128
1100
0100
0001
0100
1000
0100
0001
0100
,  // measure 129
1000
0000
0100
0000
1001
0000
0000
0000
0101
0000
0000
0100
0000
0000
0100
0000
,  // measure 130
0001
0000
0100
0000
0001
0000
1000
0001
0000
0001
1000
0000
0100
0000
0010
0000
,  // measure 131
0001
0000
0100
0000
0001
0000
1000
0001
0000
0001
1000
0000
0100
0000
1000
0000
,  // measure 132
0010
0000
0100
0000
0001
0000
0010
0100
0000
0100
0010
0000
0001
0000
1000
0000
,  // measure 133
0010
0000
0100
0000
0001
0000
0010
0100
0000
0100
0010
0000
0001
0000
1000
0000
,  // measure 134
0100
0000
0001
0000
0100
0000
1000
0100
0000
0100
1000
0000
0100
0000
0001
0000
,  // measure 135
0100
0000
1000
0000
0100
0000
1000
0100
0000
0100
1000
0000
0100
0000
0010
0000
,  // measure 136
0001
0000
0100
0000
0001
0000
0010
0001
0000
0001
0010
0000
0001
0000
1000
0000
,  // measure 137
0001
0100
0001
0100
0010
1000
0010
1000
0010
0000
0000
0100
0000
0000
0100
0000
,  // measure 138
1001
0000
0000
0000
;

//---------------dance-single - ----------------
#NOTES:
     dance-single:
     :
     Challenge:
     9:
     0.646,0.748,0.332,0.209,0.298: // measure 1
0000
0000
0000
0000
,  // measure 2
0000
0000
0000
0000
,  // measure 3
1000
0000
0100
0000
0010
0001
0000
0010
0000
0000
0001
0000
0100
0001
0000
0010
,  // measure 4
0000
0000
0100
0000
0100
0010
0000
0010
0000
0010
0100
0010
0001
0100
0010
1000
,  // measure 5
0001
0000
1000
0000
0100
1000
0000
0010
0000
0000
0010
0000
0010
0100
0000
0010
,  // measure 6
0000
0000
0010
0000
0010
0100
0000
0010
0000
0010
1000
0010
1000
0001
0100
0001
,  // measure 7
2000
3100
2000
3100
0020
0031
0020
0031
,  // measure 8
0000
0000
0001
0000
0010
0100
0000
0010
0000
0010
1000
0001
1000
0001
1000
0001
,  // measure 9
0200
0301
0200
0301
2000
3010
2000
3010
,  // measure 10
0000
0000
0010
0000
1000
0001
0000
1000
0000
1000
0100
0010
0100
0010
0100
0010
,  // measure 11
0200
0301
0200
0301
2000
3010
2000
3010
,  // measure 12
0000
0000
0010
0000
1000
0001
0000
1000
0000
1000
0100
0010
0100
0010
0100
0010
,  // measure 13
0100
0010
0020
0130
0010
0000
0001
1000
,  // measure 14
0001
1000
0010
1000
0200
0000
0001
0301
,  // measure 15
0110
1001
1000
0100
,  // measure 16
0010
0001
0010
0100
,  // measure 17
0001
1000
0001
0100
,  // measure 18
0010
1000
0001
0100
,  // measure 19
0001
0000
1001
0000
0001
0010
0100
1000
,  // measure 20
0100
0000
1100
0000
0001
1000
0001
1000
,  // measure 21
0010
0000
0110
0000
0010
0100
0010
1000
,  // measure 22
0001
0000
0110
0000
1000
0001
0010
0100
,  // measure 23
1000
0001
0100
0010
0100
1000
0100
0010
,  // measure 24
0001
0010
0100
1000
0001
0010
0100
1000
,  // measure 25
0001
0010
0100
1000
,  // measure 26
0010
1000
0001
0100
,  // measure 27
0001
1000
0001
1000
0001
1000
0001
1000
,  // measure 28
0010
1000
0100
0010
0001
0010
0100
1000
,  // measure 29
0010
0100
0001
0010
0100
0001
1000
0010
,  // measure 30
0100
0001
1000
0100
0010
0001
0010
0001
,  // measure 31
2002
0000
0000
3003
,  // measure 32
0100
0010
1000
0010
0100
0000
0110
0000
,  // measure 33
0001
0010
0100
1000
0001
0001
1000
1000
,  // measure 34
0001
0100
0001
1000
0010
0000
1010
0000
,  // measure 35
1000
0100
0010
0001
0010
0010
0001
0001
,  // measure 36
0100
0001
1000
0010
1000
0000
0110
0000
,  // measure 37
0001
0100
1000
0100
0010
0010
0100
0100
,  // measure 38
0010
1000
0010
1000
0001
0000
0101
0000
,  // measure 39
0001
1000
0001
0000
0010
0100
0010
0000
1000
0100
1000
0000
0011
0000
0000
0000
,  // measure 40
0001
0100
0010
1000
1020
0000
1030
0000
,  // measure 41
1000
0100
0010
0001
1000
1000
0001
0001
,  // measure 42
0100
0010
1000
0001
1002
0000
1003
0000
,  // measure 43
1000
0100
0010
0001
0010
0010
0001
0001
,  // measure 44
0100
0001
1000
0010
1020
0000
1030
0000
,  // measure 45
1000
0100
0010
0001
1000
1000
0001
0001
,  // measure 46
1000
0000
0001
0100
0010
0000
1000
0000
,  // measure 47
0001
0000
0000
0100
0000
0000
0010
0000
0000
1000
0000
0000
1001
0000
0000
0000
,  // measure 48
1000
0100
1000
0100
1000
0100
1000
0100
1000
0000
0000
0000
1000
0000
0000
0000
,  // measure 49
0001
0100
0001
0100
0001
0100
0001
0100
0001
0000
0001
0000
0001
0000
0001
0000
,  // measure 50
0001
0100
0001
0100
0001
0100
0001
0100
0001
0000
0000
0000
0001
0000
0000
0000
,  // measure 51
0010
0100
0010
0100
0010
0100
0010
0100
0010
0000
1000
0000
0001
0000
1000
0000
,  // measure 52
0010
1000
0010
1000
0010
1000
0010
1000
0010
0000
0000
0000
0010
0000
0000
0000
,  // measure 53
1000
0100
1000
0100
1000
0100
1000
0100
1000
0000
0100
0000
0010
0000
0001
0000
,  // measure 54
0010
0000
0000
0001
0000
0000
0100
0000
1000
0000
0000
0000
0100
0000
0000
0000
,  // measure 55
1100
0000
0000
0011
0000
0000
0110
0000
0000
1100
0000
0000
1001
0000
0000
0000
,  // measure 56
1000
0100
0001
0100
1000
0100
0010
0001
,  // measure 57
0010
0100
1000
0100
0010
0001
0100
0001
,  // measure 58
1000
0100
0010
0001
0010
0100
0001
1000
,  // measure 59
1002
0000
2003
0000
0001
0001
3002
0000
,  // measure 60
0103
0001
0100
0010
1000
0100
0010
0001
,  // measure 61
0010
0100
1000
0100
0010
1000
0001
1000
,  // measure 62
0010
1000
0001
0100
0001
1000
0010
0100
,  // measure 63
0001
0100
1000
0100
0010
0001
0010
0000
,  // measure 64
2000
0200
0000
3300
,  // measure 65
0011
0202
0000
0303
,  // measure 66
0110
2002
0000
3003
,  // measure 67
1100
0220
0000
0330
,  // measure 68
0101
2020
0000
3030
,  // measure 69
1100
0022
0000
0033
,  // measure 70
0101
0220
0000
0330
,  // measure 71
0000
0000
0000
0000
,  // measure 72
1000
0000
0001
0000
0100
0000
0010
0100
0000
0100
0010
0000
0010
0000
1000
0000
,  // measure 73
0100
0000
0010
0000
0001
0000
0001
0010
0000
0010
0100
0000
0010
0000
1000
0000
,  // measure 74
0001
0000
0100
0000
0010
0000
0010
1000
0000
1000
0010
0000
0010
0000
0100
0000
,  // measure 75
0001
0000
1000
0000
0010
0000
1000
0000
0010
0000
0100
0000
0010
0100
0010
0100
,  // measure 76
0010
0000
1000
0000
0001
0000
0001
0100
0000
0100
0001
0000
0010
0000
0100
0000
,  // measure 77
0010
0000
1000
0000
0010
0000
0001
1000
0000
1000
0001
0000
0001
0000
0100
0000
,  // measure 78
0110
0000
0000
1000
1000
0000
1000
1000
,  // measure 79
1000
0000
0001
0000
0010
0000
0100
0000
1000
0100
1000
0000
0000
0001
0000
0000
,  // measure 80
1001
0001
1000
0000
0010
0100
0010
0000
,  // measure 81
0001
1000
0010
0000
0100
0000
2100
0000
,  // measure 82
3100
0000
1000
0000
0001
0100
0001
1000
,  // measure 83
0010
0000
0001
1000
0010
0000
0100
0000
,  // measure 84
0101
1100
0110
1001
,  // measure 85
0001
0001
0001
0000
1000
1000
1000
0000
,  // measure 86
0010
0000
0000
0000
1000
0100
0001
0200
,  // measure 87
0000
0000
0010
0310
,  // measure 88
0010
0000
0010
1000
0000
0100
1000
0000
,  // measure 89
0100
1000
0000
1000
0100
0010
0001
0010
,  // measure 90
0100
0000
0010
0000
0001
1000
0001
0000
,  // measure 91
1002
0000
1003
0000
0001
0000
0100
0010
,  // measure 92
0100
0000
0010
0000
1000
0100
1000
0000
,  // measure 93
0010
0000
0100
0000
0001
0010
0100
0000
,  // measure 94
0001
1001
0000
0000
,  // measure 95
0001
0100
0010
1000
0010
1000
0010
0000
,  // measure 96
1001
0000
0000
0000
,  // measure 97
1000
0000
0000
0100
0000
0000
1000
0000
0000
0100
0000
0000
0010
0000
0001
0000
,  // measure 98
0010
0000
0000
0100
0000
0000
1000
0000
0000
0001
0000
0000
0001
0000
0100
0000
,  // measure 99
0001
0000
0000
0100
0000
0000
0010
0000
0000
1000
0000
0000
0010
0000
1000
0000
,  // measure 100
1001
0000
0000
1100
0000
0000
0011
0000
0000
0101
0000
0000
1010
0000
0000
0000
,  // measure 101
1001
0001
0001
1000
1001
0000
0101
0001
,  // measure 102
0100
0100
0010
0010
1000
1000
0001
0100
,  // measure 103
0110
0010
0110
0100
0110
0000
1000
0100
,  // measure 104
0011
0100
1100
0010
0110
0001
0010
1000
,  // measure 105
1001
0001
1000
1000
1001
0000
1001
0001
,  // measure 106
0100
0010
1000
0100
0010
0001
0010
0001
,  // measure 107
0011
0100
1000
0100
1100
0000
0010
0100
,  // measure 108
1001
0000
0000
0110
0000
0000
1100
0000
0000
0011
0000
0000
0001
0000
0100
0000
,  // measure 109
1100
1000
0100
0010
0001
0010
0100
0001
,  // measure 110
1000
0001
0010
0100
1000
0100
0010
0001
,  // measure 111
1000
0001
1000
0010
1000
0100
0010
0001
,  // measure 112
0010
0100
1000
0100
0010
0001
1000
0001
,  // measure 113
1000
0000
0000
0000
,  // measure 114
1000
0100
0001
0000
0100
1000
0100
0000
,  // measure 115
0010
1000
0010
0000
0001
0100
0001
1000
,  // measure 116
0100
0001
1000
0000
0001
0100
0001
0000
,  // measure 117
0010
1000
0010
0000
2000
0000
0100
0000
,  // measure 118
0020
0000
0000
0000
,  // measure 119
3030
0000
0002
0100
,  // measure 120
0020
0000
0000
0000
,  // measure 121
0000
0000
0000
0033
,  // measure 122
0001
1000
0010
0000
0001
0100
0001
0000
,  // measure 123
1000
0100
1000
0000
0010
0100
0010
1000
,  // measure 124
0001
1000
0001
0000
0010
0100
0010
0000
,  // measure 125
1000
0100
1000
0000
1000
0100
0010
0001
,  // measure 126
0020
0001
0100
1000
,  // measure 127
0100
0031
0011
1100
,  // measure 128
2002
0000
0000
0000
,  // measure 129
3003
0000
0000
0000
,  // measure 130
1000
0100
0000
0010
0100
0000
0001
1000
0000
0010
0100
0000
0001
1000
0000
0000
,  // measure 131
0010
0100
0000
0001
1000
0000
0010
0100
0000
0001
1000
0000
0010
0000
1000
0000
,  // measure 132
0100
1000
0000
0100
1000
0000
1000
0100
0000
1000
0100
0000
0010
0000
1000
0000
,  // measure 133
0001
0100
0000
0001
0100
0000
0001
0100
0000
0000
0010
0000
0000
0100
1000
0100
,  // measure 134
1000
0100
0000
0010
0001
0000
1000
0001
0000
1000
0001
0000
0000
1000
0001
0000
,  // measure 135
0010
0100
0000
1000
0100
0000
0010
0100
0000
1000
0100
0000
0000
0001
1000
0000
,  // measure 136
0100
0001
0000
0100
0001
0000
0010
0100
0000
0001
1000
0000
0000
0100
1000
0000
,  // measure 137
1000
0100
0000
0010
0001
0000
0001
0010
0001
0000
0000
1100
0000
0000
0001
0000
,  // measure 138
1001
0000
0000
0000
;

//---------------dance-double - ----------------
#NOTES:
     dance-double:
     :
     Beginner:
     2:
     0.146,0.187,0.050,0.086,0.000:
00000000
00000000
00000000
00000000
,
00000000
00000000
00000000
00000000
,
00000001
00000001
00000001
00000000
,
00000000
00000000
00000000
00000000
,
00001000
00001000
00001000
00000000
,
00000000
00000000
00000000
00000000
,
00000001
00000001
00000000
00000000
,
00000100
00000100
00000000
00000000
,
00001000
00001000
00000000
00000000
,
00010000
00010000
00000000
00000000
,
01000000
01000000
00000000
00000000
,
10000000
10000000
00000000
00000000
,
00100000
00100000
00000000
00000000
,
10010000
00000000
00000000
00000000
,
01000000
00000000
00000000
00000000
,
01000000
00000000
00000000
00000000
,
00100000
00000000
00000000
00000000
,
00100000
00000000
00000000
00000000
,
00001000
00000000
00010000
00000000
,
00001000
00000000
00000000
00000000
,
00010000
00000000
00001000
00000000
,
00010000
00000000
00000000
00000000
,
00000010
00000000
00000000
00000000
,
00000010
00000000
00000000
00000000
,
00000100
00000000
00000000
00000000
,
00000100
00000000
00000000
00000000
,
00000110
00000000
00000000
00000000
,
00001001
00000000
00000000
00000000
,
00001001
00000000
00000000
00000000
,
00001001
00000000
00000000
00000000
,
00000220
00000000
00000330
00000000
,
01000000
00000000
00000000
00000000
,
00010000
00000000
00000000
00000000
,
00001000
00000000
00000000
00000000
,
00000100
00000000
00000000
00000000
,
00000010
00000000
00000000
00000000
,
00001000
00000000
00000000
00000000
,
00010000
00000000
00000000
00000000
,
00100000
00000000
00000000
00000000
,
01000000
00000000
00000000
00000000
,
10000000
00000000
00000000
00000000
,
00100000
00000000
00000000
00000000
,
00010000
00000000
00000000
00000000
,
00001000
00000000
00000000
00000000
,
00000010
00000000
00000000
00000000
,
00000001
00000000
00000000
00000000
,
00000100
00000000
00000000
00000000
,
00000002
00000000
00000000
00000003
,
00000001
00000000
00000000
00000000
,
00002000
00000000
00000000
00003000
,
00001000
00000000
00000000
00000000
,
00020000
00000000
00000000
00030000
,
00010000
00000000
00000000
00000000
,
20000000
00000000
00000000
30000000
,
10000000
00000000
00000000
00000000
,
00011000
00000000
00001000
00000000
,
00001000
00000000
00000000
00000000
,
00000100
00000000
00000100
00000000
,
00000001
00000001
00000001
00000000
,
00001000
00000000
00000100
00000000
,
00000010
00000000
00000000
00000000
,
00001000
00000000
00010000
00000000
,
00100000
00000000
00100000
00000000
,
01000000
00000000
00000000
00100000
,
00100000
00000000
00000000
00010000
,
00010000
00000000
00000000
00001000
,
00001000
00000000
00000000
00000100
,
00000100
00000000
00000000
00000001
,
00000001
00000000
00000000
00001000
,
00001000
00000000
00000000
00000001
,
00000002
00000000
00000000
00000003
,
00000001
00000000
00000010
00000000
,
00001000
00000000
00000000
00000000
,
00010000
00000000
01000000
00000000
,
10000000
10000000
10000000
00000000
,
00010000
00000000
00001000
00000000
,
00010000
00000000
00001000
00000000
,
00011000
00000000
00000000
00000000
,
00011000
00000000
00000000
00000000
,
00000100
00000000
00000000
00000001
,
00000001
00000000
00000000
00001000
,
00002000
00000000
00000000
00003000
,
00000000
00000000
00000000
00000000
,
00000001
00000000
00000001
00000000
,
00001000
00000000
00000000
00010000
,
00010000
00000000
00000000
00000000
,
00001000
00000000
00000000
00000000
,
00000100
00000000
00000100
00000000
,
00001000
00000000
00001000
00000000
,
00010000
00000000
00010000
00000000
,
01000000
00000000
01000000
00000000
,
10000000
00000000
00000000
00010000
,
00010000
00000000
00000000
00100000
,
00100000
00000000
00100000
00000000
,
00001000
00000000
00000000
00000000
,
00020000
00000000
00000000
00030000
,
20000000
00000000
00000000
30000000
,
10000000
00000000
00000000
00000000
,
00020000
00000000
00000000
00030000
,
00010000
00000000
00000000
00000000
,
01000000
00000000
00000000
00000000
,
00001000
00000000
00000000
00000000
,
00010000
00000000
00000000
00000000
,
00000100
00000000
00000000
00000000
,
00010000
00000000
00001000
00000000
,
00010000
00000000
00000000
00000000
,
00001000
00000000
00010000
00000000
,
00001000
00000000
00000000
00000000
,
01000000
00000000
01000000
00000000
,
01000000
00000000
00000000
00000000
,
00100000
00000000
00100000
00000000
,
00100000
00000000
00000000
00000000
,
10010000
00000000
00000000
00000000
,
00020000
00000000
00000000
00030000
,
00000000
00000000
00000001
00000001
,
00000002
00000000
00000000
00000003
,
00000000
00000000
00010000
00010000
,
00020000
00000000
00000000
00030000
,
00000000
00000000
01000000
01000000
,
02000000
00000000
00000000
03000000
,
00000000
00000000
00000000
00000000
,
00002000
00000000
00000000
00003000
,
00000000
00000000
00000100
00000100
,
00000200
00000000
00000000
00000300
,
00000000
00000000
00001000
00001000
,
00002000
00000000
00000000
00003000
,
00000000
00000000
00000001
00000001
,
00000002
00000000
00000000
00000003
,
00000000
00000000
00000000
00000000
,
00010000
00000000
00010000
00000000
,
00100000
00000000
00100000
00000000
,
10000000
00000000
10000000
00000000
,
01000000
00000000
01000000
00000000
,
00010000
00000000
00010000
00000000
,
00001000
00000000
00001000
00000000
,
00000100
00000000
00000100
00000000
,
00000001
00000001
00000001
00000000
,
00001001
00000000
00000000
00000000
;

//---------------dance-double - ----------------
#NOTES:
     dance-double:
     :
     Easy:
     4:
     0.284,0.437,0.123,0.132,0.000:
00000000
00000000
00000000
00000000
,
00000000
00000000
00000000
00000000
,
00000010
00000001
00000100
00000000
,
00001000
00000100
00001000
00000000
,
00010000
00001000
00010000
00000000
,
01000000
10000000
00100000
00000000
,
10000000
00010000
10000000
00000000
,
00100000
00010000
00001000
00000000
,
00010000
00001000
00000010
00000000
,
00000001
00001000
00000001
00000000
,
00000010
00000100
00010000
00001000
,
01000000
00100000
10000000
00010000
,
10000000
01000000
00010000
00001000
,
00022000
00000000
00033000
00000000
,
00010000
00000000
01000000
00000000
,
10000000
00000000
10000000
00000000
,
01000000
00000000
00001000
00000000
,
00010000
00000000
00010000
00000000
,
00001000
00000000
00000100
00000000
,
00000001
00000000
00000001
00000000
,
00000100
00000000
00010000
00000000
,
00001000
00000000
00001000
00000000
,
00100000
00000000
00010000
00000000
,
10000000
00000000
01000000
00000000
,
00100000
00000000
00010000
00000000
,
10000000
00000000
01000000
00000000
,
11000000
00000000
00000000
00000000
,
01010000
00000000
00000000
00000000
,
00001100
00000000
00000000
00000000
,
00000101
00000000
00000000
00000000
,
00002002
00000000
00003003
00000000
,
00000001
00000000
00000100
00000000
,
00001000
00010000
01000000
00000000
,
10000000
00000000
01000000
00000000
,
00010000
00001000
00000100
00000000
,
00000001
00000010
00000100
00000000
,
00001000
00000010
00000100
00000000
,
00000001
00000100
00001000
00000000
,
00010000
01000000
10000000
00000000
,
00100000
01000000
00001000
00010000
,
00001000
00100000
01000000
00000000
,
00010000
00001000
00000100
00000010
,
00000100
00001000
00010000
00000000
,
01000000
10000000
00100000
00010000
,
00100000
10000000
01000000
00000000
,
00010000
00001000
00000010
00000001
,
00002002
00000000
00000000
00003003
,
00000001
00000000
00000100
00000100
,
00001000
00000000
00010000
00010000
,
00100000
00000000
10000000
10000000
,
01000000
00000000
00010000
00010000
,
00001000
00000010
00000001
00000001
,
00000100
00001000
00010000
00010000
,
01000000
10000000
00100000
00100000
,
20020000
00000000
00000000
30030000
,
00011000
00010000
00000000
01000000
,
10000000
00100000
00000000
01000000
,
00010000
00100000
00000000
00001000
,
00010000
00001000
00000100
00001000
,
00010000
00001000
00000000
00000010
,
00001000
00010000
00000100
00000000
,
00001000
00000100
00000010
00000000
,
00000001
00001000
00000010
00000000
,
00000120
00000000
00000030
00000010
,
00000200
00000000
00000300
00000100
,
00002000
00000000
00003000
00001000
,
00020000
00000000
00030000
00010000
,
02000000
00000000
13000000
01000000
,
20000000
00000000
30100000
01000000
,
00200000
00000000
01300000
00010000
,
02000000
00000000
00000000
03000000
,
10010000
00000000
01000000
00010000
,
00001000
00000000
00010000
00001000
,
00000100
00000000
00000010
00000100
,
00000001
00000001
00001000
00001000
,
00010000
10000000
01000000
00000000
,
00100000
00010000
01000000
00000000
,
00200000
00300000
00020000
00030000
,
00001000
00010000
00001000
00010000
,
00010000
00000100
00001000
00000010
,
00000100
00000001
00000000
00000100
,
00002000
00000000
00000000
00003000
,
00000000
00000000
00000000
00000000
,
00001000
00100000
00010000
01000000
,
00100000
10000000
00000000
01000000
,
00020000
00000000
00000000
00030000
,
00001000
00000000
00011000
00000000
,
00000010
00001000
00000010
00001000
,
00000001
00000100
00000001
00000100
,
00001000
00010000
00001000
00010000
,
01000000
10000000
01000000
10000000
,
00100000
00010000
00100000
00010000
,
00001000
00000010
00001000
00000010
,
00000002
00000003
00002000
00003000
,
00000002
00000203
00002300
00003000
,
00000000
00000000
00000000
00000000
,
00001000
00000010
00000001
00000001
,
00000100
00001000
00010000
00010000
,
01000000
10000000
00100000
00100000
,
20020000
00000000
00000000
30030000
,
10000000
00000000
00010000
00000000
,
00001000
00000000
00000001
00000000
,
00000001
00000000
00001000
00000000
,
00010000
00000000
10000000
00000000
,
00100000
00000000
01000000
00000000
,
00001000
00000000
00010000
00000000
,
00000100
00000000
00000010
00000000
,
00000001
00000000
00001000
00000000
,
00000001
00000100
00000101
00000101
,
00001000
00010000
00011000
00011000
,
01000000
10000000
11000000
11000000
,
10000000
00010000
10010000
10010000
,
02200000
00000000
00000000
03300000
,
00010000
01000000
10000000
01000000
,
00010000
00000000
00001000
00010000
,
00001000
00010000
00000000
01000000
,
01100000
00000000
10000000
01000000
,
00010000
00001000
00010000
01000000
,
00010000
00000000
00000100
00000010
,
00000100
00000010
00000000
00001000
,
00001001
00000000
00000010
00000001
,
00000100
00001000
00010000
00001000
,
00000100
00000000
00010000
00001000
,
00010000
00001000
00000000
01000000
,
01100000
00000000
00010000
10000000
,
00100000
00010000
00001000
00010000
,
00100000
00000000
10000000
00010000
,
10000000
00010000
00000000
01000000
,
01100000
00000000
01000000
10000000
,
00100000
00010000
00001000
00000000
,
00000010
00000001
00000010
00000000
,
00000100
00001000
00000100
00000000
,
00010000
00001000
00010000
00000000
,
01000000
01000000
10000000
01000000
,
00100000
00010000
10000000
01000000
,
00010000
00010000
00001000
00000100
,
00000001
00000010
00000100
00001000
,
00001001
00000000
00000000
00000000
;

//---------------dance-double - ----------------
#NOTES:
     dance-double:
     :
     Medium:
     7:
     0.443,0.499,0.296,0.214,0.055:
00000000
00000000
00000000
00000000
,
00000000
00000000
00000000
00000000
,
00100000
10000000
01000000
00010000
,
01000000
10000000
00100000
00010000
,
00001000
00000010
00000001
00000100
,
00001000
00000100
00000001
00000010
,
00000100
00001000
00000001
00000000
00000100
00000000
00001000
00000000
,
00010000
00001000
00010000
00000000
01000000
00000000
00100000
00000000
,
00010000
10000000
00100000
00000000
01000000
00000000
00001000
00000000
,
00010000
01000000
10000000
00000000
00100000
00000000
01000000
00000000
,
00100000
10000000
01000000
00000000
00100000
00010000
01000000
00000000
,
00010000
00100000
00001000
00000000
00010000
00000010
00000100
00000000
,
00000001
00000010
00000100
00000000
00001000
00000001
00000100
00000000
,
00001000
00010000
00001000
00000000
00010000
01000000
10000000
00000000
,
00100000
10000000
00100000
01000000
,
00010000
00100000
00001000
00010000
,
00000010
00010000
00001000
00100000
,
00010000
01000000
00100000
10000000
,
00010000
01000000
00001000
00100000
,
00001000
00010000
00000100
00000010
,
00000001
00000100
00000010
00001000
,
00000100
00010000
00001000
00100000
,
00001000
00000000
00001100
00000000
,
00000100
00000000
00000101
00000000
,
00000001
00000000
00000011
00000000
,
00000010
00000000
00000110
00000000
,
00000001
00001001
00001000
00001001
,
00000010
00010000
00001000
00100000
,
00010000
10010000
10000000
10010000
,
01100000
01100000
10010000
10010000
,
02020000
00000000
03030000
00000000
,
00000001
00001000
00000001
00000100
,
00000010
00001000
00000100
00010000
,
00001000
00100000
00010000
01000000
,
00100000
10000000
00010000
01000000
,
00100000
10000000
01000000
00100000
,
00001000
00010000
00000010
00000100
,
00000001
00000010
00000100
00001000
,
00000100
00010000
00001000
01000000
,
00010000
00000000
00000000
00000000
01000000
00010000
10000000
00000000
,
10000000
00000000
00000000
00000000
00010000
01000000
00001000
00000000
,
00001000
00000000
00000000
00000000
00010000
00000010
00000100
00000000
,
00000100
00000000
00000000
00000000
00000001
00000010
00000100
00000000
,
00000100
00000000
00000000
00000000
00010000
00000100
00000010
00000000
,
00000010
00000000
00000000
00000000
00000100
00010000
00001000
00000000
,
00001000
00000000
00000000
00000000
00010000
01000000
10000000
00000000
,
00100000
00000000
00000000
10000000
00000000
00000000
00010000
00000000
00000000
10000000
00000000
00000000
01000000
00000000
00000000
00000000
,
00100000
00000000
00000000
00010000
00000000
00000000
01000000
00000000
00100000
00000000
00000000
00000000
10100000
00000000
00000000
00000000
,
10000000
00000000
00000000
01000000
00000000
00000000
00100000
00000000
00001000
00000000
00000000
00000000
00011000
00000000
00000000
00000000
,
00010000
00000000
00000000
00000010
00000000
00000000
00000100
00000000
00000001
00000000
00000000
00000000
00000011
00000000
00000000
00000000
,
00000010
00000000
00000000
00000100
00000000
00000000
00010000
00000000
00001000
00000000
00000000
00000000
00001100
00000000
00000000
00000000
,
00000100
00000000
00000000
00000001
00000000
00000000
00001000
00000000
00000100
00000000
00000000
00000000
00010100
00000000
00000000
00000000
,
00010000
00000000
00000000
00001000
00000000
00000000
01000000
00000000
00100000
00000000
00000000
00000000
10100000
00000000
00000000
00000000
,
10000000
00000000
00000000
00010000
00000000
00000000
00100000
00000000
01000000
00000000
00000000
00000000
11000000
00000000
00000000
00000000
,
10000000
00000000
00000000
00010000
00000000
00000000
00001000
00000000
00000000
00000001
00000000
00000000
00001000
00000000
00000000
00000000
,
00001001
00000100
00000000
00001000
00000100
00000000
00010000
00001000
,
00000000
00010000
00001000
00000000
00010000
00000000
00001000
00000000
,
00100000
00010000
00000000
00100000
00010000
00000000
10000000
01000000
,
00100000
00110000
01010000
01100000
,
00010000
01000000
00000000
00100000
01000000
00000000
00010000
01000000
,
00000000
00001000
00010000
00000000
00001000
00000000
00010000
00000000
,
00000100
00001000
00000000
00000100
00000010
00000000
00000100
00001000
,
00100000
00000000
00010000
00000000
00001000
00010000
00001000
00000000
,
00020000
00000000
00000000
00000000
00000000
00000000
00031000
00000100
,
00000002
00000000
00000000
00000000
00000000
00000000
00000103
00001000
,
00020000
00000000
00000000
00000000
00000000
00000000
01030000
10000000
,
00200000
00000000
00000000
00000000
00000000
00000000
10300000
01000000
,
00020000
00000000
00000000
00001000
00000000
00000000
00031000
00000010
,
00000002
00000000
00000000
00000010
00000000
00000000
00000013
00001000
,
00020000
00000000
00000000
00001000
00000000
00000000
00031000
00010000
,
02000000
00000000
00000000
03000000
,
01100000
00000000
10000000
00000000
00010000
10000000
00100000
00000000
,
00010000
00000000
00001000
00000000
00010000
00001000
00000010
00000000
,
00000100
00000000
00001000
00000000
00000001
00001000
00000010
00000000
,
00000100
00000010
00001000
00000002
00000000
00000000
00000003
00000001
,
00001000
00000000
00010000
00000000
00001000
00000100
00000001
00000000
,
00001000
00000000
00000001
00000000
00001000
00000010
00000001
00000000
,
00000110
00000000
00000000
00001100
00000000
00000000
00011000
00000000
,
01010000
00000000
00000000
00011000
00000000
00000000
00001100
00000000
,
00000002
00001000
00002003
00000100
,
00003200
00010300
00000000
00001000
,
00011000
00000000
00000000
00000000
00010000
00000000
00000000
00000000
01000000
00000000
00000000
01000000
00000000
00000000
00000000
00000000
,
10010000
00000000
00000000
00000000
10000000
00000000
00000000
00000000
00100000
00000000
00000000
00100000
00000000
00000000
00000000
00000000
,
20000000
00010000
30020000
01000000
,
02030000
03001000
00000000
00010000
,
00011000
00001000
00000100
00000001
,
00002002
00000000
00000000
00003003
,
00000020
00000230
00010000
00020300
,
00001000
00000000
00000000
00000000
00031000
00000000
00000000
00000000
00010000
00000000
00000000
00010000
00000000
00000000
01000000
00000000
,
02000000
23000000
00100000
30200000
,
01000000
00000000
00000000
00000000
01300000
00000000
00000000
00000000
00010000
00000000
00000000
00010000
00000000
00000000
00100000
00000000
,
00200000
00302000
00010000
00023000
,
00000100
00000000
00000000
00000000
00030100
00000000
00000000
00000000
00001000
00000000
00000000
00001000
00000000
00000000
00000001
00000000
,
00000002
00000003
00002000
00003000
,
00000002
00000203
00002300
00003000
,
00002002
00000000
00000000
00003003
,
00000100
00000000
00000000
00000001
00000000
00000000
00001000
00000000
00000100
00000000
00000000
00000000
00010100
00000000
00000000
00000000
,
00010000
00000000
00000000
00001000
00000000
00000000
01000000
00000000
00100000
00000000
00000000
00000000
10100000
00000000
00000000
00000000
,
10000000
00000000
00000000
00010000
00000000
00000000
00100000
00000000
01000000
00000000
00000000
00000000
11000000
00000000
00000000
00000000
,
10000000
00000000
00000000
00010000
00000000
00000000
10000000
00000000
00000000
00010000
00000000
00000000
01000000
00000000
00000000
00000000
,
00010000
10000000
01000000
00010000
,
00001000
00000100
00000001
00001000
,
00000010
00001000
00000001
00000010
,
00000100
00010000
00001000
00010000
,
01000000
01000000
10000000
00000000
00020000
00000000
20030000
00000000
,
30100000
00100000
01000000
00000000
00002000
00000000
00023000
00000000
,
00030100
00000100
00000010
00000000
00000002
00000000
00002003
00000000
,
00003010
00000000
00000000
00001000
00000000
00000000
00000001
00000000
00000000
00001000
00000000
00000000
00000100
00000000
00000000
00000000
,
00001000
00000001
00001000
00000000
00000011
00000000
00001100
00000000
,
00000001
00001000
00000001
00000000
00001001
00000000
00011000
00000000
,
00001000
00010000
00001000
00000000
00011000
00000000
10010000
00000000
,
00100000
10000000
01000000
00010000
01000000
10000000
00100000
00000000
,
20020000
00000000
00000000
30030000
,
00010000
01000000
00010000
01000000
,
00010000
00001000
00011000
01001000
,
00100000
10000000
00100000
10000000
,
01000000
00010000
00011000
00010100
,
00001000
00000100
00001000
00000100
,
00000001
00000010
00000110
00001001
,
00000001
00000100
00000001
00000100
,
00001000
00010000
00011000
01001000
,
00100000
00001000
00100000
00001000
,
00010000
01000000
01100000
11000000
,
01000000
00010000
01000000
00010000
,
00001000
00000100
00000101
00000011
,
00001000
00000001
00001000
00000001
,
00000010
00000100
00000110
00010100
,
00001000
00010000
00001000
00010000
,
00011000
00101000
00011000
01001000
,
00010000
00000000
00001000
00000000
00010000
01000000
00000000
01000000
,
10000000
00000000
00100000
00000000
01000000
00010000
00000000
00010000
,
00100000
00000000
00001000
00000000
00010000
00001000
00000000
00001000
,
00000100
00000000
00000001
00000000
00001000
00000010
00000000
00000010
,
00000100
00000000
00001000
00000000
00010000
01000000
00000000
10000000
,
00100000
00000000
00010000
00000000
00001000
00000010
00000000
00000010
,
00000002
00000203
00002300
00023000
,
01030000
00000000
10000000
00000000
00100000
00000000
10000000
00000000
01000000
00000000
00000000
00010000
00000000
00000000
00001000
00000000
,
00011000
00000000
00000000
00000000
;

//---------------dance-double - ----------------
#NOTES:
     dance-double:
     :
     Hard:
     10:
     0.706,0.780,0.341,0.164,0.296:
00000000
00000000
00000000
00000000
,
00000000
00000000
00000000
00000000
,
00010000
00000000
10000000
01000000
10000000
00000000
00100000
00000000
01000000
00000000
00001000
00010000
00001000
00000000
00000000
00000100
,
00000001
00000000
00000010
00000100
00000010
00000000
00000001
00000000
00001000
00000000
00000001
00000100
00000001
00000000
00000000
00001000
,
00000100
00000000
00010000
00001000
00010000
00000000
00100000
00000000
10000000
00000000
01000000
00100000
01000000
00000000
00000000
10000000
,
00010000
00000000
00100000
00001000
00100000
00000000
00001000
00000000
00010000
00000000
00000100
00000000
00001000
00000000
00000001
00001000
,
00000100
00000000
00000010
00000001
00000010
00000000
00000100
00000000
00010000
00000000
00001000
00010000
00001000
00000000
00100000
00010000
,
01000000
00000000
00100000
10000000
00100000
00000000
01000000
00000000
00010000
00000000
10000000
00010000
10000000
00000000
00100000
01000000
,
00010000
00000000
00100000
00001000
00100000
00000000
00001000
00000000
00010000
00000000
00000100
00000010
00000100
00000000
00001000
00000001
,
00000100
00000000
00000010
00010000
00000010
00000000
00001000
00000000
00000100
00000000
00010000
00001000
00010000
00001000
00010000
00001000
,
01000000
00000000
00100000
10000000
00100000
00000000
01000000
00000000
00010000
00000000
00100000
00001000
00100000
00000000
00001000
00010000
,
00000010
00000000
00001000
00000100
00001000
00000000
00000001
00000000
00000010
00000000
00000100
00010000
00000100
00000000
00001000
00000010
,
00010000
00000000
00001000
00010000
00001000
00000000
01000000
00000000
00100000
00000000
10000000
01000000
10000000
00000000
01000000
00000000
,
00010000
00001000
00000100
00000001
00000010
00001000
00010000
00100000
,
10100000
00000000
01010000
00000000
01000000
00001000
00010000
00000000
,
00010010
00000000
00001100
00000000
00001000
00000010
00000100
00000000
,
00000011
00000000
00001100
00000000
00001000
00000001
00000010
00000000
,
00001100
00000000
00010010
00000000
00010000
00001000
00100000
00000000
,
00010000
00100000
00010000
00000000
10000000
01000000
10000000
00000000
,
00100000
10000000
00100000
00000000
01000000
00001000
01000000
00000000
,
00010000
00100000
01000000
00100000
00001000
00010000
00001000
01000000
,
00010000
00100000
00010000
01000000
00001000
00010000
00001000
00000000
,
00100000
00010000
00100000
01000000
10000000
01000000
00100000
00001000
,
00010000
00001000
00010000
00000010
00001000
00000010
00000100
00000001
,
00000100
00000010
00001000
00000100
00001000
00000100
00010000
00001000
,
00010000
00000010
00001000
00000001
00001000
00000010
00000100
00000000
,
00000101
00001001
00001100
00001001
,
00000100
00010000
00001000
01000000
,
01010000
10010000
11000000
10010000
,
01000000
00001000
00011000
00011000
,
00000200
00000000
00000000
00000300
,
00001000
00000100
00001000
00000001
00000100
00001000
00010000
00000000
,
00001000
00000100
00000010
00001000
00000100
00000010
00000100
00000000
,
00001000
00000001
00000100
00001000
00010000
00100000
01000000
00000000
,
00010000
00100000
01000000
10000000
00100000
01000000
00010000
00000000
,
10000000
01000000
00100000
01000000
00010000
00001000
00000100
00000000
,
00000001
00000010
00000100
00001000
00000010
00000100
00001000
00000000
,
00000100
00000001
00000010
00001000
00010000
00001000
00000010
00000000
,
00000100
00010000
00001000
00010000
01000000
10000000
00100000
00000000
,
01000000
00010000
10000000
01000000
10000000
00010000
01000000
00100000
,
00010000
00001000
00000010
00000100
00001000
00000001
00000010
00000001
,
00000100
00001000
00000100
00000010
00001000
00000001
00000010
00000100
,
00010000
00000010
00010000
00001000
00100000
00010000
01000000
00001000
,
00100000
00010000
10000000
00100000
01000000
00001000
00010000
00000100
,
00010000
00001000
00100000
01000000
10000000
00100000
01000000
00001000
,
00010000
00000100
00000010
00000001
00001000
00000100
00000010
00000100
,
00001100
00000000
00000000
00000101
00000000
00000000
00001001
00000000
00000000
00000110
00000000
00000000
00001001
00000000
00000000
00000000
,
00000001
00000100
00000000
00000100
00000001
00000000
00002000
00000000
00000100
00000000
00000000
00000000
00003001
00000000
00000000
00000000
,
00000100
00000010
00000000
00000010
00010000
00000000
00002000
00000000
00000100
00000000
00000000
00000000
00013000
00000000
00000000
00000000
,
01000000
10000000
00000000
10000000
01000000
00000000
00200000
00000000
00010000
00000000
00000000
00000000
00301000
00000000
00000000
00000000
,
00010000
00001000
00000000
00001000
00100000
00000000
02000000
00000000
10000000
00000000
00000000
00000000
03100000
00000000
00000000
00000000
,
00010000
00001000
00000000
00001000
00010000
00000000
00000200
00000000
00000010
00000000
00000000
00000000
00001300
00000000
00000000
00000000
,
00000001
00000100
00000000
00000100
00001000
00000000
00020000
00000000
00001000
00000000
00000000
00000000
01030000
00000000
00000000
00000000
,
10000000
00100000
00000000
00100000
10000000
00000000
00020000
00000000
00100000
00000000
00000000
00000000
01030000
00000000
00000000
00000000
,
00100000
00000000
00000000
10000000
00000000
00000000
01000000
00000000
00000000
00010000
00000000
00000000
00001000
00000000
00000000
00000000
,
00000110
00000000
00000100
00000001
00000010
00001000
00010000
01000000
,
00100000
00010000
01000000
10000000
00100000
00010000
00001000
00000100
,
00000010
00000001
00000100
00001000
00000010
00000100
00001000
00010000
,
01010000
00001100
00110000
00001010
,
00011000
00100000
00001000
00010000
00000010
00010000
00010100
00001000
,
00100000
00010000
10000000
00010000
01100000
00010000
00001000
00000100
,
00000001
00001000
00000011
00000100
00000010
00001000
00010000
01000000
,
00100000
00000000
01000000
00000000
10000000
00000000
00010000
10000000
00000000
10000000
00010000
01000000
00100000
00000000
00000000
00000000
,
10020000
00000000
00130000
00020000
00000000
00030000
00110000
00011000
,
00020000
00000000
00031000
00000200
00000000
00000300
00001100
00000101
,
00000200
00000000
00000310
00002000
00000000
00003000
00001010
00011000
,
00002000
00000000
00013000
02000000
00000000
03000000
01010000
11000000
,
02000000
00100000
03100000
00020000
10000000
10030000
10100000
01010000
,
00002000
00100000
00103000
00000200
00010000
00010300
00010100
00001100
,
00000200
00000010
00000310
00000002
00001000
00001003
00000011
00001100
,
00020000
00001000
00031000
00002000
00000000
00020000
00000000
00033000
,
00100000
00000000
10000000
00000000
00010000
00000000
10000000
00000000
01000000
00000000
00010000
00000000
00000100
00001000
00000010
00000000
,
00000001
00000000
00000010
00000000
00001000
00000000
00000100
00000000
00000010
00000000
00000001
00000000
00000100
00001000
00010000
00000000
,
00100000
00000000
10000000
00000000
00010000
00000000
00100000
00000000
01000000
00000000
00010000
00000000
00001000
00010000
00001000
00000000
,
00011000
00000000
00001100
00000000
00000110
00000000
00000011
00000000
00000000
00000101
00000000
00000000
00000000
00000000
00000000
00000000
,
00010000
00001000
00000100
00000010
00010000
00000100
00010000
00001000
,
00100000
00000000
01000000
00000000
00010000
00000000
01000000
00000000
10000000
00100000
00010000
00000000
00001000
00000000
00010000
00000000
,
00011000
00000000
00001000
00000000
00000100
00000001
00000000
00001000
00000000
00000001
00001000
00000000
00000001
00000000
00000100
00000000
,
00001000
00000000
00010000
00000000
01000000
00000000
10000000
00000000
00010000
00000000
10000000
00000000
00100000
00010000
00001000
01000000
,
00100000
00000000
00010000
00000000
00001000
00000000
00000000
00000010
00000001
00000000
00000010
00000000
00000001
00000000
00000000
00000100
,
00000001
00000100
00000001
00000000
00000000
00000000
00001000
00000000
,
00000001
00000000
00000100
00000000
00001000
00000000
00010000
00000000
00001000
00000000
00010000
01000000
00000000
00000000
01000000
00000000
,
10000000
00000000
01000000
00000000
00100000
00000000
00010000
00000000
00100000
00000000
00010000
10000000
00000000
00000000
00000000
00000000
,
10000000
00000000
01000000
00000000
00010000
00000000
00000000
00001000
00010000
00000000
01000000
00000000
00010000
00000000
00000000
00001000
,
00010000
00000100
00001000
00000000
00000000
00000000
00000100
00000000
,
00000010
00000000
00000001
00000000
00001000
00000100
00000000
00001000
00000010
00000000
00001000
00000100
00000000
00010000
00001000
00000000
,
00010000
00000000
10000000
00100000
,
10000000
00000000
00010000
00000000
00100000
00000000
00001000
00000000
00010000
00000000
00000100
00001000
00000000
00000000
00000100
00000000
,
00000010
00000000
00000001
00000000
00000100
00000000
00001000
00000000
00000100
00000000
00000001
00001000
00000000
00000000
00000001
00000000
,
00000100
00000000
00001000
00000000
00010000
00000000
01000000
00000000
00010000
00000000
00001000
00010000
00000000
00000000
00001000
00000000
,
00010000
00000000
01000000
00000000
10000000
00000000
00100000
00000000
10000000
00000000
01000000
10000000
00000000
00000000
00010000
00000000
,
10000000
00000000
01000000
00000000
00010000
00000000
00000100
00000000
00001000
00000000
00000010
00000100
00000000
00000000
00000001
00000000
,
00000100
00000000
00000010
00000000
00001000
00000000
00000001
00000000
00001000
00000000
00000001
00001000
00000000
00000010
00001000
00000010
,
00002000
00003000
00000002
00000003
,
00000110
00000001
00001000
00000100
00011000
00000000
00000000
00000000
,
00022000
00000000
00000000
00033000
,
00010000
00001000
00000000
00001000
00010000
00000000
00000200
00000000
00000010
00000000
00000000
00000000
00001300
00000000
00000000
00000000
,
00000001
00000100
00000000
00000100
00001000
00000000
00020000
00000000
00001000
00000000
00000000
00000000
01030000
00000000
00000000
00000000
,
10000000
00100000
00000000
00100000
10000000
00000000
00020000
00000000
00100000
00000000
00000000
00000000
01030000
00000000
00000000
00000000
,
00100000
00000000
00000000
10000000
00000000
00000000
01000000
00000000
00000000
00010000
00000000
00000000
00001000
00000000
00000000
00000000
,
00010000
00000000
00000010
00000000
00001000
00000000
00000001
00000000
00000010
00000100
00000000
00000100
00001000
00000000
00000001
00000000
,
00000010
00001000
00010000
00100000
10000000
01000000
00100000
00010000
,
01000000
00000000
00100000
00000000
10000000
00000000
00010000
00000000
10000000
01000000
00000000
01000000
00010000
00000000
00001000
00000000
,
00010000
01000000
00100000
00001000
00010000
00100000
10000000
01000000
,
00100000
00000000
00001000
00000000
00010000
00000000
00000010
00000000
00001000
00000100
00000000
00000100
00000010
00000000
00000001
00000000
,
00000100
00000010
00010000
00001000
00000010
00000100
00010000
00001000
,
00000010
00000000
00000001
00000000
00000100
00000000
00000010
00000000
00001000
00000100
00000000
00000100
00010000
00000000
01000000
00000000
,
10000000
00000000
00000000
00100000
00000000
00000000
00010000
00000000
00000000
00001000
00000000
00000000
00011000
00000000
00000000
00000000
,
00010000
01000000
00000000
01000000
10000000
00000000
00100000
00000000
01000000
00000000
00000000
00000000
10010000
00000000
00000000
00000000
,
10000000
01000000
00000000
01000000
00010000
00000000
00001000
00000000
00000100
00000000
00000000
00000000
00001001
00000000
00000000
00000000
,
00000001
00000010
00000000
00000010
00000100
00000000
00001000
00000000
00000001
00000000
00000000
00000000
00000110
00000000
00000000
00000000
,
00000010
00010000
00000000
00010000
00001000
00000000
00000100
00000000
00000001
00000000
00000000
00000000
00000110
00000000
00000000
00000000
,
00022000
00000000
00000000
00033000
,
00010000
10000000
00100000
01000000
00001000
00000100
00001000
01000000
,
00100000
01000000
00010000
10000000
10010000
00000000
10000000
00000000
,
00100000
00010000
00001000
00000010
00000001
00000100
00001000
00010000
,
00001000
00000100
00001000
00010000
01010000
00000000
01000000
00000000
,
10000000
00010000
10000000
01000000
00010000
00000100
00000010
00000001
,
00001000
00000001
00000100
00001000
00011000
00000000
01000000
00000000
,
00010000
00100000
00001000
00010000
00001000
00000100
00000010
00001000
,
00000001
00000010
00001000
00010000
01100000
00000000
01000000
00000000
,
01000000
10000000
00100000
10000000
00010000
01000000
00001000
00010000
,
00000100
00010000
00001000
00000010
00000011
00000000
00000001
00000000
,
00001000
00000001
00000010
00000100
00010000
01000000
00010000
00000100
,
00000010
00000100
00001000
00000001
00001001
00000000
00000001
00000000
,
00000010
00001000
00010000
00100000
10000000
01000000
00010000
00001000
,
00010000
01000000
00010000
00001000
00001100
00000000
00000100
00000000
,
00001001
00001100
00001001
00011000
,
20020000
00000000
00000000
30030000
,
10000000
00000000
01000000
00000000
00010000
00000000
00001000
00010000
00000000
00001000
00010000
00000000
00001000
00010000
00000000
00001000
,
00010000
00000000
00000100
00000000
00000010
00000000
00000001
00000100
00000000
00000001
00000100
00000000
00000001
00000100
00000001
00000100
,
00000001
00000000
00001000
00000000
00000001
00000000
00000100
00000010
00000000
00000100
00000010
00000000
00000000
00000000
00001000
00000000
,
00000001
00000000
00000100
00000000
00001000
00000000
00010000
00001000
00000000
00010000
00001000
00000000
00000000
00000000
00000000
00000000
,
00100000
00000000
01000000
00000000
10000000
00000000
00010000
10000000
00000000
00010000
10000000
00000000
00010000
10000000
00000000
00010000
,
10000000
00000000
01000000
00000000
00010000
00000000
00001000
00010000
00000000
00001000
00010000
00000000
00001000
00010000
00001000
00010000
,
00001000
00000000
00000100
00000000
00000001
00000000
00001000
00000100
00000000
00001000
00000100
00000000
00001000
00000000
00000001
00000000
,
00001000
00000000
00000001
00000000
00001000
00000000
00000000
00000000
00000100
00000000
00000000
00001000
00000000
00000000
00000001
00000000
,
00001001
00000000
00000000
00000000
;

//---------------dance-double - ----------------
#NOTES:
     dance-double:
     :
     Challenge:
     10:
     0.732,0.842,0.405,0.214,0.373:
00000000
00000000
00000000
00000000
,
00000000
00000000
00000000
00000000
,
10000000
01000000
00010000
01000000
10000000
00010000
10010000
00000000
,
00001000
01000000
00010000
00100000
00001000
00010000
00011000
00000000
,
00010000
00000010
00001000
00000100
00010000
00001000
00011000
00000000
,
00001000
00000100
00000001
00001000
00000100
00000001
00000101
00000000
,
00001000
00000000
00000100
00010000
00001000
00000000
01000000
00010000
01000000
00000000
00100000
00000000
10000000
00000000
00010000
00000000
,
10000000
01000000
10000000
01000000
10000000
01000000
00000000
00100000
00000000
00001000
00010000
00001000
00010000
00001000
00010000
00000000
,
00000100
00000000
00001000
00000100
00001000
00000000
00000001
00000100
00000001
00000000
00000010
00000000
00001000
00000000
00010000
00000000
,
00100000
10000000
00100000
10000000
00100000
10000000
00000000
00010000
00000000
00100000
00001000
00100000
00001000
00100000
00001000
00100000
,
00010000
00000000
00000010
00000000
00000001
00000000
00000100
00000001
00000100
00000000
00001000
00000000
00010000
00000000
00100000
00000000
,
10000000
01000000
10000000
01000000
10000000
01000000
00000000
00010000
00000000
00001000
00010000
00001000
00010000
00001000
00010000
00000000
,
00001000
00000100
00001000
00000100
00001000
00000000
00000100
00000001
00000100
00000000
00000001
00000000
00000010
00000000
00001000
00000000
,
00010000
01000000
00010000
01000000
00010000
00000000
01000000
10000000
00100000
00000000
00010000
00000000
00001000
00000000
00000100
00000000
,
00000101
00000000
00000101
00000000
00001000
00000100
00001000
00000100
,
00001100
00000000
00010100
00000000
00001000
01000000
00001000
01000000
,
01001000
00000000
01010000
00000000
10000000
00100000
10000000
00100000
,
10100000
00000000
10010000
00000000
00010000
00100000
00001000
00010000
,
00001000
00000000
00010000
00001000
00010000
00000100
00001000
00000100
,
00001100
00000000
00001000
00000001
00000100
00000010
00001000
00000100
,
00001100
00000000
00010000
00001000
01000000
00010000
10000000
00100000
,
10100000
00000000
01000000
00010000
01000000
00001000
01000000
00010000
,
10000000
01000000
00100000
01000000
10000000
00010000
01000000
00001000
,
00010000
00000100
00001000
00000001
00000100
00000010
00000100
00000001
,
00001000
00000100
00010000
00001000
01000000
00100000
01000000
00010000
,
10000000
01000000
00100000
00001000
00010000
00000100
00000010
00000001
,
00000011
00000101
00001100
00011000
,
01010000
11000000
10100000
00110000
,
01100000
01001000
00011000
00010010
,
00001100
00010100
00101000
00011000
,
00000020
00000000
00000000
00000030
,
00000001
00000100
00001000
00000100
00000001
00001000
00000100
00010000
,
00001000
00010000
01000000
10000000
00010000
00100000
00100000
00100000
,
01000000
10000000
00010000
01000000
00001000
01000000
00010000
00100000
,
00001000
00010000
00000100
00001000
00000001
00000010
00000010
00000010
,
00000001
00000100
00001000
00010000
00100000
10000000
01000000
00010000
,
00001000
00000010
00000001
00000100
00001000
00000010
00000010
00000010
,
00001000
00010000
00100000
01000000
00010000
10000000
01000000
00100000
,
01000000
00010000
00001000
00000010
00000001
00000010
00000010
00000010
,
00000011
00000100
00001000
00000001
00000100
00000010
00010000
00001000
,
00100000
10000000
00100000
00010000
01000000
00100000
00100000
00100000
,
01100000
10000000
00010000
01000000
00100000
00010000
00001000
00000100
,
00000001
00000010
00001000
00010000
01000000
00100000
00100000
00100000
,
01010000
00001000
00000010
00000001
00000100
00001000
00010000
01000000
,
10000000
01000000
00010000
00001000
00010000
00000010
00000010
00000010
,
00001001
00000000
00000000
00000001
00000100
00000000
00000010
00000000
00010100
00000000
00000000
00000000
00101000
00000000
00000000
00000000
,
10000000
00000000
00000000
00100000
00000000
00000000
00010000
00000000
00000000
01000000
00000000
00000000
10000000
00000000
00000000
00000000
,
00010000
01000000
00010000
01000000
00010000
01000000
00010000
01000000
00010000
00000000
00000000
00000000
01001000
00000000
00000000
00000000
,
00010000
00000100
00010000
00000100
00010000
00000100
00010000
00000100
00001000
00000000
00001001
00000000
00000101
00000000
00000110
00000000
,
00000010
00001000
00000010
00001000
00000010
00001000
00000010
00001000
00000010
00000000
00000000
00000000
00010010
00000000
00000000
00000000
,
00100000
00001000
00100000
00001000
00100000
00001000
00100000
00001000
00010000
00000000
10010000
00000000
11000000
00000000
01100000
00000000
,
00010000
10000000
00010000
10000000
00010000
10000000
00010000
10000000
00010000
00000000
00000000
00000000
01010000
00000000
00000000
00000000
,
00001000
01000000
00001000
01000000
00001000
01000000
00001000
01000000
00010000
00000000
00110000
00000000
00011000
00000000
00001010
00000000
,
00001001
00000000
00000000
00001000
00000100
00000000
00010000
00000000
00001010
00000000
00000000
00000000
00010010
00000000
00000000
00000000
,
00000100
00000000
00000000
00010000
00000000
00000000
00001000
00000000
00000000
00100000
00000000
00000000
00010000
00000000
00000000
00000000
,
01100000
10000000
10000000
01000000
00001000
00000100
00000001
00000100
,
00000010
00000001
00000100
00010000
01000000
00100000
10000000
01000000
,
00100000
10000000
00010000
01000000
00001000
00010000
00000010
00001000
,
00001010
00000110
00000011
00001001
00001100
00011000
00101000
00010010
,
02001000
00000000
13000000
01000000
00001000
00010000
00000100
00000010
,
00000001
00000100
00001000
00010000
00100000
10000000
01000000
00010000
,
00001000
00010000
00000010
00010000
00001000
00000100
00000001
00000010
,
00001000
00000100
00000001
00000010
00001000
00010000
01000000
10000000
,
10010000
00000000
00000000
00000000
00100000
00000000
01000000
00001000
00000000
00010000
00001000
00100000
00010000
00000000
00011000
00000000
,
00010100
00000000
00001000
00000000
00000001
00000000
00000010
00000100
00000000
00000100
00001000
00000000
00001001
00000000
00000101
00000000
,
00010010
00000000
00001000
00000000
00100000
00000000
00010000
10000000
00000000
10000000
01000000
00100000
00010000
00000000
10000000
00000000
,
01100000
00000000
00000000
00000000
01010000
01010000
00101000
00101000
,
00011000
00000000
00000000
00000000
00010000
00000000
00000100
00001000
00000000
00001000
00000010
00000000
00000100
00000000
00001000
00000000
,
00011000
00000000
00000000
00000000
00001000
00000000
01000000
00010000
00000000
00010000
00100000
00000000
01100000
00000000
01010000
00000000
,
00011000
00000000
00000000
00000000
00000010
00000000
00000000
00001000
00000000
00000001
00000100
00000000
00000010
00000000
00001000
00000000
,
00002002
00000000
00000000
00003003
,
00000020
00000000
00000000
00020000
00000030
00000000
00000000
02030000
,
00000000
20000000
00000000
00000000
03000000
00000000
00200000
00000000
00000000
00000000
30000000
00000000
00000000
00000000
00320000
00000000
,
00000000
00002000
00000000
00000000
00030000
00000000
00000200
00000000
00000000
00000000
00003000
00000000
00000000
00000000
00000302
00000000
,
00000000
00001000
00000000
00001000
00000000
00001000
00000000
00001000
00000003
00000000
00000000
00000000
00000000
00000000
00000000
00000000
,
00000001
00000100
00001000
00000010
00010000
00001000
00000100
00010000
,
01000000
10000000
00100000
00010000
00100000
10000000
01000000
00100000
,
10010000
00000000
00000000
10000000
10000000
00000000
00100000
01000000
,
00010000
00000000
00000000
00000000
,
20000000
32000000
03020000
00032000
,
00003020
00000032
00000003
00002000
,
00023000
00000000
00030000
00000000
10000000
00100000
00010000
00100000
,
00001000
00001000
00001000
00001000
,
00000100
00000100
00000001
00000001
,
00000010
00000000
00000010
00000000
00000100
00010000
01000000
00000000
,
00000000
00000000
00000000
00000000
00100000
00001000
00010000
00000100
,
00000000
00000010
00000001
00011000
,
00200000
00000000
01300000
20000000
00000000
30010000
02000000
00000000
,
03001000
00020000
00000000
00030010
00020000
00000000
00030200
00000000
,
00000320
00000032
00000003
00000200
,
00020300
00230000
00300000
00000000
,
20000000
32000000
03000000
00002000
,
00203000
00000000
00300000
00000000
00001000
00010000
00000010
00000000
,
00001001
00000000
00011000
00000000
,
10010000
00011000
00000110
00000000
,
00022000
00000000
00000000
00033000
,
00000001
00000000
00001000
00000010
00001000
00000000
00000100
00010000
00000100
00000000
00010000
00000000
00001000
00000000
00100000
00000000
,
00010000
00000000
10000000
01000000
10000000
00000000
00010000
01000000
00010000
00000000
00100000
00000000
00001000
00000000
00010000
00000000
,
00001000
00000000
00010000
00000010
00010000
00000000
00000001
00001000
00000001
00000000
00000010
00000000
00000100
00000000
00001000
00000000
,
00000001
00000000
00001000
00000010
00000000
00010000
00001000
00000000
01000000
00010000
00000000
10000000
00100000
00000000
00000000
00000000
,
10000000
00000000
00010000
01000000
00100000
00000000
01000000
00001000
01000000
00000000
00001000
00000000
00010000
00000000
00000100
00000000
,
00000001
00000000
00000100
00000010
00000100
00000000
00010000
00000100
00001000
00000000
00000001
00000100
00000001
00000000
00000100
00000000
,
00001000
00000000
00010000
00001000
00010000
00000000
00001000
01000000
00010000
00000000
00100000
00000000
01000000
00000000
10000000
00000000
,
00100000
01000000
00010000
00000000
10000000
00000000
01000000
00100000
00010000
00000000
01000000
00000000
00001000
00000000
00001000
00000000
,
00001000
00000000
00010000
00000010
00010000
00000000
00000100
00001000
00000001
00000000
00000100
00000000
00001000
00000000
00000100
00000000
,
00000010
00000000
00010000
00001000
00010000
00000000
00001000
01000000
00100000
00000000
10000000
00000000
00010000
00000000
00100000
00000000
,
01000000
10000000
00100000
00000000
00010000
00000000
00001000
00000100
00000001
00000000
00000010
00000000
00001000
00010000
01000000
00000000
,
00100000
00000000
00000000
00100000
00000000
00000000
00100000
00000000
00000000
00100000
00000000
00000000
00100000
00000000
00000000
00000000
,
00001000
00001000
00001000
00001000
00001000
00001000
00010000
00000100
,
00000010
00000010
00000010
00000010
00000010
00000010
00000001
00000100
,
00001000
00001000
00001000
00001000
00001000
00001000
00010000
01000000
,
10000000
00010000
10000000
00010000
10000000
00010000
10000000
00010000
10000000
00010000
10000000
00010000
10000000
00010000
10000000
00010000
,
20000000
00000000
00000000
30000000
,
00010000
01000000
01000000
00001000
00010000
00010000
00000020
00000000
,
00000130
00000001
00000001
00001000
00000100
00000100
00020000
00000000
,
01030000
10000000
10000000
00100000
00010000
00010000
00000020
00000000
,
00001030
00000100
00000100
00010000
00001000
00001000
00200000
00000000
,
01300000
00010000
00010000
00001000
00001000
00000010
00000002
00000000
,
00000103
00001000
00001000
00100000
00100000
01000000
20000000
00000000
,
30100000
00000000
00000000
01000000
00000000
00000000
00001000
00000000
00000000
00010000
00000000
00000000
00000100
00000000
00000000
00000000
,
00000010
00000000
00000000
00000100
00000000
00000000
00010000
00000000
00000000
00001000
00000000
00000000
00100000
00000000
00000000
00000000
,
01000000
00000000
10000000
00000000
00100000
00000000
00010000
00001000
00000000
00001000
00000010
00000000
00000001
00000000
00000100
00000000
,
00000001
00000000
00000010
00000000
00001000
00000000
00010000
00100000
00000000
00100000
10000000
00000000
00010000
00000000
01000000
00000000
,
00100000
00000000
10000000
00000000
01000000
00000000
00010000
00001000
00000000
00001000
00000010
00000000
00000001
00000000
00000100
00000000
,
00001000
00000000
00000100
00000000
00000010
00000000
00010000
00001000
00000000
00100000
00010000
00000000
10000000
00000000
00100000
00000000
,
00010000
00000000
00001000
00000000
00000100
00000000
00000001
00000010
00000000
00000100
00010000
00000000
00001000
00000000
01000000
00000000
,
00100000
00000000
10000000
00000000
01000000
00000000
00010000
00001000
00000000
00000010
00000001
00000000
00000100
00000000
00000010
00000000
,
00010000
00001000
00000100
00010000
00001000
00100000
10000000
00100000
,
20200000
00000000
00000000
30300000
,
10000000
01000000
10000000
01000000
10000000
00000000
00010000
01000000
00000000
00001000
00100000
00000000
00010000
00000000
01000000
00000000
,
00001000
00010000
00001000
00010000
00001000
00000000
00010000
00000010
00000000
00001000
00000001
00000000
00000100
00000000
00000010
00000000
,
00010000
00001000
00010000
00001000
00010000
00000000
00001000
01000000
00000000
00010000
01000000
00000000
00100000
00000000
10000000
00000000
,
01000000
00100000
01000000
00100000
01000000
00000000
00100000
00001000
00000000
00010000
00001000
00000000
00000010
00000000
00000001
00000000
,
00000100
00000001
00000100
00000001
00000100
00000000
00001000
00010000
00000000
00010000
01000000
00000000
10000000
00000000
00010000
00000000
,
01000000
00010000
01000000
00010000
01000000
00000000
00001000
00100000
00000000
00001000
00010000
00000000
00001000
00000000
00000100
00000000
,
00000001
00001000
00000010
00000100
00000001
00000000
00010000
00001000
00000000
01000000
00010000
00000000
10000000
00000000
00100000
00000000
,
00010000
00000000
00000000
00000000
00000000
00000000
00000000
00000000
00001000
00000000
00000000
00000100
00000000
00000000
00000001
00000000
,
00001001
00000000
00000000
00000000
;
