#TITLE:Stylo;
#SUBTITLE:(Z-I-v edit);
#ARTIST:Gorillaz, Mos Def featuring Bobby Womack;
#TITLETRANSLIT:;
#SUBTITLETRANSLIT:;
#ARTISTTRANSLIT:;
#CREDIT:;
#BANNER:Stylo.png;
#BACKGROUND:Stylo-bg.png;
#LYRICSPATH:;
#CDTITLE:Z-I-v simfile collab.png;
#MUSIC:Stylo.mp3;
#OFFSET:-0.075;
#SAMPLESTART:47.670;
#SAMPLELENGTH:18.500;
#SELECTABLE:YES;
#DISPLAYBPM:100.000;
#BPMS:0=100.21;
#STOPS:;
#BGCHANGES:;

//---------------dance-single - -Viper-----------------
#NOTES:
     dance-single:
     -Viper-:
     Hard:
     8:
     0.455,0.473,0.042,0.158,0.264:
0000
0000
0000
0000
,
0000
0000
0000
0000
,
1000
0000
1000
0100
0000
0000
0000
0000
0010
0000
0010
0001
0000
0000
0000
0000
,
0001
0000
0001
0100
0000
0000
0000
0000
0010
0000
0010
1000
0010
0100
0001
0000
,
1000
0000
1000
0000
0010
0000
0010
0000
0100
0000
0100
0001
1000
0000
1000
0000
,
0010
0000
0010
0000
0100
0000
0100
0000
0001
0000
0001
0010
0100
0000
0010
0000
,
0001
0001
1000
1000
0010
0010
0100
0100
,
0010
0000
0010
0000
1000
0000
1000
0000
0001
0000
0001
0000
0001
0010
0001
0000
,
1000
0010
1000
0000
0100
0000
0010
0000
0001
0000
0001
0000
1000
0000
1000
0000
,
0010
0000
0010
0100
0001
0000
0010
0000
0010
0100
1000
0000
0002
0000
2003
0000
,
3002
0000
2003
0000
3010
0100
0001
0000
0010
0100
1000
0000
1000
0000
0001
0000
,
0001
0000
0010
0000
0010
0000
0100
0000
0100
0000
1000
0000
0001
1000
0001
1000
,
0002
1000
2003
0010
,
3020
0000
0001
0000
1030
0000
0001
1000
,
0001
0000
0000
0000
0010
0000
0000
0000
0100
0000
0010
0100
0010
0000
0000
0000
,
0001
0000
1000
0001
1000
0000
0000
0000
0010
0000
0000
1000
0000
0000
0001
0000
,
1000
0000
0100
1000
0000
0000
1000
0000
0001
0000
0100
0001
0000
0000
0001
0000
,
0010
0000
0001
1000
0000
0000
0010
0100
0000
0000
0010
0000
0000
0000
1000
0000
,
0001
1000
0000
0001
0100
0000
0001
0000
,
1000
0000
0000
0000
0010
0000
0000
0000
1000
0000
0001
0000
1000
0000
1000
0001
,
2000
0001
3002
0100
,
0203
0000
1000
0000
0301
0000
1000
0001
,
1000
0000
0000
0000
0100
0000
0000
0000
0010
0000
0100
0010
0100
0000
0000
0000
,
1000
0000
0001
1000
0001
0000
0000
0000
1000
0000
0001
0000
0010
0000
0001
0000
,
0010
0000
0010
0001
0000
0000
0001
0000
1000
0000
1000
0010
0000
0000
1000
0000
,
0100
0000
1000
0001
0000
0000
0100
0010
0000
0000
0100
0000
0000
0000
0001
0000
,
1000
0001
0000
1000
0010
0000
1000
0000
,
0001
0000
0000
0000
0100
0000
0000
0000
0001
0000
1000
0000
0001
1000
0001
0000
,
2000
0000
0010
3010
0000
0000
0010
0000
0200
0000
0001
0301
0000
0000
0001
0000
,
0002
0000
1000
1003
0000
0000
0000
0000
0010
0000
1000
0000
0001
0000
1000
0000
,
0010
0000
0010
1000
0000
0000
1000
0000
0010
0000
0010
0001
0000
0000
0010
0000
,
0100
0000
0100
1000
0000
0000
1000
0000
0100
0000
0001
0000
0010
0000
0100
0000
,
2000
0000
0001
3001
0000
0000
0001
0000
0002
0000
0010
0013
0000
0000
0010
0000
,
0200
0000
0001
0301
0000
0000
0001
0000
0100
0000
1000
0000
0010
0000
0100
0000
,
0001
0000
0001
0010
0000
0000
0010
0000
0100
0000
0100
1000
0000
0000
0010
0000
,
0100
0000
0001
1000
0000
0000
0010
0000
0100
0001
1000
0000
0001
0000
1000
0000
,
0010
0000
1001
0000
0010
0100
0010
0000
,
1001
0000
0001
1000
0001
0000
1010
0000
,
0110
0000
1000
0001
1000
0000
0110
0000
,
1001
0000
0110
0000
0001
0010
0100
1000
,
0002
0000
0100
0103
0000
0000
0100
0000
0020
0000
1000
1030
0000
0000
1000
0000
,
2000
0000
0001
3001
0000
0000
0000
0000
0100
0000
0001
0000
1000
0000
0001
0000
,
0100
0000
0100
0001
0000
0000
0001
0000
0100
0000
0100
1000
0000
0000
0100
0000
,
0010
0000
0010
0001
0000
0000
0001
0000
0010
0000
1000
0000
0100
0000
0010
0000
,
0002
0000
1000
1003
0000
0000
1000
0000
2000
0000
0100
3100
0000
0000
0100
0000
,
0020
0000
1000
1030
0000
0000
1000
0000
0010
0000
0001
0000
0100
0000
0010
0000
,
1000
0000
1000
0100
0000
0000
0100
0000
0010
0000
0010
0001
0000
0000
0100
0000
,
0010
0000
1000
0001
0000
0000
0100
0000
0010
1000
0001
0000
1000
0000
0001
0000
,
0100
0000
0010
0000
1000
0001
1000
0000
,
0001
0000
0010
0000
1000
0001
1000
0000
,
0010
0000
0001
0000
0100
0010
1000
0000
,
0010
0000
0001
0000
0010
1000
0001
0000
,
1000
0000
1000
0000
0010
0000
0010
0000
0100
0000
0100
0001
1000
0000
1000
0000
,
0010
0000
0010
0000
0100
0000
0100
0000
0001
0000
0001
0010
0100
0000
0010
0000
,
0001
0001
1000
1000
0010
0010
0100
0100
,
0010
0000
0010
0000
1000
0000
1000
0000
0001
0000
0001
0000
0001
0010
0001
0000
,
1000
0010
1000
0000
0100
0000
0010
0000
0001
0000
0001
0000
1000
0000
1000
0000
,
0010
0000
0010
0100
0001
0000
0010
0000
0010
0100
1000
0000
0002
0000
2003
0000
,
3002
0000
2003
0000
3010
0100
0001
0000
0010
0100
1000
0000
1000
0000
0001
0000
,
0001
0000
0010
0000
0010
0000
0100
0000
0100
0000
1000
0000
0001
1000
0001
1000
,
0001
0000
0001
0010
0000
0000
0000
0000
0100
0000
0100
1000
0000
0000
0000
0000
,
1000
0000
1000
0010
0000
0000
0000
0000
0100
0000
0100
0001
0100
0010
1000
0000
,
1000
0000
1000
0100
0000
0000
0000
0000
0010
0000
0010
0001
0000
0000
0000
0000
,
0001
0000
0001
0100
0000
0000
0000
0000
0010
0000
0010
1000
0010
0100
0001
0000
,
0001
0000
0001
0010
0000
0000
0000
0000
0100
0000
0100
1000
0000
0000
0000
0000
,
1000
0000
1000
0010
0000
0000
0000
0000
0100
0000
0100
0001
0100
0010
1000
0000
,
1000
0000
1000
0100
0000
0000
0000
0000
0010
0000
0010
0001
0000
0000
1000
0000
,
0001
0000
0001
0100
0000
0000
0000
0000
0010
0000
0010
1000
0010
0100
0001
1000
;

//---------------dance-single - ----------------
#NOTES:
     dance-single:
     :
     Medium:
     6:
     0.305,0.330,0.103,0.260,0.000: // measure 1
0000
0000
0000
0000
,  // measure 2
0000
0000
0000
0000
,  // measure 3
0001
0100
1000
0010
,  // measure 4
2002
0000
0000
0000
0000
0000
0000
0003
,  // measure 5
3001
0000
1000
0000
0001
0001
0010
0100
,  // measure 6
0001
0100
2002
3003
,  // measure 7
1000
0000
0001
0000
1000
1000
0010
0100
,  // measure 8
1000
0100
0220
0330
,  // measure 9
1000
0000
0100
0000
1000
0100
0001
0100
,  // measure 10
0000
0000
0010
0000
0001
0100
1000
0100
,  // measure 11
0000
0010
1000
2002
,  // measure 12
0000
0000
0000
3003
,  // measure 13
0002
1000
0000
0100
,  // measure 14
0000
0100
0023
0032
,  // measure 15
2003
0010
0000
0001
,  // measure 16
0000
0001
3200
0320
,  // measure 17
0032
0010
0000
1000
,  // measure 18
0000
0010
0203
0302
,  // measure 19
2000
0000
0000
0000
,  // measure 20
0000
3003
1001
1001
,  // measure 21
1000
0100
0010
0001
1000
0000
0001
0000
,  // measure 22
0100
0001
1000
0001
,  // measure 23
0001
0010
0100
1000
0001
0000
1000
0000
,  // measure 24
0100
0000
1000
0000
0001
0000
1000
0001
,  // measure 25
0100
0001
1000
0000
0001
0000
0100
0000
,  // measure 26
1000
0010
0001
0100
,  // measure 27
2002
0000
0000
0000
,  // measure 28
0000
0000
0000
0000
0000
0000
0000
3003
,  // measure 29
0001
1000
0001
0000
1000
0001
1000
0000
,  // measure 30
0010
1000
0010
0000
0100
0001
0100
0010
,  // measure 31
0100
0010
1000
0000
1000
0001
0010
0000
,  // measure 32
0010
0001
1000
0000
0001
1000
0001
0100
,  // measure 33
0001
0100
0010
0000
1000
0100
0010
0000
,  // measure 34
0001
0010
0100
0000
1000
0100
0010
0001
,  // measure 35
0010
0001
1000
0000
0010
0100
0010
0000
,  // measure 36
0100
0010
0100
0000
1000
0001
0100
0001
,  // measure 37
2000
0100
3020
1000
,  // measure 38
0230
0010
0302
0100
,  // measure 39
0023
0001
0230
1000
,  // measure 40
0320
0001
0032
0100
,  // measure 41
0013
0010
0001
0000
1000
0001
0100
0000
,  // measure 42
0001
1000
0100
0000
1000
0100
0001
0100
,  // measure 43
1000
1000
0001
0000
0001
1000
0100
0000
,  // measure 44
1000
0001
0100
0000
1000
0010
0001
0010
,  // measure 45
1000
1000
0100
0000
1000
0001
1000
0000
,  // measure 46
0010
0100
0001
0000
0001
0100
1000
0100
,  // measure 47
0010
1000
0100
0000
1000
1000
0010
0000
,  // measure 48
0100
0100
0010
0000
1000
0001
1000
0001
,  // measure 49
1000
1000
0001
0000
0000
0000
0001
0000
,  // measure 50
0000
0000
0001
0000
0001
0001
0001
0001
,  // measure 51
0001
1000
0000
1000
,  // measure 52
0000
0000
1000
0000
1000
1000
1000
1000
,  // measure 53
1000
0000
0001
0000
0100
0010
1000
0100
,  // measure 54
0010
0001
2002
3003
,  // measure 55
0001
0000
1000
0000
1000
0001
0100
0010
,  // measure 56
1000
0001
0022
0033
,  // measure 57
2000
3200
0302
0203
,  // measure 58
0320
0032
2003
0001
,  // measure 59
3002
0010
0100
2000
,  // measure 60
0000
0000
0000
0000
0000
0000
0000
3003
,  // measure 61
1000
0010
0110
0000
1000
0000
0100
0000
,  // measure 62
1000
0100
1000
1001
,  // measure 63
0001
0010
0110
0000
0001
0000
0100
0000
,  // measure 64
0001
0100
0001
1001
,  // measure 65
1000
0100
0110
0000
0010
0000
0100
0000
,  // measure 66
0010
0100
0010
1001
,  // measure 67
0001
1000
0110
0000
1000
0000
0010
0000
,  // measure 68
0001
0100
1000
2002
,  // measure 69
3003
0000
0000
0000
;

//---------------dance-single - -Viper-----------------
#NOTES:
     dance-single:
     -Viper-:
     Easy:
     4:
     0.240,0.247,0.012,0.048,0.000: // measure 1
0000
0000
0000
0000
,  // measure 2
0000
0000
0000
0000
,  // measure 3
0000
0000
0000
0000
,  // measure 4
1000
0000
1000
1000
,  // measure 5
0001
0001
1000
0010
,  // measure 6
1000
0000
0001
0000
1000
0001
1000
0000
,  // measure 7
0010
0100
0001
0010
,  // measure 8
0100
1000
0010
0100
,  // measure 9
0010
1000
0001
1000
,  // measure 10
1000
0001
0001
1000
,  // measure 11
0010
0100
0010
0000
1000
0000
1000
0000
,  // measure 12
0001
0000
0001
0000
0001
1000
0001
0000
,  // measure 13
1001
1000
0100
0001
,  // measure 14
0100
1000
0010
0100
,  // measure 15
0010
0000
1000
0000
0001
1000
0001
0000
,  // measure 16
0010
0000
0100
0000
1000
1000
0001
0001
,  // measure 17
0010
0100
1000
0001
,  // measure 18
1000
0000
0010
0100
,  // measure 19
0001
0000
1000
0010
,  // measure 20
0100
0000
0000
0000
0001
1000
0001
0000
,  // measure 21
0010
0100
1000
0000
,  // measure 22
0001
0100
0010
0000
,  // measure 23
1000
0010
0100
0010
,  // measure 24
0001
0000
0001
1000
,  // measure 25
0001
0001
1000
1000
,  // measure 26
0010
0000
1000
0001
,  // measure 27
1000
0001
0010
0000
,  // measure 28
0001
1000
0001
1000
,  // measure 29
0002
1000
1000
1000
,  // measure 30
1003
0000
0010
0100
,  // measure 31
2000
0001
0001
0001
,  // measure 32
3001
0000
0000
0000
0010
0100
0010
0000
,  // measure 33
0020
0100
0100
0100
,  // measure 34
0130
0000
0000
0000
0001
1000
0001
0000
,  // measure 35
0200
0010
0010
0010
,  // measure 36
0310
0000
0000
0000
1000
0001
1000
0000
,  // measure 37
0001
0001
0010
0010
,  // measure 38
0100
0100
1000
1000
,  // measure 39
0010
0010
0100
0100
,  // measure 40
0001
0000
0001
0000
1000
0001
1000
0001
,  // measure 41
2000
0001
0001
0001
,  // measure 42
3001
0000
0100
0010
,  // measure 43
0002
1000
1000
1000
,  // measure 44
1003
0000
0000
0000
0100
0010
0100
0000
,  // measure 45
0200
0010
0010
0010
,  // measure 46
0310
0000
0000
0000
1000
0001
1000
0000
,  // measure 47
0020
0100
0100
0100
,  // measure 48
0130
0000
0000
0000
1000
0001
1000
0000
,  // measure 49
0001
0010
0100
0010
,  // measure 50
0001
0100
0010
1000
,  // measure 51
0010
0100
1000
0100
,  // measure 52
0010
1000
0001
0010
,  // measure 53
0001
0001
1000
0010
,  // measure 54
1000
0000
0001
0000
1000
0001
1000
0000
,  // measure 55
0010
0100
0001
0010
,  // measure 56
0100
1000
0010
0100
,  // measure 57
0010
1000
0001
1000
,  // measure 58
1000
0001
0001
1000
,  // measure 59
0010
0100
0010
0000
1000
0000
1000
0000
,  // measure 60
0001
0000
0001
0000
0001
1000
0001
0000
,  // measure 61
1001
0000
0001
0000
1000
0001
1000
0000
,  // measure 62
0010
0000
0100
0000
0010
0100
0010
0000
,  // measure 63
0100
0001
1000
0001
,  // measure 64
1000
0001
1000
0000
0010
0000
0100
0000
,  // measure 65
0001
1000
0010
0100
,  // measure 66
0010
0000
1000
0000
0001
1000
0001
0000
,  // measure 67
0010
1000
0010
0001
,  // measure 68
1000
0000
0010
0000
0100
0010
0100
0001
;

//---------------dance-single - silenttype01----------------
#NOTES:
     dance-single:
     silenttype01:
     Beginner:
     1:
     0.077,0.122,0.055,0.000,0.000:
0000
0000
0000
0000
,
0000
0000
0000
0000
,
0000
0000
0000
0000
,
0000
0000
0000
0000
,
0010
0000
0010
0000
,
0010
0000
0110
0000
,
0100
0000
0100
0000
,
0100
0000
0110
0000
,
1000
0000
1000
0000
,
1000
0000
1001
0000
,
0001
0000
0001
0000
,
0001
0000
1001
0000
,
0001
0000
0000
0000
,
1000
0000
0000
0000
,
0010
0000
0000
0000
,
0100
0000
0000
0000
,
0100
0000
0000
0000
,
0001
0000
0000
0000
,
1000
0000
0000
0000
,
0010
0000
0000
0000
,
0100
0000
0000
0000
,
0001
0000
0000
0000
,
0010
0000
0000
0000
,
1000
0000
0000
0000
,
0001
0000
0000
0000
,
0100
0000
0000
0000
,
0010
0000
0000
0000
,
1000
0000
0000
0000
,
0001
0000
0000
0000
,
0010
0000
0000
0000
,
1000
0000
0000
0000
,
0100
0000
0000
0000
,
0010
0000
0000
0000
,
0100
0000
0000
0000
,
1000
0000
0000
0000
,
0001
0000
0000
0000
,
0010
0000
0000
0000
,
0010
0000
0000
0000
,
0010
0000
0000
0000
,
0010
0000
0000
0000
,
0110
0000
0000
0000
,
0001
0000
0000
0000
,
1000
0000
0000
0000
,
0100
0000
0000
0000
,
0010
0000
0000
0000
,
1000
0000
0000
0000
,
0001
0000
0000
0000
,
0100
0000
0000
0000
,
0001
0000
0000
0000
,
1000
0000
0000
0000
,
0100
0000
0000
0000
,
1000
0000
0000
0000
,
0010
0000
0010
0000
,
0010
0000
0110
0000
,
0100
0000
0100
0000
,
0100
0000
0110
0000
,
0001
0000
0001
0000
,
0001
0000
1001
0000
,
1000
0000
1000
0000
,
1000
0000
1001
0000
,
0100
0000
0000
0000
,
0001
0000
0000
0000
,
1000
0000
0000
0000
,
0010
0000
0000
0000
,
0100
0000
0000
0000
,
0001
0000
0000
0000
,
1000
0000
0000
0000
,
0001
0000
0000
0000
;

//---------------dance-double - silenttype01----------------
#NOTES:
     dance-double:
     silenttype01:
     Easy:
     2:
     0.150,0.185,0.048,0.006,0.000:
00000000
00000000
00000000
00000000
,
00000000
00000000
00000000
00000000
,
00000000
00000000
00000000
00000000
,
00000000
00000000
00000000
00000000
,
10000000
01000000
00100000
00010000
,
00001000
00000100
00000011
00000000
,
00000001
00000010
00000100
00001000
,
00010000
00100000
11000000
00000000
,
10000000
00100000
01000000
00010000
,
00001000
00000010
00000101
00000000
,
00000001
00000100
00000010
00000010
,
00000010
00000010
00000000
00000000
,
00010000
00000000
00001000
00000000
,
00011000
00000000
00000010
00000000
,
00001000
00000000
00000100
00000000
,
00010000
00000000
01000000
00000000
,
10000000
00000000
01000000
00000000
,
00100000
00000000
10000000
00000000
,
01000000
00000000
00010000
00000000
,
00001000
00000000
00010000
00000000
,
00000010
00000000
00000100
00000000
,
00000110
00000000
00001000
00000000
,
00000100
00000000
00000001
00000000
,
00001000
00000000
00000100
00000000
,
00000010
00000000
00010000
00000000
,
00100000
00000000
00010000
00000000
,
01000000
00000000
10000000
00000000
,
00020000
00000000
00030000
00000000
,
10000000
00000000
01000000
00000000
,
00010000
00000000
00001000
00001000
,
00001000
00000000
00000100
00000000
,
00000001
00000000
00001000
00001000
,
00001000
00000000
00000010
00000000
,
00001000
00000000
00010000
00010000
,
00010000
00000000
01000000
00000000
,
00100000
00000000
10000000
10000000
,
00100000
00100000
00010000
00010000
,
00001000
00001000
00000010
00000010
,
00000100
00000100
00000001
00000001
,
00000010
00000010
00001000
00001000
,
00010000
01000000
00000000
10000000
,
00000000
00010000
00000000
10000000
,
00000000
00100000
00000000
01000000
,
00000000
00010000
00000000
00100000
,
00000000
00001000
00000000
00010000
,
00000000
00001000
00000000
00000010
,
00000000
00000100
00000000
00000001
,
00000000
00000010
00000000
00000100
,
00000000
00001000
00000000
00000100
,
00000000
00000010
00000100
00000001
,
00000000
00001000
00000000
00000100
,
00000000
00010000
00000000
00000000
,
00000001
00000100
00001000
00010000
,
01000000
10000000
10010000
00000000
,
10000000
01000000
00010000
00001000
,
00000100
00000001
00001001
00000000
,
00000001
00000010
00001000
00010000
,
00100000
10000000
10010000
00000000
,
10000000
00100000
00010000
00000010
,
00000010
00000010
00000010
00000000
,
00000000
00000100
00000000
00000001
,
00000000
00001000
00000100
00000010
,
00000000
00001000
00000000
00010000
,
00000000
01000000
00000000
00100000
,
00000000
10000000
00000000
01000000
,
00000000
00100000
00000000
00010000
,
00000000
00001000
00000000
00010000
,
00000000
00000100
00000000
00000010
;

//---------------dance-double - Telperion----------------
#NOTES:
     dance-double:
     Telperion:
     Medium:
     5:
     0.308,0.312,0.123,0.203,0.000:
00000000
00000000
00000000
00000000
,
00000000
00000000
00000000
00000000
,
10000000
00010000
00010000
01000000
,
01000000
00100000
00010000
00001000
,
00000100
00000010
00000100
00000000
00000001
00000010
00000100
00000000
,
00000010
00000001
00000100
00000010
00010000
00000000
00000000
00000000
,
00000010
00000100
00000001
00000100
00000010
00001000
00000100
00010000
,
00000010
00001000
00000001
00000000
00000010
00001000
00010000
00000000
,
00001000
00010000
00001000
00000000
01000000
00010000
01000000
00000000
,
00001000
00010000
00001000
00100000
01000000
10000000
00010000
00100000
,
02000000
13000000
20000000
30010000
,
00020000
00230000
00302000
00023000
,
00030020
00000000
00000000
00000000
,
00000130
00000000
00000000
00000000
00000001
00000010
00000100
00010000
,
00002000
00010000
00010000
00003000
,
00010000
00000000
00001000
00000000
01000000
00100000
01000000
00010000
,
00200000
10000000
00010000
01300000
,
00020000
00000000
01030000
00000000
00100000
10000000
00010000
01000000
,
00001000
00010000
00000100
00000000
00001000
00000001
00000100
00000000
,
00000010
00010000
00001000
00000000
00100000
00010000
01000000
00100000
,
20000000
00000000
00000000
00000000
,
31000000
00000000
00000000
00000000
01000000
10000000
01000000
00100000
,
00010000
01000000
00100000
00010000
,
00001000
00000000
00000100
00000000
00000001
00000100
00000001
00000010
,
00000001
00000010
00000100
00010000
,
00001000
00000100
00001000
00000100
00000010
00001000
00000010
00001000
,
00000100
00000011
00000001
00001010
,
00001000
00000000
00000110
00000000
00000010
00000010
00010000
00010000
,
00002000
00000000
00203000
00000000
,
02300000
00000000
03010000
00010000
,
00002000
00000000
00003200
00000000
,
00000320
00000000
00010030
00001000
,
00010000
00000000
01000000
00000000
10000000
00000000
00100000
01000000
,
00100000
01000000
00010000
00000000
00100000
01000000
00100000
01000000
,
10000000
00001000
00010000
00000010
,
00000002
00000000
00000000
00000000
,
00001003
00000000
00001000
00000000
00000010
00000000
00000010
00000100
,
00000100
00000100
00001000
00002000
,
00013000
00020000
00130000
00200000
,
10300000
01000000
00100000
10010000
,
01100000
11000000
00010000
01100000
,
10000000
00110000
00101000
00110000
,
01000000
00011000
00100000
00001010
,
00010000
00000110
00000101
00000011
,
00001000
00000101
00010000
00001100
,
01000000
00000000
00110000
00000000
10000000
01000000
00100000
00001000
,
00010000
00100000
01000000
00000000
00010000
00100000
01000000
00000000
,
00010000
00001000
01000000
00001000
00010000
00000100
00001000
00000010
,
00020000
00000000
00000000
00000000
,
00030000
00000000
00001000
01000000
,
20000000
00000000
00000000
00000000
,
30000000
00000000
00000000
00000000
01000000
00000000
00010000
10000000
,
01000000
00100000
01000000
10000000
00100000
01000000
00001000
01000000
,
00100000
10000000
01000000
00100000
00001000
00000000
00000000
00000000
,
00010000
00001000
00010000
00000100
00001000
00000010
00000100
00001000
,
00010000
00000100
00000010
00000001
00002000
00000000
00003001
00000000
,
00001001
00000000
00000001
00000010
00000100
00010000
00001000
01000000
,
00000000
00100000
10000000
01000000
00010000
00000000
00001000
00000000
,
00000100
00000001
00000010
00001000
,
00010000
00001000
00000100
00000002
,
00000020
00000000
00000000
00000000
,
00000033
00000000
00000000
00000010
00001001
00000000
00000000
00000000
,
00000020
00000031
00000002
00001003
,
00000200
00010300
00020000
00030010
,
00002000
00003100
00000200
01000300
,
00020000
00000000
01030000
00000000
01000000
00100000
01000000
00100000
,
10000000
01000000
00100000
00010000
,
00001000
00000100
00000010
00000001
;

//---------------dance-double - Telperion----------------
#NOTES:
     dance-double:
     Telperion:
     Hard:
     7:
     0.384,0.371,0.000,0.357,0.097:
00000000
00000000
00000000
00000000
,
00000000
00000000
00000000
00000000
,
10000000
00010000
10000000
00000000
00010000
10000000
00010000
00000000
,
10000000
01000000
00100000
00001000
00010000
00001000
00100000
00010000
,
01000000
00000000
00100000
00010000
00001000
00000100
00000020
00000000
,
00001030
00000100
00000010
00000001
00000020
00000000
00000030
00000000
,
00000010
00000100
00001000
00000010
00010000
00001000
00001000
00010000
,
00010000
00000000
00000100
00000000
00000010
00000000
00001000
00000000
00010000
00000000
01000000
00000000
00100000
00000000
00000000
00010000
,
00000000
01000000
00010000
00000000
10000000
00000000
00010000
00000000
00010000
00000000
00010000
00000000
00100000
00000000
00001000
00000000
,
00000000
00010000
00100000
00000000
10000000
00000000
01000000
00000000
10000000
00000000
01000000
00000000
00100000
00000000
01000000
00000000
,
00100000
00100000
00001000
00001000
00010000
00001000
00001000
00010000
,
00001000
00010000
00000100
00001000
00000010
00000100
00000001
00000010
,
00000002
00000000
00000000
00000000
,
00001003
00000000
00000000
00000000
00000200
00000000
00000000
00000301
,
00000020
00000000
00000000
00010030
00000010
00001000
00001000
00000000
,
00000100
00001000
00001000
00000000
00000010
00010000
00010000
00001000
,
00001000
00000000
00000000
00010000
00000000
00000000
00001000
00000000
00010000
00000000
00001000
00000000
00001000
00000000
00000000
00000000
,
01000000
00000000
00001000
00000000
00001000
00000000
00000000
00000000
00100000
00000000
01000000
00000000
00000000
10000000
00000000
01000000
,
10000000
00010000
10000000
00000000
00010000
10000000
00010000
00000000
,
01000000
00100000
00010000
00100000
10000000
00010000
00010000
00100000
,
00200000
00000000
00000000
00000000
,
00300100
00000000
00000000
00000000
00002000
00000000
00000000
00013000
,
00000000
00020000
00000000
00000000
00030100
00000000
00000000
00000000
,
00000100
00000010
00000010
00000000
00000001
00000100
00000100
00000010
,
00000000
00000000
00000010
00001000
00000000
00001000
00000100
00000000
00000010
00000000
00000000
00000000
00000010
00000000
00000000
00000000
,
00000001
00000100
00000100
00000001
00000100
00001000
00000100
00001000
,
00000100
00000000
00000001
00000100
00000000
00000000
00000000
00000000
00000010
00000000
00000100
00000010
00000000
00000000
00000000
00000000
,
00001000
00000000
00000010
00001000
00000010
00000000
00000100
00000000
00000001
00000000
00000010
00000000
00001000
00000000
00010000
00000000
,
02000000
00000000
23000000
00000000
,
30020000
00000000
00000000
00130000
00010000
10000000
01000000
00100000
,
00010000
00020000
00000000
00000000
02030000
00000000
00000000
00000000
,
03002000
00000000
00000000
01003000
00100000
10000000
00010000
01000000
,
00200000
00000000
00000000
00000000
00000000
00000000
00000000
00000000
20000000
00000000
00000000
00000000
30300000
00000000
00100000
10000000
,
00100000
10000000
00100000
00000000
00000000
00000000
00000000
00000000
00100000
00000000
01000000
00000000
01000000
00000000
00001000
00000000
,
00002000
00010000
00003200
00000302
,
00000020
00000000
00000030
00000000
00001003
00000100
00000010
00000001
,
00002000
00000000
00000001
00000000
00003200
00000000
00000301
00000100
,
00000020
00000032
00000203
00002300
,
00023000
02030000
23000000
30200000
,
00320000
00032000
00003200
00000320
,
00001030
00000000
00000001
00001000
00000000
00000000
00000000
00000000
00000100
00000000
00000010
00000100
00000000
00000000
00000000
00000000
,
00010000
00000000
00000010
00010000
00000000
00000000
00000000
00000000
00001000
00010000
00001000
00000000
00010000
00000000
00001000
00000000
,
00100000
00000000
00001000
00100000
00000000
00000000
00000000
00000000
00010000
00000000
01000000
00010000
00000000
00000000
00000000
00000000
,
00100000
00000000
01000000
00100000
00000000
00000000
00000000
00000000
00010000
10000000
00010000
00000000
10000000
00000000
00010000
00000000
,
01000000
00000000
00100000
01000000
00000000
00000000
00000000
00000000
00010000
00000000
00100000
00010000
00000000
00000000
00000000
00000000
,
10000000
00000000
00100000
10000000
00000000
00000000
00000000
00000000
00100000
01000000
00100000
00000000
01000000
00000000
00100000
00000000
,
10000000
00000000
00100000
10000000
00000000
00000000
01000000
00000000
00100000
00000000
00010000
00100000
00000000
00000000
00001000
00000000
,
01000000
00000000
00100000
01000000
00000000
00000000
00100000
00000000
00010000
00001000
00010000
00000000
00001000
00000000
00000100
00000000
,
00000020
00001030
00000200
00000301
,
00000020
00000000
00010030
00000000
00001000
00000010
00001000
00010000
,
00002000
00013000
00002000
01003000
,
00200000
00000000
00310000
00000000
00100000
10000000
10000000
00001000
,
00010000
00010000
00000100
00000100
00000010
00000001
00000100
00000010
,
00001000
00000100
00000010
00000010
00002000
00000000
00003000
00000000
,
00000010
00000001
00000100
00000100
00001000
00010000
01000000
10000000
,
00010000
00000000
00100000
00000000
01000000
00000000
10000000
00000000
00100000
00000000
00010000
00000000
00100000
00000000
00000000
01000000
,
00000000
00100000
01000000
00000000
01000000
00000000
00010000
00000000
00010000
00000000
01000000
00000000
01000000
00000000
00001000
00000000
,
00000000
00001000
00010000
00000000
00100000
00000000
10000000
00000000
01000000
00000000
00010000
00000000
00001000
00000000
00010000
00000000
,
01000000
01000000
00100000
00010000
01000000
01000000
00100000
01000000
,
00010000
00100000
00001000
00010000
00000100
00001000
00000010
00000100
,
00000001
00000010
00000001
00000010
00000001
00000010
00000001
00000010
,
00000002
00000000
00000000
00010003
00020000
00000000
00032000
00000000
,
00003200
00000310
00000002
00000103
,
00000020
00001030
00000200
00020300
,
00032000
01003000
02000000
03100000
,
00200000
10300000
20000000
30020000
,
00230000
00300000
02000000
03000000
,
00200000
00300000
00020000
20000000
,
30030000
00000000
00000000
00000000
;
