#TITLE:Sketch Switch;
#SUBTITLE:(TV Size);
#ARTIST:Kana Asumi, Kaori Mizuhashi, Ryoko Shintani, Yuko Goto;
#TITLETRANSLIT:;
#SUBTITLETRANSLIT:;
#ARTISTTRANSLIT:;
#CREDIT:;
#BANNER:Sketch Switch TV SIZE.png;
#BACKGROUND:Sketch Switch.png;
#LYRICSPATH:;
#CDTITLE:Z-I-v simfile collab.png;
#MUSIC:Sketch Switch (TV Size).mp3;
#OFFSET:-8.292;
#SAMPLESTART:10.939;
#SAMPLELENGTH:21.470;
#SELECTABLE:YES;
#BPMS:0.000=179.000;
#STOPS:;
#BGCHANGES:-25.876=Sketch Switch (TV Size).avi=1.000=1=1=0,
239.000=Sketch Switch.png=1.000=0=0=1,
99999=-nosongbg-=1.000=0=0=0 // don't automatically add -songbackground-
;

//---------------dance-single - ----------------
#NOTES:
     dance-single:
     :
     Easy:
     4:
     0.294,0.326,0.163,0.109,0.000: // measure 1
0000
0000
0000
0000
,  // measure 2
0000
0000
0000
0000
,  // measure 3
0001
0010
0100
0000
,  // measure 4
0100
0010
0001
0000
,  // measure 5
1000
0100
0010
0000
,  // measure 6
0010
0100
1000
0000
,  // measure 7
0001
0100
1001
0000
,  // measure 8
1000
0100
1001
0000
,  // measure 9
0001
0100
1000
0100
,  // measure 10
0001
0000
1000
0000
,  // measure 11
1000
0010
0100
0000
,  // measure 12
0100
0010
1000
0000
,  // measure 13
0001
0100
0010
0000
,  // measure 14
0010
0100
0001
0000
,  // measure 15
0001
0010
0110
0000
,  // measure 16
1000
0010
0110
0000
,  // measure 17
1000
0010
0001
0010
,  // measure 18
1000
0000
0001
0000
,  // measure 19
2100
0000
3100
0000
,  // measure 20
1200
0000
1300
0000
,  // measure 21
2001
0000
3001
0000
,  // measure 22
1002
0000
1003
0000
,  // measure 23
0201
0000
0301
0000
,  // measure 24
0102
0000
0103
0000
,  // measure 25
1002
0000
0103
0000
,  // measure 26
2001
0000
3100
0000
,  // measure 27
0010
0001
0010
0000
,  // measure 28
0001
1000
0001
0000
,  // measure 29
0100
0010
0100
0000
,  // measure 30
0010
1000
0010
0000
,  // measure 31
1000
0002
1000
0003
,  // measure 32
1000
0002
1000
0003
,  // measure 33
0001
0100
0010
1000
,  // measure 34
0100
0000
0001
0100
,  // measure 35
1000
0000
1000
0100
,  // measure 36
0001
0000
0100
0000
,  // measure 37
1000
0000
0001
0000
,  // measure 38
0100
0100
0001
0010
,  // measure 39
0100
0000
1000
0000
,  // measure 40
0010
0010
0100
0001
,  // measure 41
1000
0000
0100
0000
,  // measure 42
0100
1000
1100
0000
,  // measure 43
0001
0100
0101
0000
,  // measure 44
0010
1000
0100
0000
,  // measure 45
0001
0000
0010
0000
,  // measure 46
1000
1000
0010
0001
,  // measure 47
0010
0000
1000
0000
,  // measure 48
0100
0100
0001
0100
,  // measure 49
1000
0000
0001
0000
,  // measure 50
0100
0001
0100
0010
,  // measure 51
0100
0001
0100
0001
,  // measure 52
1000
0100
0010
0100
,  // measure 53
1000
0000
0001
0000
,  // measure 54
1000
0010
0100
0010
,  // measure 55
1000
0000
0010
0000
,  // measure 56
0100
0001
1000
0000
,  // measure 57
1000
0001
0010
0000
,  // measure 58
0010
0000
0001
0000
,  // measure 59
0100
0000
1000
0000
,  // measure 60
0010
0000
0001
0000
,  // measure 61
1001
0000
0000
0000
;

//---------------dance-single - ----------------
#NOTES:
     dance-single:
     :
     Beginner:
     1:
     0.101,0.163,0.065,0.022,0.000:
0000
0000
0000
0000
,
0000
0000
0000
0000
,
1000
0000
0000
0000
,
1000
0000
0000
0000
,
0001
0000
0000
0000
,
0001
0000
0000
0000
,
1001
0000
0000
0000
,
1001
0000
0000
0000
,
0001
0000
0000
0000
,
1000
0000
0000
0000
,
0100
0000
0000
0000
,
0100
0000
0000
0000
,
0010
0000
0000
0000
,
0010
0000
0000
0000
,
0110
0000
0000
0000
,
0110
0000
0000
0000
,
0100
0000
0000
0000
,
0010
0000
0000
0000
,
0001
0000
0000
0000
,
1000
0000
0000
0000
,
0001
0000
0000
0000
,
1000
0000
0000
0000
,
0100
0000
0000
0000
,
0010
0000
0000
0000
,
0100
0000
0000
0000
,
0001
0000
0000
0000
,
1000
0000
0000
0000
,
0001
0000
0000
0000
,
0010
0000
0000
0000
,
0100
0000
0000
0000
,
0010
0000
0000
0000
,
0100
0000
0000
0000
,
0001
0000
0000
0000
,
2000
0000
0000
0000
,
3000
0000
0000
0000
,
0002
0000
0000
0000
,
0003
0000
0000
0000
,
0010
0000
0000
0000
,
0010
0000
0000
0000
,
0100
0000
0000
0000
,
0100
0000
0000
0000
,
0110
0000
0000
0000
,
1001
0000
0000
0000
,
1000
0000
0000
0000
,
0001
0000
0000
0000
,
0100
0000
0000
0000
,
0010
0000
0000
0000
,
1000
0000
0000
0000
,
1000
0000
0000
0000
,
0001
0000
0000
0000
,
0001
0000
0000
0000
,
0100
0000
0000
0000
,
0100
0000
0000
0000
,
0010
0000
0000
0000
,
0010
0000
0000
0000
,
0001
0000
0000
0000
,
0001
0000
0000
0000
,
0100
0000
0000
0000
,
0100
0000
0000
0000
,
0010
0000
0000
0000
,
0010
0000
0000
0000
;

//---------------dance-single - ----------------
#NOTES:
     dance-single:
     :
     Medium:
     6:
     0.452,0.456,0.490,0.120,0.000:
0000
0000
0000
0000
,
0000
0000
0000
0000
,
1000
1000
0001
0001
,
0100
0110
0100
0101
,
0001
1100
1000
0011
,
0001
1000
0100
0010
,
0001
0100
1000
0100
0001
0000
0000
0000
,
1000
0100
0001
0100
1000
0000
0000
0000
,
0011
0110
0011
1001
,
0100
0000
0010
1000
0000
1001
0000
0000
,
0001
0001
1000
1000
,
0010
0110
0010
1010
,
1000
0011
0001
1100
,
1000
0001
0010
0100
,
1000
0010
0001
0010
1000
0000
0000
0000
,
0001
0010
1000
0010
0001
0000
0000
0000
,
1100
0110
1100
1001
,
0010
0100
0000
0001
0000
1001
0000
0000
,
0010
0010
1000
0001
,
0010
0100
1000
0100
,
0100
0001
0001
0100
,
0010
0001
1000
0100
,
0001
0001
0100
1000
,
0001
1000
0010
1000
,
1000
0001
0001
0100
,
0010
0000
1000
0000
,
0011
0000
0001
0010
0000
0010
1000
0000
,
1010
0010
0001
0100
,
1100
0000
1000
0100
0000
0100
0001
0000
,
0101
0010
1000
0100
,
0011
0000
0001
1000
0000
1000
0001
0000
,
1010
0000
1000
0001
0000
0001
1000
0000
,
0001
1000
0100
0001
,
0010
0000
0100
0000
0100
0010
0200
0000
,
0000
0000
0000
0300
0000
0010
0001
1000
,
0100
0000
0000
0110
0000
0000
0110
0000
,
0000
1001
0000
0000
1000
0000
0100
0000
,
0001
0001
0010
1000
,
0100
0001
0010
0010
,
0001
0100
1000
1000
,
0010
0001
1000
0010
,
1000
0100
0001
0100
1000
0000
0000
0000
,
1000
0010
0001
0010
1000
0000
0000
0000
,
0110
0000
0101
0000
0110
0000
0100
1000
,
0000
0110
0000
0000
1001
0000
1001
0000
,
0001
0010
1000
1000
,
0100
0001
0010
1000
,
0100
0100
1000
0010
,
0001
0001
0100
1000
,
0002
0000
0000
0203
0000
0000
1300
0000
,
0002
0000
0000
0203
0000
0000
0310
0000
,
1000
0000
0001
1000
0000
1100
0000
1100
,
0000
0000
0101
0101
,
0020
0000
0000
2030
0000
0000
3001
0000
,
0200
0000
0000
0302
0000
0000
1003
0000
,
0110
0000
2000
0002
0000
0000
3003
0000
,
0000
1001
0000
0001
0010
1000
0100
0001
,
0000
0101
0100
0110
,
1000
1100
0001
0101
,
1010
0000
1100
0000
0100
1000
0010
0001
;

//---------------dance-double - ----------------
#NOTES:
     dance-double:
     :
     Easy:
     4:
     0.294,0.326,0.163,0.109,0.000:
00000000
00000000
00000000
00000000
,
00000000
00000000
00000000
00000000
,
00001000
00000100
00000010
00000000
,
00000010
00000100
00001000
00000000
,
00000001
00000010
00001000
00000000
,
00010000
00100000
10000000
00000000
,
10000000
00100000
10010000
00000000
,
00001000
00010000
00011000
00000000
,
00001000
00000010
00000100
00000010
,
00000001
00000000
00001000
00000000
,
00000001
00000100
00000010
00000000
,
00000010
00000100
00000001
00000000
,
00000100
00001000
00010000
00000000
,
00010000
01000000
10000000
00000000
,
10000000
00100000
01100000
00000000
,
00010000
00001000
00011000
00000000
,
00001000
00000100
00001000
00000100
,
00000001
00000000
00001000
00000000
,
00000012
00000000
00000013
00000000
,
00001020
00000000
00001030
00000000
,
00012000
00000000
00013000
00000000
,
01020000
00000000
01030000
00000000
,
12000000
00000000
13000000
00000000
,
20010000
00000000
30100000
00000000
,
00210000
00000000
00310000
00000000
,
00021000
00000000
00031000
00000000
,
00000100
00000001
00000100
00000000
,
00000001
00000100
00001000
00000000
,
00010000
00001000
00010000
00000000
,
00010000
01000000
10000000
00000000
,
10000000
00020000
00001000
00030000
,
00000001
00002000
00000001
00003000
,
00001000
00000010
00000100
00000001
,
00000010
00000000
00001000
00010000
,
00001000
00000000
00010000
01000000
,
10000000
00000000
00010000
00000000
,
00001000
00000000
00000001
00000000
,
00000001
00000100
00000001
00000010
,
00001000
00000000
00010000
00000000
,
00001000
00010000
00001000
01000000
,
00010000
00000000
10000000
00000000
,
00010000
00100000
10010000
00000000
,
00001000
00010000
00011000
00000000
,
00001000
00000010
00000001
00000000
,
00001000
00000000
00000001
00000000
,
00000001
00000100
00000001
00000010
,
00001000
00000000
00010000
00000000
,
00001000
00010000
00001000
00100000
,
00010000
00000000
10000000
00000000
,
01000000
00100000
01000000
00010000
,
00001000
00010000
00001000
00000100
,
00001000
00000100
00000010
00000100
,
00000001
00000000
00001000
00000000
,
00000001
00000100
00001000
00000100
,
00000001
00000000
00001000
00000000
,
00010000
10000000
00010000
00000000
,
10000000
01000000
00010000
00000000
,
00001000
00000000
00000100
00000000
,
00001000
00000000
00000100
00000000
,
00000001
00000000
00001000
00000000
,
00011000
00000000
00000000
00000000
;

//---------------dance-double - ----------------
#NOTES:
     dance-double:
     :
     Medium:
     6:
     0.479,0.456,0.522,0.185,0.000:
00000000
00000000
00000000
00000000
,
00000000
00000000
00000000
00000000
,
00000001
00000001
00000100
00000100
,
00001000
00011000
00010000
00010010
,
00001000
00101000
00100000
00110000
,
01000000
10000000
00100000
00010000
,
00001000
00000010
00000001
00000010
00001000
00000000
00000000
00000000
,
00010000
01000000
10000000
01000000
00010000
00000000
00000000
00000000
,
00011000
00001100
00011000
01010000
,
00100000
00000000
00010000
10000000
00000000
10010000
00000000
00000000
,
10000000
10000000
00100000
00100000
,
00010000
00011000
00001000
01001000
,
00010000
00010100
00000100
00001100
,
00000010
00000001
00000100
00001000
,
00010000
01000000
10000000
01000000
00010000
00000000
00000000
00000000
,
00001000
00000010
00000001
00000010
00001000
00000000
00000000
00000000
,
00011000
00110000
00011000
00001010
,
00000100
00001000
00000000
00000001
00000000
00001001
00000000
00000000
,
00000010
00000010
00000001
00000100
,
00002000
00000000
00000000
00023000
00000000
00000000
00032000
00000000
,
00100000
00003000
00100000
00000000
00010000
00000000
00010000
00000000
,
20000000
00000000
00000000
32000000
00000000
00000000
03020000
00000000
,
00001000
00030000
00001000
00000000
00000100
00000000
00000100
00000000
,
00000020
00000000
00000000
00000031
00000000
00000011
00000000
00000110
,
00000000
00000100
00001000
00000000
00001000
00000000
00010000
00000000
,
00010000
00100000
10000000
00010000
,
10100000
00000000
00100000
00010000
00000000
00010000
00001000
00000000
,
00001100
00000100
00000001
00000010
,
00000011
00000000
00000001
00000010
00000000
00000010
00001000
00000000
,
00011000
00010000
01000000
10000000
,
11000000
00000000
10000000
00010000
00000000
00001000
00000001
00000000
,
00000101
00000000
00000001
00001000
00000000
00010000
10000000
00000000
,
00010000
10000000
01000000
00010000
,
00100000
00000000
01000000
00000000
00001000
00010000
00001000
00000000
,
00000100
00000000
00000001
00000000
00001000
00000100
00001000
00000000
,
00000011
00000000
00000000
00001001
00000000
00000000
00001100
00000000
,
00000000
00001001
00000000
00000000
00000001
00000000
00000010
00000000
,
00001000
00000010
00001000
00000000
00010000
00000000
00001000
00000000
,
00000100
00000000
00000001
00000000
00000010
00000100
00000010
00000000
,
00001000
00000000
00010000
00000000
01000000
00000000
10000000
00010000
,
10000000
00100000
00010000
00001000
,
00010000
01000000
10000000
01000000
00010000
00000000
00000000
00000000
,
00001000
00000010
00000001
00000010
00001000
00000000
00000000
00000000
,
00011000
00000000
01010000
00000000
00011000
00000000
01000000
00010000
,
00000000
01100000
00000000
00000000
10010000
00000000
10010000
00000000
,
10000000
00000000
01000000
00000000
00010000
01000000
00010000
00000000
,
00001000
00010000
00100000
10000000
,
01000000
00100000
01000000
00000000
00010000
00000000
00001000
00000000
,
00000010
00000000
00000001
00001000
00000001
00000000
00000100
00000000
,
00002000
00000000
00000000
00023000
00000000
00000000
00031000
00000000
,
02000000
00000000
00000000
03020000
00000000
00000000
10030000
00000000
,
01000000
00000000
00010000
00001000
00000000
00011000
00000000
00011000
,
00000000
00000000
00001100
00000101
,
00000200
00000000
00000000
00000302
00000000
00000000
00000013
00000000
,
00002000
00000000
00000000
00023000
00000000
00000000
01030000
00000000
,
01100000
00000000
20000000
00020000
00000000
00000000
30030000
00000000
,
00000000
10010000
00000000
10000000
00100000
00010000
00001000
00000100
,
00000000
00001100
00000100
00000110
,
00000001
00000011
00001000
00011000
,
01010000
00000000
10010000
00000000
01000000
00010000
00001000
00000100
;

//---------------dance-double - ----------------
#NOTES:
     dance-double:
     :
     Hard:
     8:
     0.629,0.619,0.794,0.120,0.011:
00000000
00000000
00000000
00000000
,
00000000
00000000
00000000
00000000
,
00001000
00000101
00000010
00001100
,
00000100
00001000
00010000
00200000
00000000
10000000
00000000
10300000
,
00000000
01010000
00100000
10100000
,
10000000
11000000
00010000
00011000
,
00001000
00000100
00000001
00000100
00001000
00000000
00011000
00000000
,
00010000
01000000
10000000
01000000
00010000
00000000
00011000
00000000
,
00001100
00000101
00001100
00000110
,
00001000
00010000
01000000
00100000
00000000
10010000
00000000
00000000
,
00010000
10100000
01000000
00110000
,
00100000
00010000
00001000
00000200
00000000
00000001
00000000
00000301
,
00001000
00001010
00000100
00000101
,
00000001
00000011
00001000
00011000
,
00010000
00100000
10000000
00100000
00010000
00000000
00011000
00000000
,
00001000
00000010
00000001
00000010
00001000
00000000
00011000
00000000
,
00110000
10100000
00110000
01100000
,
00010000
00001000
00000000
00000100
00000000
00001001
00000000
00000000
,
00000200
00000000
00000010
00000000
00001300
00000000
00000000
00001001
,
00000002
00000100
00000103
00000000
00001100
00000000
00000000
00001000
,
00020000
00000000
01000000
00000000
10030000
00000000
00000000
10010000
,
00020000
01000000
01030000
00000000
11000000
00000000
00000000
01000000
,
00200000
00000000
01000000
00000000
00310000
00000000
00000000
10010000
,
20000000
00100000
30100000
00000000
00110000
00000000
00000000
00010000
,
00002000
00000000
00000010
00000000
00003001
00000000
00000000
00001001
,
00000001
00000000
00000000
00000100
00000010
00000000
00000000
00000001
00000010
00000000
00000100
00000000
00000010
00000000
00001000
00000000
,
00010000
00000000
00010100
00000100
00000001
00000100
00001100
00000000
,
00000010
00000001
00000100
00001000
00010000
00001000
00000100
00001000
,
00010000
00000000
01010000
01000000
10000000
01000000
01010000
00000000
,
00100000
00010000
01000000
10000000
01000000
00100000
00010000
00001000
,
00010000
01000000
10000000
00100000
01000000
10010000
10010000
00000000
,
10000000
00100000
00010000
00001000
00000010
00001001
00001001
00000000
,
00000010
00000100
00000010
00001000
00000010
00000001
00000100
00001000
,
00010000
00000000
00110000
00000000
00100000
10000000
11000000
00000000
,
01000000
00010000
00011000
00000000
00000010
00000100
00001000
00000001
,
00000100
00000100
00000000
00000010
00000010
00000000
00000001
00000001
,
00000000
00001001
00000000
00000000
00000110
00000000
00001001
00000000
,
00000001
00000010
00001000
00000001
00000100
00001000
00010000
00100000
,
00010000
00001000
00010000
01000000
10000000
01000000
00010000
10000000
,
00100000
00010000
10000000
01000000
00010000
00001000
00000010
00000001
,
00000000
00000000
00000011
00000000
00000101
00000100
00000110
00000000
,
00000001
00000100
00001000
00010000
00100000
00000000
01100000
00000000
,
10000000
01000000
00010000
00001000
00000010
00000000
00000110
00000000
,
00000100
00000010
00001000
00010000
00001000
00100000
00010000
00100000
,
00000000
10010000
00000000
00000000
01100000
00000000
10010000
00000000
,
10000000
01000000
00010000
10000000
00100000
00010000
00001000
00000100
,
00001000
00010000
00001000
00000010
00000001
00000010
00001000
00000001
,
00000100
00001000
00000001
00000010
00001000
00010000
01000000
10000000
,
00000000
00000000
11000000
00000000
10100000
00100000
01100000
00000000
,
10000000
00100000
00000000
00110000
00000000
00010000
00001000
00010000
,
00000100
00001000
00000000
00001100
00000000
00000100
00000001
00000100
,
00001000
00000010
00000100
00000001
00000010
00000010
00001000
00010000
,
00000000
00000000
00011000
00110000
,
00100000
10000000
00000000
10000000
00000000
01000000
00010000
00001000
,
00011000
00000000
00001000
00000100
00000000
00000000
00000110
00000000
,
00001000
00000000
00000002
00000200
00000000
00000000
00000303
00001001
,
00000000
00000110
00000000
00000010
00001000
00010000
01000000
10000000
,
00010000
01010000
10000000
11000000
,
00100000
00110000
00001000
00011000
,
00001100
00000000
00001100
00000000
00001100
00000100
00000001
00000010
;

//---------------dance-single - Zukin-Man----------------
#NOTES:
     dance-single:
     Zukin-Man:
     Hard:
     7:
     0.491,0.489,0.348,0.120,0.011:
0000
0000
0000
0000
,
0000
0000
0000
0000
,
1000
1100
0001
0101
,
0010
0000
0100
1000
0000
1000
0000
0002
,
0000
0000
0000
0023
,
0001
0100
1000
0130
,
0010
0001
1000
0001
0100
0000
0101
0000
,
0010
1000
0001
1000
0100
0000
1100
0000
,
1000
0101
1000
0101
,
1000
0000
0001
0100
0000
0100
0000
0000
,
0010
0101
0010
1100
,
0010
0000
0100
0001
0000
0001
0000
2000
,
0000
0000
0000
3020
,
1000
0100
0001
0130
,
0001
1000
0100
1000
0010
0000
0101
0000
,
1000
0001
0100
0001
0010
0000
1100
0000
,
0001
1100
0001
1100
,
0001
1000
0000
1000
0000
0100
0000
0000
,
1002
0010
1000
0103
,
0001
0000
0000
1000
0000
0000
1000
0000
,
0200
1000
0010
0301
,
0100
0000
0000
1000
0000
0000
1000
0000
,
0020
1000
0100
0031
,
0010
0000
0010
1000
0000
0001
0000
1000
,
0000
0000
0100
0010
0000
0000
0000
0000
,
0100
0000
0000
1000
0001
0000
0000
0001
1000
0000
1000
0000
1000
0000
1000
0000
,
0001
0000
0010
0010
0000
0010
0010
0000
,
0010
0000
0000
0001
0000
0000
1000
0000
,
0010
0000
0100
0100
0000
0100
0100
0000
,
0100
0000
0000
0001
0000
0000
1000
0000
,
0100
1000
0010
0100
0000
0001
0001
0000
,
0100
0001
0010
0100
0000
1000
1000
0000
,
0200
0000
0000
2300
0000
0000
3010
0000
,
0200
0001
0010
1000
,
0010
0000
0001
0000
0310
1000
1000
1000
,
0100
0100
0000
1000
1000
0000
0001
0001
,
0000
1000
0000
0000
1001
0000
0110
0000
,
0001
1000
0100
1000
0000
0001
0001
0000
,
1000
0001
0100
0001
0000
1000
1000
0000
,
0100
1000
0001
0100
0000
0010
0010
0000
,
0100
0001
1000
0100
0000
0010
0010
0000
,
0001
0100
0001
1000
0100
0000
1010
0000
,
1000
0100
1000
0001
0100
0000
0011
0000
,
0010
0001
0100
0001
0010
0100
1000
0010
,
0000
0100
0000
0000
1001
0000
0110
0000
,
1000
0001
0010
0100
0000
1000
1000
0000
,
0001
1000
0010
0100
0000
0001
0001
0000
,
0010
0001
1000
0010
0000
0001
0001
0000
,
0010
1000
0001
0010
0000
1000
1000
0000
,
0010
0011
1000
1100
,
1000
1010
0100
0101
,
0010
0000
1001
0000
1000
1000
0010
0200
,
0000
0000
0010
0301
,
0010
1010
0001
0101
,
0001
0011
0100
1100
,
0010
0000
1000
0001
0000
0001
1000
0010
,
0000
0100
0000
0010
1000
0100
0010
0010
,
0100
0000
0100
1000
0000
1000
0000
1100
,
0000
0101
0000
1000
0000
0001
0100
0000
,
1001
0000
0110
0000
0010
1000
0001
0001
;
