#TITLE:Headache;
#SUBTITLE:;
#ARTIST:good-cool;
#TITLETRANSLIT:;
#SUBTITLETRANSLIT:;
#ARTISTTRANSLIT:;
#GENRE:;
#CREDIT:silenttype01 and Silverhawke;
#MENUCOLOR:;
#METERTYPE:DDR;
#BANNER:Headache.png;
#BACKGROUND:Headache-bg.png;
#LYRICSPATH:;
#CDTITLE:Z-I-v simfile collab.png;
#MUSIC:Headache.mp3;
#OFFSET:-0.578;
#SAMPLESTART:29.096;
#SAMPLELENGTH:13.500;
#SELECTABLE:YES;
#LISTSORT:;
#DISPLAYBPM:143.000;
#BPMS:0.000=143.000,64.000=286.000,70.000=143.000,181.000=286.000,182.000=142.999;
#STOPS:68.000=0.419
,181.000=0.105
,181.500=0.105
;
#BGCHANGES:;
#ATTACKS:;

//---------------dance-double - created by silenttyp----------------
#NOTES:
     dance-double:
     created by silenttyp:
     Easy:
     3:
     0.217,0.298,0.328,0.088,0.000:
00000000
00000000
00000000
00000000
,
00000000
00000000
00000000
00000000
,
00000000
00000000
00000000
00000000
,
00000000
00000000
00000000
00000000
,
00000000
00000000
00000000
00000000
00000000
00000000
00000000
10000000
,
10000000
00000000
00000000
00000000
00000000
00000000
00000000
00010000
,
00010000
00000000
00000000
00000000
00000000
00000000
00000000
00001000
,
00001000
00000000
00000000
00000000
00000000
00000000
00000000
00000001
,
00000001
00000000
00000000
00000000
00000000
00000000
00000000
00001000
,
00001000
00000000
00000001
00000000
,
00000100
00000000
00000010
00000000
,
00000100
00000000
00000001
00000000
,
00000100
00000000
00001000
00000000
,
00011000
00000000
00010000
00000000
,
01000000
00000000
00100000
00000000
,
00010000
00000000
10000000
00000000
,
20020000
00000000
00000000
00000000
,
30030000
00000000
12000000
10000000
,
10000000
13000000
11000000
00000000
,
01010000
00000000
00021000
00001000
,
00001000
00031000
00011000
00000000
,
00001100
00000000
00000102
00000100
,
00000100
00000103
00000011
00000000
,
00001010
00000000
00012000
00010000
,
00010000
00013000
00011000
00000000
,
00110000
00000000
00100000
10000000
,
00000000
10000000
00000000
00010000
,
00000000
00100000
00000000
01000000
,
00000000
00010000
00000000
00001000
,
00000000
00001000
00010000
00000000
,
00000100
00000000
00001000
00000000
,
00000010
00000000
00001001
00000000
,
00001001
00000000
00022000
00000000
,
00033000
00000000
00001000
00000000
,
01000000
00000000
00100000
00000000
,
10000000
00000000
01000000
00000000
,
00010000
00000000
00001000
00001000
,
00010000
00010000
00000100
00000000
,
00000010
00000000
00000001
00000000
,
00000100
00000000
00001000
00000000
,
00010000
00000000
00011000
00011000
,
00011000
00011000
00011000
00000000
,
00000000
00000000
10010000
00000000
,
00000000
00000000
00011000
00000000
,
00000000
00000000
00001001
00000000
,
00000000
00000000
00001001
00000001
,
00000100
00000000
00011000
00010000
,
01000000
00000000
10010000
10000000
,
00100000
00000000
00011000
00001000
,
00000010
00000000
00001001
00000000
;

//---------------dance-double - created by silenttyp----------------
#NOTES:
     dance-double:
     created by silenttyp:
     Medium:
     6:
     0.349,0.379,0.142,0.088,0.044:
00000000
00000000
00000000
00000000
,
00000000
00000000
00000000
00000000
,
00000000
00000000
00000000
00000000
,
00000000
00000000
00000000
00000000
,
00000000
00000000
00000000
00000000
,
11000000
00010000
00001000
00000100
,
00000001
00000000
00000000
00000000
,
00000000
00000000
00000000
00000000
,
00000001
00001000
00000100
00000010
00000001
00000100
00001000
00010000
,
00011000
00001000
01000000
00100000
,
10000000
01000000
00010000
00001000
,
00010000
01000000
00100000
00001000
,
00010000
00000000
00000100
00000000
00010000
00000100
00001000
00000010
,
00010010
00000100
00000001
00000010
,
00000001
00001000
00000010
00001000
,
00010000
00000000
01000000
00000000
00100000
00000000
10000000
00010000
,
20020000
00000000
00000000
00000000
,
30030000
00000000
10000000
01000000
,
00100000
00000000
10000000
01000000
00100000
00000000
00010000
00000000
,
00000010
00000000
00100000
00010000
00000010
00000000
00000100
00000000
,
00001000
00000000
00000001
00000100
00001000
00010000
00001000
00000100
,
00000001
00001000
00001000
00000000
00000001
00000000
00000010
00000000
,
00000100
00000000
00000001
00000010
00000100
00000000
00001000
00000000
,
01000000
00000000
00000100
00001000
01000000
00000000
00100000
00000000
,
00010000
00000000
10000000
00100000
00010000
00001000
00010000
00100000
,
10000000
00010000
01000000
00100000
10000000
00000000
01000000
00000000
,
00100000
00100000
00001000
00010000
01000000
00000000
10000000
00000000
,
00100000
00100000
00010000
00001000
00010000
00000000
00001000
00000000
,
00000100
00000100
00000010
00001000
00000001
00000000
00000010
00000000
,
00001000
00001000
00010000
00001000
00000010
00000000
00000001
00000000
,
00000100
00001000
00010000
10000000
,
01000000
00000000
00100000
10000000
01000000
00000000
00010000
00000000
,
00001000
00000100
00022000
00000000
,
00000000
00033000
00000100
00000001
,
00000100
00001000
00010000
10000000
,
00010000
00001000
00000100
00010000
,
01000000
00100000
10000000
00010000
,
00001000
00000100
00001001
00000100
,
00001000
00010000
01000000
10000000
,
00100000
00001000
01000000
10000000
,
00010000
00001000
00001100
00000101
,
00000011
00001010
00001002
00000100
,
00000010
00001000
00000203
00000001
,
00010000
00000010
00002300
00100000
,
01000000
00010000
02003000
00100000
,
10000000
00000000
00000000
00000000
03010000
00000000
10000000
00000000
10010000
00000000
00000000
10000000
01000000
00000000
00000000
00000000
,
00010000
00000000
00000000
00010000
00001000
00000000
00000000
00000000
00000100
00000000
00000000
00000100
00000001
00000000
00000000
00000000
,
00000001
00000000
00000000
00000001
00000100
00000000
00000000
00000000
00001000
00000000
00000000
00001000
00010000
00000000
00000000
00000000
,
01000000
00000000
00000000
01000000
10000000
00000000
00000000
00000000
00100000
00000000
00000000
00100000
00010000
00000000
00000000
00000000
,
00001000
00000000
00000000
00001000
00010000
00000000
00000000
00000000
00011000
00000000
00000000
00000000
00000000
00000000
00000000
00000000
;

//---------------dance-double - created by silenttyp----------------
#NOTES:
     dance-double:
     created by silenttyp:
     Hard:
     8:
     0.527,0.569,0.274,0.088,0.339:
00000000
00000000
00000000
00000000
,
00000000
00000000
00000000
00000000
,
00000000
00000000
00000000
00000000
,
00000000
00000000
00000000
00000000
,
00000000
00000000
00000000
00000000
,
00000011
00001000
00010000
00100000
,
10000000
00000000
00000000
00000000
,
10000000
00010000
00001000
00000001
,
00000100
00001000
00010000
01000000
10000000
00100000
00010000
00001000
,
00000010
00000000
00000001
00000100
00001000
00001100
00000100
00000000
,
00000010
00010000
00001000
00100000
01000000
00010000
01000000
10000000
,
01000000
00000000
00100000
00001000
00010000
00000010
00000100
00000001
,
00000100
00000000
00001000
00010000
00001000
00000000
00000000
00000000
00100000
00010000
00000000
00000000
00110000
00000000
01000000
00000000
,
10010000
00000000
10000000
00100000
00010000
00110000
00100000
00000000
,
01000000
00001000
00010000
00000100
00000010
00001000
00000010
00000001
,
00000010
00000000
00000100
00010000
00001000
01000000
00100000
10000000
,
20020000
00000000
00000000
00000000
,
30030000
00000000
00000000
00000000
00000000
00000000
00000000
00000000
00010000
00000000
00000000
01000000
00000000
00000000
00100000
00000000
,
00000000
10000000
00000000
00000000
01000000
00000000
00010000
00000000
00001000
00000000
00000000
00000010
00000000
00000000
00000001
00000000
,
00000100
00000000
00001000
00000000
00010000
00000000
00001000
00000000
00000010
00000000
00000000
00000001
00000000
00000000
00000100
00000000
,
00000000
00001000
00000000
00000000
00010000
00000000
01000000
00000000
10000000
00000000
00000000
00100000
00000000
00000000
00010000
00000000
,
00000000
00001000
00000000
00000000
00010000
00000000
00100000
00000000
10100000
00000000
10000000
00010000
00000000
00010000
00100000
00000000
,
00100000
00001000
00000000
00001000
00010000
00000000
00000100
00000000
00000010
00000000
00000010
00000001
00000000
00000001
00000100
00000000
,
00001000
00000000
00010000
00000000
00001000
00000000
00000010
00000000
00000001
00001000
00000000
00001000
00000010
00000000
00000010
00010000
,
00000000
00010000
00001000
00000000
01000000
00000000
00100000
00000000
10000000
01000000
00000000
01000000
00010000
00000000
00010000
00001000
,
00000000
00001000
00000100
00000000
00000010
00000000
00001000
00000000
00001010
00000000
00000001
00000100
00000001
00000000
00000100
00000000
,
00000000
00000000
00001000
00000000
00000000
00000000
00010000
00000000
01000000
00000000
10000000
01000000
10000000
00000000
01000000
00000000
,
00000000
00000000
00010000
00000000
00000000
00000000
00001000
00000000
00000010
00000000
00000001
00000100
00000001
00000000
00001000
00000000
,
00000000
00000000
00010000
00000000
00000000
00000000
10000000
00000000
00010000
00000000
01000000
00010000
01000000
00000000
00100000
00000000
,
00000000
10000000
00000000
00010000
10010000
10000000
01000000
00010000
,
00001000
00000100
00000101
00000000
00000001
00000010
00001000
00010000
,
00100000
10000000
10100000
00000000
00010000
01000000
00100000
00010000
,
00001000
00000100
00000110
00000000
00002002
00000000
00000000
00000000
,
00003003
00000000
00000000
00000000
00000001
00000100
00000001
00000100
00000001
00000000
00000010
00000000
00000010
00000000
00000000
00001000
,
00000000
00000000
00001000
00000000
00000000
00010000
00001000
00000000
00000000
00001000
00000000
00000000
01000000
00000000
00000000
01000000
,
00100000
00000000
00100000
00000000
00000000
00010000
00001000
00010000
00000000
00000000
01000000
00000000
01000000
00000000
00000000
10000000
,
00000000
00000000
10000000
00000000
00000000
00100000
01000000
00000000
00000000
00010000
00000000
00000000
00010000
00000000
00000000
00100000
,
01000000
00000000
01000000
00000000
00000000
00010000
00001000
00010000
00001000
00000000
00001000
00000000
00000100
00000000
00000000
00000100
,
00000000
00000000
00000110
00000000
00000000
00000001
00001000
00000000
00000000
00001000
00000000
00000000
00000100
00000000
00000000
00000100
,
00000010
00000000
00000110
00000000
00000000
00000100
00010000
00001000
00000000
00000000
00001000
00000000
00000100
00000000
00000100
00000001
,
00000000
00000000
00000101
00000000
00000000
00000100
00001000
00000000
00011000
00000000
00000000
00000000
00110000
00000000
00000000
00000000
,
00011000
00000000
00000000
00000000
00110000
00000000
00000000
00000000
20010000
00000000
00000000
00010000
00000000
00000000
00010000
00000000
,
00000000
00000000
01000000
00000000
30000000
00000000
00100000
00000000
00020000
00000000
00000000
00001000
00000000
00000000
00001000
00000000
,
00000000
00000000
00000100
00000000
00030000
00000000
00000010
00000000
00002000
00000000
00000000
00000001
00000000
00000000
00000001
00000000
,
00000000
00000000
00000100
00000000
00003000
00000000
00000010
00000000
00020000
00000000
00000000
00001000
00000000
00000000
00001000
00000000
,
00000000
00000000
00130000
00000000
10100000
00000000
01010000
00000000
00011000
00000000
00001000
00000100
00000001
00000000
00000010
00000000
,
00000001
00000000
00000100
00001000
00010000
00000000
00001000
00000000
00010000
00000000
01000000
10000000
00010000
00000000
00100000
00000000
,
00010000
00000000
01000000
00100000
10000000
00000000
01000000
00000000
00010000
00000000
00001000
00010000
00001000
00000000
00000100
00000000
,
00000010
00000000
00001000
00000001
00000100
00000000
00000010
00000000
00010000
00000000
00001000
00010000
00001000
00000000
01000000
00000000
,
00010000
01000000
10000000
00000000
10000000
01000000
00010000
00000000
10010000
00000000
00000000
00000000
00000000
00000000
00000000
00000000
;

//---------------dance-single - created by silverhaw----------------
#NOTES:
     dance-single:
     created by silverhaw:
     Beginner:
     2:
     0.122,0.135,0.000,0.000,0.000: // measure 1
0000
0000
0000
0000
,  // measure 2
0000
0000
0000
0000
,  // measure 3
0000
0000
0000
0000
,  // measure 4
0000
0000
0000
0000
,  // measure 5
0000
0000
0000
0000
,  // measure 6
0000
1000
0000
0000
,  // measure 7
0000
0001
0000
0000
,  // measure 8
0000
0100
0000
0000
,  // measure 9
0000
0010
0000
0010
,  // measure 10
0010
0000
0010
0000
,  // measure 11
0100
0000
0100
0000
,  // measure 12
0001
0000
0001
0000
,  // measure 13
1000
0000
1000
0000
,  // measure 14
0001
0000
0001
0000
,  // measure 15
0010
0000
0010
0000
,  // measure 16
0100
0000
0100
0000
,  // measure 17
1000
0000
0000
0000
,  // measure 18
0000
0000
0000
0100
,  // measure 19
0000
0100
0000
0001
,  // measure 20
0000
0001
0000
1000
,  // measure 21
0000
1000
1000
0000
,  // measure 22
0000
0000
0000
0100
,  // measure 23
0000
0100
0000
0010
,  // measure 24
0000
0010
0000
0001
,  // measure 25
0000
0001
0000
1000
,  // measure 26
0000
1000
1000
0000
,  // measure 27
0000
0100
0100
0000
,  // measure 28
0000
0010
0010
0000
,  // measure 29
0000
0001
0001
0000
,  // measure 30
0000
0100
0100
0000
,  // measure 31
0000
0010
0010
0000
,  // measure 32
0000
1000
1000
0000
,  // measure 33
0000
0001
0001
0000
,  // measure 34
0000
0000
0000
0100
,  // measure 35
0000
0100
0000
0100
,  // measure 36
0000
0100
0000
0001
,  // measure 37
0000
0001
0000
0001
,  // measure 38
0000
0001
0000
1000
,  // measure 39
0000
1000
0000
1000
,  // measure 40
0000
1000
0000
0100
,  // measure 41
0000
0100
0000
0100
,  // measure 42
0000
0100
0100
0000
,  // measure 43
0000
0000
1000
0000
,  // measure 44
0000
0000
0001
0000
,  // measure 45
0000
0000
0100
0000
,  // measure 46
0000
0000
0000
0010
,  // measure 47
0000
0010
0000
0100
,  // measure 48
0000
0100
0000
0001
,  // measure 49
0000
0001
0000
1000
,  // measure 50
0000
1000
0000
0000
;

//---------------dance-single - created by Silverhaw----------------
#NOTES:
     dance-single:
     created by Silverhaw:
     Easy:
     3:
     0.225,0.244,0.011,0.022,0.000: // measure 1
0000
0000
0000
0000
,  // measure 2
0000
0000
0000
0000
,  // measure 3
0000
0000
0000
0000
,  // measure 4
0000
0000
0000
0000
,  // measure 5
0000
0000
0000
0000
,  // measure 6
1000
0100
0001
0010
,  // measure 7
1000
0000
0000
0000
,  // measure 8
0001
0100
1000
0010
,  // measure 9
0001
0000
1000
0000
,  // measure 10
0001
0100
0100
0000
,  // measure 11
0010
1000
1000
0000
,  // measure 12
0100
0001
0100
0000
,  // measure 13
1000
0010
1000
0000
,  // measure 14
0001
0100
0001
0000
,  // measure 15
0010
1000
0010
0000
,  // measure 16
0001
0000
0100
0000
,  // measure 17
0020
0000
0000
0000
,  // measure 18
0030
0000
0100
0100
,  // measure 19
0100
0100
0100
0100
,  // measure 20
0100
0000
0010
0010
,  // measure 21
0010
0010
0010
0010
,  // measure 22
0010
0000
1000
1000
,  // measure 23
1000
1000
1000
1000
,  // measure 24
1000
0000
0001
0001
,  // measure 25
0001
0001
0001
0001
,  // measure 26
0001
0000
0010
0000
,  // measure 27
0010
0100
1000
0000
,  // measure 28
1000
0001
0100
0000
,  // measure 29
0100
1000
0100
0000
,  // measure 30
0100
0001
0010
0000
,  // measure 31
0010
1000
0010
0000
,  // measure 32
0010
0001
1000
0000
,  // measure 33
1000
0100
0001
0000
,  // measure 34
0000
0110
1000
0001
,  // measure 35
0000
0100
0001
1000
,  // measure 36
0100
0100
1000
0001
,  // measure 37
0000
0100
0010
1000
,  // measure 38
0100
0100
0001
0100
,  // measure 39
0000
1000
0001
0100
,  // measure 40
0010
0010
0001
0010
,  // measure 41
0000
0100
1000
0100
,  // measure 42
0001
0001
0010
0100
,  // measure 43
1000
0100
0001
0100
,  // measure 44
1000
0001
0100
0010
,  // measure 45
1000
0001
0020
0100
,  // measure 46
0030
0000
0000
1000
,  // measure 47
0100
1000
0100
0001
,  // measure 48
0100
0001
0100
1000
,  // measure 49
0010
1000
0001
0010
,  // measure 50
0001
0010
0100
0000
;

//---------------dance-single - created by Silverhaw----------------
#NOTES:
     dance-single:
     created by Silverhaw:
     Medium:
     6:
     0.360,0.379,0.055,0.022,0.000: // measure 1
0000
0000
0000
0000
,  // measure 2
0000
0000
0000
0000
,  // measure 3
0000
0000
0000
0000
,  // measure 4
0000
0000
0000
0000
,  // measure 5
0000
0000
0000
0000
,  // measure 6
1000
0100
0001
0010
,  // measure 7
1000
0100
0010
0001
,  // measure 8
0100
0001
0010
1000
,  // measure 9
0100
0001
1001
1001
,  // measure 10
0010
0000
1000
0000
0001
0100
1000
0000
,  // measure 11
0100
0001
0010
0000
0100
0000
0110
0000
,  // measure 12
0010
0000
0001
0000
1000
0100
0001
0000
,  // measure 13
0100
1000
0001
0000
0100
0000
0110
0000
,  // measure 14
0010
1000
0100
0000
0001
0100
1000
0000
,  // measure 15
0001
0100
1000
0000
0100
0000
0001
0000
,  // measure 16
0010
0001
0100
0000
1000
0000
0100
0000
,  // measure 17
0002
0000
0000
0000
,  // measure 18
0003
0000
0010
1000
,  // measure 19
0010
1000
0010
0001
,  // measure 20
0010
0001
1000
0000
0001
0000
0100
0000
,  // measure 21
0001
0000
0100
0000
1000
0100
0001
0100
,  // measure 22
1000
0000
0100
0010
1000
0000
0100
0000
,  // measure 23
1000
0100
0001
0100
,  // measure 24
0001
0100
1000
0000
0010
0000
0100
0000
,  // measure 25
1000
0000
0100
0000
0010
1000
0100
0000
,  // measure 26
0010
0001
0100
0001
0010
0000
0100
1000
,  // measure 27
0000
1000
0100
0000
0010
0000
0001
0100
,  // measure 28
0000
0100
0010
0000
1000
0000
0100
0001
,  // measure 29
0000
0001
0100
0000
1000
0000
0010
0001
,  // measure 30
0000
0001
0010
0000
0100
0000
0001
1000
,  // measure 31
0000
1000
0100
0100
0010
0000
0100
1000
,  // measure 32
0000
1000
0010
0010
0100
0000
0001
0010
,  // measure 33
0000
0010
0001
0001
0200
0000
0000
0000
,  // measure 34
0300
0000
0010
0010
0010
0000
0100
0000
,  // measure 35
0010
0100
0001
0000
0000
0100
0000
0010
,  // measure 36
0000
0100
0010
0000
1000
0000
0100
0000
,  // measure 37
0010
0100
1000
0000
0000
0001
0000
0100
,  // measure 38
0001
0000
1000
0100
0000
0010
0100
0000
,  // measure 39
1000
0100
0010
0000
0000
0001
0000
0100
,  // measure 40
0000
0010
0100
0000
0001
0000
1000
0000
,  // measure 41
0100
0001
0100
0000
1000
0010
1000
0000
,  // measure 42
0001
0100
0001
0000
1000
0000
1000
0100
,  // measure 43
0000
0001
0100
1000
0010
0000
0001
0010
,  // measure 44
0000
0100
1000
0100
0001
0000
0010
0100
,  // measure 45
0000
0001
0100
1000
0010
0000
0100
1000
,  // measure 46
0000
0100
0001
1000
0100
0010
0100
0010
,  // measure 47
0100
1000
0100
0000
0010
0001
0010
0001
,  // measure 48
0100
0001
0010
0000
0100
0001
0100
0000
,  // measure 49
0100
1000
0100
0000
0010
0000
0001
0100
,  // measure 50
1000
0010
1001
0000
;

//---------------dance-single - created by Silverhaw----------------
#NOTES:
     dance-single:
     created by Silverhaw:
     Hard:
     8:
     0.530,0.569,0.252,0.044,0.279: // measure 1
0000
0000
0000
0000
,  // measure 2
0000
0000
0000
0000
,  // measure 3
0000
0000
0000
0000
,  // measure 4
0000
0000
0000
0000
,  // measure 5
0000
0000
0000
0000
,  // measure 6
0010
0000
0100
0000
0000
1000
0000
0000
0010
0000
0100
0000
0000
0001
0000
0000
,  // measure 7
1000
0100
0001
0010
,  // measure 8
1000
0000
0001
0000
0000
0010
0000
0000
0100
0000
1000
0000
0000
0010
0000
0000
,  // measure 9
0100
0001
0100
1000
0100
0000
0010
1000
,  // measure 10
1001
0000
0010
0000
0000
0100
0000
0000
1000
0000
1001
0000
0000
0000
0001
0000
,  // measure 11
0100
1000
0100
0010
1000
0100
0001
0100
,  // measure 12
0010
0000
0001
0000
0000
1000
0000
0000
0010
0000
0100
0000
0010
0000
0000
0000
,  // measure 13
1000
0001
1000
0001
1000
0000
0000
0000
0010
0100
0000
0000
0001
0000
1000
0000
,  // measure 14
0100
0000
0010
0000
0000
0001
0000
0000
0100
0000
0110
0000
0000
0000
0010
0000
,  // measure 15
1000
0010
0001
0010
0100
0001
0010
0100
,  // measure 16
1000
0100
1000
0100
0001
0100
0001
0100
,  // measure 17
0020
0000
0000
0000
,  // measure 18
0000
0030
0000
0000
0000
0000
0000
0000
0000
0000
0000
0000
0000
0000
0000
0000
0000
0000
0000
0000
0000
0000
0000
0000
0000
0000
0000
0000
0000
0000
0000
0000
0001
0000
0000
0000
0000
0000
0000
0000
0000
0000
0000
0000
0100
0000
0000
0000
0000
0000
0000
0000
0000
0000
0000
0000
0010
0000
0000
0000
0000
0000
0000
0000
,  // measure 19
0000
1000
0000
0000
0100
0000
0010
0000
0100
0000
0000
1000
0000
0000
0010
0000
,  // measure 20
0100
0000
0100
0000
0001
0000
0010
0000
0100
0000
0000
1000
0000
0000
0001
0000
,  // measure 21
0000
0100
0000
0000
0010
0000
1000
0000
0001
0000
0000
1000
0000
0000
0010
0000
,  // measure 22
0000
0100
0000
0000
0001
0000
1000
0000
0100
0000
0000
0010
0000
0000
0001
0000
,  // measure 23
0000
0100
0000
0000
0001
0000
1000
0000
0100
0000
0000
0001
0000
0000
0100
0000
,  // measure 24
1000
0000
1000
0000
0010
0000
0100
0000
1000
0000
0000
0100
0000
0000
0001
0000
,  // measure 25
0000
0010
0000
0000
0100
0000
1000
0000
0001
0000
0000
0100
0000
0000
0010
0000
,  // measure 26
0000
1000
0000
0000
0001
0010
0001
0010
0001
0000
0010
0000
0110
0000
0100
0000
,  // measure 27
0000
1000
1010
0010
0001
0010
0110
0100
,  // measure 28
0000
0001
1001
1000
0100
0001
0101
0100
,  // measure 29
0000
1000
1010
0010
0100
1000
1100
0100
,  // measure 30
0000
0000
0010
0000
1001
0000
0000
0000
0010
0000
0100
1000
0001
0000
0000
0000
,  // measure 31
0100
0000
1000
0000
1100
0000
0100
0000
0001
0000
0010
0100
1000
0000
0000
0000
,  // measure 32
0001
0000
0010
0000
1010
0000
1000
0000
0010
0000
0001
0010
0100
0000
0000
0000
,  // measure 33
1000
0010
0110
0100
0002
0000
0000
0000
,  // measure 34
1003
0000
0000
0000
0010
1000
0010
1000
0010
0000
1000
0000
0100
0000
0000
0010
,  // measure 35
0100
0000
1000
0000
0001
0000
0100
0000
1000
0000
0100
0000
0001
0000
0000
0010
,  // measure 36
0100
0000
1000
0000
0100
0000
0001
0000
0100
0000
0010
0000
0001
0000
0000
0100
,  // measure 37
0010
0000
0001
0000
0010
0000
1000
0000
0100
0000
0010
0000
0001
0000
0000
0100
,  // measure 38
0010
0000
1000
0000
0100
0010
0100
0000
0010
0000
0001
0000
0100
0000
0000
0010
,  // measure 39
1000
0000
0010
0000
0100
0000
0100
0000
0001
0000
0010
0000
0100
0000
1000
0100
,  // measure 40
0010
0000
0001
0000
0100
0000
0100
0000
0010
0000
1000
0000
0001
0000
0000
0010
,  // measure 41
0100
0010
0001
0001
0101
1000
0100
0010
,  // measure 42
1100
0000
0001
0000
0100
0000
0010
0000
1000
0000
0000
0100
0000
0000
1100
0000
,  // measure 43
0000
0000
0001
0000
0000
0000
0100
0000
0010
0000
0000
1000
0000
0000
1001
0000
,  // measure 44
0000
0000
0001
0000
0000
0000
0010
0000
0100
0000
0000
1000
0000
0000
1100
0000
,  // measure 45
0000
0000
0100
0000
0000
0000
0010
0000
0001
0000
0000
0100
0000
0000
0110
0000
,  // measure 46
0000
0000
0010
0000
2000
0000
3002
0000
0103
0000
0001
0100
0010
0000
1000
0000
,  // measure 47
0100
0000
0010
0100
1000
0000
0010
0000
0001
0000
0010
0100
0001
0000
0010
0000
,  // measure 48
0100
0000
1000
0010
0100
0000
0001
0000
0100
0000
0001
0010
0100
0000
1000
0000
,  // measure 49
0100
0000
0010
0001
1000
0000
0010
0000
0100
0001
0100
0000
0010
0000
1010
0000
,  // measure 50
1000
0100
1000
0000
0100
0000
0110
0000
1001
0000
0000
0000
0000
0000
0000
0000
;
