#TITLE:Fallen ANGEL;
#SUBTITLE:;
#ARTIST:DJMocha;
#TITLETRANSLIT:;
#SUBTITLETRANSLIT:;
#ARTISTTRANSLIT:;
#CREDIT:Chewphoria and silenttype01;
#BANNER:Fallen ANGEL.png;
#BACKGROUND:Fallen ANGEL-bg.png;
#LYRICSPATH:;
#CDTITLE:Z-I-v simfile collab.png;
#MUSIC:Fallen ANGEL.mp3;
#OFFSET:-2.829;
#SAMPLESTART:69.830;
#SAMPLELENGTH:13.730;
#SELECTABLE:YES;
#BPMS:0.000=141.800;
#STOPS:231.500=0.846
;
#BGCHANGES:-8.839=Fallen ANGEL.avi=1.000=1=1=0,
99999=-nosongbg-=1.000=0=0=0 // don't automatically add -songbackground-
;

//---------------dance-single - ----------------
#NOTES:
     dance-single:
     :
     Beginner:
     1:
     0.131,0.164,0.017,0.108,0.000:
0000
0000
0000
0000
,
0000
0000
0000
0000
,
0000
0000
0000
0000
,
0000
0000
0000
0000
,
0000
0000
0000
0000
,
0000
0000
0000
0000
,
0000
0000
0000
0000
,
2000
0000
0000
3000
,
1000
0000
0001
0000
,
0001
0000
1000
0000
,
0010
0000
0100
0000
,
0100
0000
0100
0000
,
0100
0000
1000
0000
,
0010
0000
0100
0000
,
0002
0000
0000
0003
,
0001
0000
0000
0000
,
0200
0000
0000
0300
,
0100
0000
0000
0000
,
0020
0000
0000
0030
,
0010
0000
0000
0000
,
2000
0000
0000
3000
,
1000
0000
0000
0000
,
0002
0000
0000
0003
,
0001
0000
0000
0000
,
1000
0000
0100
0000
,
2000
0000
0000
0000
,
3001
0000
0100
0000
,
0002
0000
0000
0000
,
1003
0000
0010
0000
,
2000
0000
0000
0000
,
3001
0000
0000
0000
,
0100
0000
0100
0000
,
0100
0100
0000
0000
,
0010
0000
0010
0000
,
1000
0000
0100
0000
,
0001
0000
0010
0000
,
1000
0000
0001
0000
,
0100
0000
0010
0010
,
0010
0000
0000
0000
,
1001
0000
0000
0000
,
1000
0000
0001
0000
,
0010
0000
0100
0000
,
1000
0000
0010
0000
,
0001
0000
0100
0000
,
0010
0000
1000
0000
,
0100
0000
0001
0000
,
0010
0000
0100
0000
,
0020
0000
0000
0030
,
0010
0000
1000
0000
,
0010
0000
1000
0000
,
0001
0000
0100
0000
,
0001
0000
0100
0000
,
1001
0000
0001
0000
,
0010
0000
0001
0000
,
0020
0000
0000
0030
,
0010
0000
0000
0000
,
0020
0000
0000
0030
,
0010
0000
0000
0000
,
1000
0000
0000
0000
,
0001
0000
0000
0000
,
1000
0000
0010
0000
,
0010
0000
0100
0000
,
0001
0000
0001
0000
,
1000
0000
1000
0000
,
0010
0000
0010
0000
,
2000
0000
0000
3000
,
1000
0000
0000
0000
;

//---------------dance-single - ----------------
#NOTES:
     dance-single:
     :
     Easy:
     4:
     0.259,0.307,0.042,0.075,0.000:
0000
0000
0000
0000
,
0000
0000
0000
0000
,
0000
0000
0000
0000
,
0000
0000
0000
0000
,
0000
0000
0000
0000
,
0000
0000
0000
0000
,
0000
0000
0000
0000
,
1000
0000
0001
0000
0000
0100
0100
0000
,
0010
1000
0010
1000
,
0100
1000
0100
1000
,
0100
0001
0100
0001
,
0010
0001
0010
0001
,
0010
0100
0010
0100
,
0001
1000
0001
1000
,
0001
0001
0001
0000
0000
0000
0000
0000
,
1100
0000
1000
0000
,
0001
0100
0010
1000
,
0001
0100
0010
1000
,
1000
0100
0010
0001
,
1000
0100
0010
0001
,
2000
0000
0000
0000
,
3002
0000
0000
0000
,
0103
0100
0100
0000
,
0010
0100
0010
0000
,
1001
1000
0000
1000
,
0100
0001
0100
1000
,
1001
0001
0000
0001
,
0010
1000
0010
0001
,
0100
0010
1000
0100
,
0001
0100
1000
0010
,
0002
0000
0000
0000
,
0103
0100
0100
0100
,
1001
0100
0010
1000
,
0010
0100
0001
0100
,
0010
1000
0001
1000
,
0100
0001
0100
1000
,
0001
0100
0010
1000
,
0001
1000
0010
0001
,
0010
1000
0100
0001
,
0200
0000
0000
0000
,
0310
0010
1000
1000
,
0100
0100
0001
0001
,
0100
0100
1000
1000
,
0010
0010
0001
0001
,
0020
0130
0100
0100
,
0200
0310
1000
0100
,
0001
0001
0001
0000
1000
0000
0100
0000
,
0020
0000
0000
0000
,
0031
0000
0001
0000
1000
1000
0000
0001
,
0000
1000
0000
0100
0000
0100
0000
0000
,
0000
0000
0000
0000
0010
0010
0000
1000
,
0000
1000
0000
0001
0000
0100
0001
0000
,
1000
0000
0100
0000
1000
0000
0000
1000
,
0000
0001
0000
1000
0000
0001
0000
0000
,
0110
0000
0010
0000
,
1000
0000
0001
0000
,
1000
0100
0001
0100
,
2000
0000
0000
0000
0000
0000
0000
3000
,
1000
0000
0001
0000
,
0100
0100
0100
0100
,
0010
0000
1000
0000
,
0001
1000
0100
0000
,
0001
0010
0100
1000
,
0001
0001
1000
1000
,
0010
1000
0100
0001
,
0010
1000
0100
0001
,
0020
0000
0000
0000
,
0130
0100
0000
0000
0000
0000
0000
0000
;

//---------------dance-single - ----------------
#NOTES:
     dance-single:
     :
     Medium:
     6:
     0.364,0.474,0.282,0.141,0.000:
0000
0000
0000
0000
,
0000
0000
0000
0000
,
0000
0000
0000
0000
,
0000
0000
0000
0000
,
0000
0000
0000
0000
,
0000
0000
0000
0000
,
0000
0000
0000
0000
,
0100
0100
0100
0100
0000
0010
0010
0000
,
1010
0000
0101
0000
0100
0001
0100
0010
,
0000
0010
0000
1000
0000
1000
0000
0002
,
0000
0000
0000
0000
1003
1000
0010
1000
,
0000
0001
0000
0010
0000
0100
0000
2020
,
0000
0000
3030
0000
1000
0100
0000
1000
,
0000
0001
0000
0100
0000
0010
0000
1010
,
0010
2000
0000
0000
0000
0000
0000
0000
,
3001
0001
0000
1000
0000
0001
1001
0000
,
0001
0100
0001
0000
0100
0000
0100
0000
,
0010
0100
0010
0000
0010
0000
0010
0000
,
1000
0010
1000
0000
1000
0000
1000
0000
,
1000
0100
1000
0000
0100
0000
0100
0000
,
1000
0100
0010
0000
0001
0000
0001
0100
,
0010
1000
0001
1000
,
0020
0200
0000
0000
,
0330
0010
1010
0101
,
0001
0001
0001
0001
0000
0000
1000
0000
,
0001
1000
0000
1000
0000
0000
0000
0000
,
1000
0010
1000
0000
0010
0000
0100
0100
,
0000
0100
0000
0101
0000
1100
0000
1000
,
1000
1000
0100
0010
0000
0100
0000
0001
,
0000
0101
0000
1000
0000
1100
0000
1000
,
2002
0000
0000
3003
,
1000
0010
0001
0010
1000
0010
0001
1000
,
1001
0000
1001
0000
1000
0100
1000
0000
,
0101
0000
1000
0000
0000
1010
0000
0000
,
0100
0000
0101
0000
1000
0100
0001
0200
,
0000
0000
0310
0000
1000
0001
0000
1001
,
0000
0000
1000
0000
0100
1000
0000
1000
,
0000
0000
0101
0000
0010
1000
0100
0010
,
0002
0203
0320
2030
,
3002
0000
1000
1000
1003
0000
1000
0100
,
1100
0000
0101
0000
0100
0010
0100
0000
,
0001
1001
1000
1001
,
0110
0000
0010
0000
0010
0001
0100
0000
,
0020
0000
1030
0000
0001
0100
0000
0100
,
0000
0000
0010
0000
1000
0001
0000
0001
,
0000
0000
1000
0000
0100
0001
0100
1000
,
0100
0000
1000
0001
1000
0000
0001
1000
,
0002
0000
0000
0000
,
0103
0000
0100
0000
0010
0010
0000
1000
,
0000
0100
0000
0001
0000
0200
0000
0000
,
0000
0000
0000
0000
1300
0010
1000
0010
,
0000
0100
0000
0001
0000
0101
0100
0000
,
0010
0000
1000
0000
0001
1000
0000
0100
,
0000
0001
0000
0100
0000
1100
0000
0000
,
0101
0000
0000
1010
0000
0000
0101
0000
,
0000
1001
0000
0000
1000
0000
1000
0000
,
0001
0000
0000
0010
0000
0000
0100
0000
,
1000
0001
1000
0010
,
0100
0000
0100
0000
0010
0010
0000
1000
,
0000
0001
0000
1000
0001
0000
1001
0000
,
1000
0000
0100
0000
0001
0100
0000
1000
,
0000
0010
0000
0100
0001
0000
0101
0000
,
0010
0000
1000
0000
0001
0000
0000
1001
,
0000
1000
0000
0100
0001
0000
0100
0000
,
1000
0001
0100
0010
,
1000
0001
1000
0100
,
1100
0000
0000
0000
,
1000
0001
0000
0000
0000
0000
0000
0000
;

//---------------dance-single - ----------------
#NOTES:
     dance-single:
     :
     Hard:
     8:
     0.503,0.585,0.440,0.133,0.033:
0000
0000
0000
0000
,
0000
0000
0000
0000
,
0000
0000
0000
0000
,
0000
0000
0000
0000
,
0000
0000
0000
0000
,
0000
0000
0000
0000
,
0000
0000
0000
0000
,
1000
0001
0100
0001
0000
0101
1100
0000
,
1000
0100
0010
0000
0001
0010
0100
1000
,
0000
1001
0000
0001
0000
1001
0000
1010
,
0000
0000
0000
0000
1000
0010
0100
0001
,
0000
0101
0000
1000
0000
1100
0000
2002
,
0000
0000
0000
3003
1000
0010
0100
0001
,
0000
0100
0000
0010
0000
1000
0000
0001
,
0001
0002
0000
0000
0000
0000
0000
0000
,
1003
0100
0000
1100
0000
0001
0100
0000
,
0001
0000
0100
0000
0010
0000
1000
0000
0001
1000
0001
0000
1001
0000
0000
0000
,
1000
0000
0100
0000
0010
0000
0001
0010
0001
0000
0010
0000
0011
0000
0000
0000
,
0001
0000
0010
0000
0100
0000
1000
0100
1000
0000
0001
0000
1001
0000
0000
0000
,
1000
0010
0100
0001
0100
0010
1000
0001
,
1000
1000
1000
2000
0000
0000
3001
0001
,
0001
0002
0000
0000
0103
0010
0000
1010
,
0000
0100
0202
0000
0000
0000
0000
0000
,
0303
1000
0000
1000
0000
0001
1001
0000
,
1000
0100
0010
0001
0000
0011
1000
0100
,
0010
0001
0000
0200
0000
0000
0320
0000
,
1030
0001
0010
0100
0000
1000
0100
0100
,
0000
1100
0000
0101
0000
0100
0100
0100
,
0010
1000
0000
0001
0000
0010
0000
0100
,
0000
1100
0000
0101
0000
1010
0000
0012
,
0000
1000
2000
0000
0000
0000
0000
3003
,
1010
0110
0101
0110
,
1010
0000
1001
0000
1000
0100
0001
0100
,
1000
0010
0100
0001
,
0101
0000
1100
0000
1000
0010
0001
0010
,
1000
0000
1010
0000
0100
0001
0100
1000
,
0010
0000
1001
0000
1000
0100
0010
0001
,
0011
0000
0101
0001
0100
0010
1000
0001
,
1000
1000
0001
0001
0010
0100
0010
0001
,
0011
0000
0100
0100
0010
0010
1000
1000
,
1001
0000
1001
0000
0001
0100
0010
1000
,
0001
1000
0001
1000
0001
0010
0001
0010
,
0011
0000
0101
0000
0001
0100
0010
1000
,
0001
1000
0001
1000
0010
1000
0010
1000
,
0100
1000
0001
1000
0010
0100
0001
0010
,
0100
1000
0001
0001
1000
1000
0010
0100
,
0001
0100
0010
1000
0001
0010
0100
1000
,
0002
0000
0000
0000
,
1003
0000
0010
0000
1000
0000
0000
0010
1000
0000
0010
0000
0100
0000
0001
0000
,
0100
0000
0010
0000
1000
0000
0000
0001
1000
0000
0100
0000
0010
0000
0001
0000
,
0010
0100
1000
0000
0101
0010
1000
0001
,
0100
0100
0010
0010
0100
0001
0010
0100
,
1000
0000
0001
0000
1000
0001
0000
0000
1000
0000
0010
0000
0100
0001
0000
0000
,
0100
0000
0010
0000
1000
0000
0010
0000
0001
0000
0000
0010
0100
0000
1000
0000
,
0101
0100
0100
1010
0010
0010
0101
0100
,
0100
1010
0001
1000
0100
0010
0001
0010
,
0100
0001
0100
0010
1000
0001
0010
0100
,
1001
0000
1000
0010
0100
0001
0100
0020
,
1000
0000
0001
0000
1000
1000
0000
1100
,
0000
0101
0000
0010
0010
0000
1010
0000
,
0100
0000
0001
0000
1001
1000
0000
1100
,
0000
1000
0100
0010
0001
0010
0200
0000
,
1300
0000
0101
0000
0100
0100
0000
0010
,
0000
1000
0001
0010
0100
1000
1001
0000
,
1000
0010
0100
0001
0100
0010
1000
0001
,
1000
0100
0010
0001
0000
1000
1000
0000
,
2002
0000
0000
0000
0000
0000
0000
3003
,
0010
0010
0000
0000
0000
0000
0000
0000
;

//---------------dance-double - ----------------
#NOTES:
     dance-double:
     :
     Beginner:
     1:
     0.101,0.162,0.000,0.017,0.000:
00000000
00000000
00000000
00000000
,
00000000
00000000
00000000
00000000
,
00000000
00000000
00000000
00000000
,
00000000
00000000
00000000
00000000
,
00000000
00000000
00000000
00000000
,
00000000
00000000
00000000
00000000
,
00000000
00000000
00000000
00000000
,
00000000
00000000
00000000
00000000
,
10000000
00000000
00000000
00000000
,
00010000
00000000
00000000
00000000
,
10000000
00000000
00000000
00000000
,
00010000
00000000
00000000
00000000
,
00100000
00000000
00000000
00000000
,
01000000
00000000
00000000
00000000
,
00100000
00000000
00000000
00000000
,
01000000
00000000
00000000
00000000
,
00010000
00000000
00000000
00000000
,
00001000
00000000
00000000
00000000
,
00010000
00000000
00000000
00000000
,
00001000
00000000
00000000
00000000
,
00000100
00000000
00000000
00000000
,
00000010
00000000
00000000
00000000
,
00000100
00000000
00000000
00000000
,
00000010
00000000
00000000
00000000
,
00001000
00001000
00001000
00000000
,
00000001
00000000
00000001
00000000
,
00000010
00000010
00000010
00000000
,
00000100
00000000
00000100
00000000
,
00010000
00010000
00010000
00000000
,
00001000
00000000
00001000
00000000
,
01000000
01000000
01000000
00000000
,
00010000
00000000
00000000
00000000
,
00010000
00000000
00010000
00000000
,
10000000
00000000
10000000
00000000
,
00100000
00000000
00100000
00000000
,
01000000
00000000
01000000
00000000
,
00001000
00000000
00001000
00000000
,
00010000
00000000
00010000
00000000
,
00002000
00000000
00000000
00003000
,
00000000
00000000
00000000
00000000
,
00000001
00000000
00000001
00000000
,
00001000
00000000
00001000
00000000
,
00000010
00000000
00000010
00000000
,
00000100
00000000
00000100
00000000
,
00001000
00000000
00001000
00000000
,
00010000
00000000
00010000
00000000
,
00002000
00000000
00000000
00003000
,
00000000
00000000
00000000
00000000
,
10000000
00000000
00000000
00000000
,
00010000
00000000
00000000
00000000
,
01000000
00000000
00000000
00000000
,
00100000
00000000
10000000
10000000
,
10000000
00000000
00000000
00000000
,
00001000
00000000
00000000
00000000
,
00010000
00000000
00000000
00000000
,
00001000
00000000
00000000
00000000
,
00010000
00000000
00001000
00001000
,
00001000
00000000
00000000
00000000
,
00000001
00000000
00000000
00000000
,
00001000
00000000
00000000
00000000
,
00000001
00000000
00000000
00000000
,
00001000
00000000
00000000
00000000
,
00010000
00000000
00000000
00000000
,
10000000
00000000
00000000
00000000
,
00010000
00000000
00000000
00000000
,
10000000
00000000
00000000
00000000
;

//---------------dance-double - ----------------
#NOTES:
     dance-double:
     :
     Easy:
     3:
     0.214,0.272,0.033,0.017,0.000:
00000000
00000000
00000000
00000000
,
00000000
00000000
00000000
00000000
,
00000000
00000000
00000000
00000000
,
00000000
00000000
00000000
00000000
,
00000000
00000000
00000000
00000000
,
00000000
00000000
00000000
00000000
,
00000000
00000000
00000000
00000000
,
00000000
00000000
00000000
00000000
,
10000000
10000000
10000000
00000000
,
01000000
00000000
01000000
00000000
,
01000000
01000000
01000000
00000000
,
00100000
00000000
00100000
00000000
,
00100000
00100000
00100000
00000000
,
00001000
00000000
00001000
00000000
,
00001000
00001000
00001000
00000000
,
00010000
00000000
00010000
00000000
,
00000100
00000100
00000100
00000000
,
00001000
00001000
00001000
00000000
,
00000001
00000001
00000001
00000000
,
00000010
00000010
00000010
00000000
,
00000100
00000100
00000100
00000000
,
00010000
00010000
00010000
00000000
,
00001000
00001000
00001000
00000000
,
01000000
01000000
01000000
00000000
,
00010000
00100000
01000000
00000000
,
10000000
00100000
01000000
01000000
,
00010000
00100000
00001000
00000000
,
00010000
00000100
00000010
00000010
,
00000001
00000100
00000010
00000000
,
00000100
00000001
00001000
00000100
,
00010000
00001000
00100000
01000000
,
10000000
00000000
00000000
00000000
,
00010000
01000000
00010000
01000000
,
00100000
10000000
01000000
00100000
,
00001000
00010000
00001000
00010000
,
00000100
00001000
00000010
00000100
,
00000001
00000010
00000001
00000010
,
00000100
00010000
00001000
01000000
,
00100000
00200000
00000000
00000000
,
00300000
00000000
00000000
00000000
,
00001000
00000010
00001000
00000010
,
00000100
00000001
00000010
00000100
,
00010000
00001000
00010000
00001000
,
00100000
00010000
01000000
00100000
,
10000000
01000000
10000000
01000000
,
00100000
00001000
00010000
00000100
,
00000010
00000020
00000000
00000000
,
00000030
00000000
00000000
00000000
,
00000001
00000100
00001000
00000000
,
00001000
00000100
00000001
00000000
,
00000100
00001000
00010000
00000000
,
00011000
00011000
00011000
00000000
,
00001000
00010000
01000000
00000000
,
00010000
01000000
10000000
00000000
,
00100000
00000000
01000000
00010000
,
00000000
00100000
00001000
00010000
,
00000010
00000000
00000100
00000001
,
00001001
00000000
00000000
00000000
,
00000001
00000001
00000001
00000000
,
00000100
00000100
00000100
00000000
,
00000010
00000010
00000010
00000000
,
00010000
00010000
00010000
00000000
,
00001000
00001000
00001000
00000000
,
01000000
01000000
01000000
00000000
,
00100000
00100000
00100000
00000000
,
10000000
10000000
10000000
00000000
;

//---------------dance-double - ----------------
#NOTES:
     dance-double:
     :
     Medium:
     5:
     0.305,0.411,0.166,0.042,0.029:
00000000
00000000
00000000
00000000
,
00000000
00000000
00000000
00000000
,
00000000
00000000
00000000
00000000
,
00000000
00000000
00000000
00000000
,
00000000
00000001
00000000
00001000
,
00000000
00000001
00000000
00001000
,
00000000
00000001
00000000
00001000
,
00000000
00000001
00000110
00000000
,
00001000
00000000
00000010
00000000
00000100
00000001
00001000
00000000
,
00000100
00000000
00000010
00000000
00000001
00001000
00000100
00000000
,
00010000
00000000
00001000
00000000
01000000
00010000
00100000
00000000
,
01000000
10000000
00100000
01000000
,
00010000
00000000
00100000
00000000
01000000
10000000
00010000
00000000
,
01000000
00000000
00100000
00000000
10000000
00010000
00100000
00000000
,
00001000
00000000
00010000
00000000
00000100
00001000
00000010
00000000
,
00000100
00000001
00000010
00000100
,
00001000
00000000
00000000
00000000
00000010
00000000
00000000
00000100
00000000
00000000
00000100
00000000
00000001
00000000
00000000
00000000
,
00001000
00000000
00000000
00000000
00000100
00000000
00000000
00010000
00000000
00000000
00010000
00000000
00001000
00000000
00000000
00000000
,
00100000
00000000
00000000
00000000
00010000
00000000
00000000
10000000
00000000
00000000
10000000
00000000
00100000
00000000
00000000
00000000
,
01000000
00000000
00000000
00000000
10000000
00000000
00000000
01000000
00000000
00000000
01000000
00000000
00010000
00000000
00000000
00000000
,
00100000
00000000
00000000
00000000
00001000
00000000
00000000
00010000
00000000
00000000
00010000
00000000
00000010
00000000
00000000
00000000
,
00001000
00000000
00000000
00000000
00000100
00000000
00000000
00000010
00000000
00000000
00000010
00000000
00000001
00000000
00000000
00000000
,
00000100
00000000
00000000
00000000
00001000
00000000
00000000
00010000
00000000
00000000
00010000
00000000
00000010
00000000
00000000
00000000
,
00010000
01000000
10000000
00100000
,
01000000
00010000
01000000
00010000
00000000
00000000
10000000
00100000
,
00000000
00000000
00100000
01000000
00000000
00000000
00000000
00000000
,
01000000
00001000
01000000
00001000
00000000
00010000
00000100
00010000
,
00000000
00000100
00000000
00000100
00000000
00001000
00000000
00000000
,
00000010
00000100
00000000
00001000
00000000
00000100
00000000
00000001
,
00000000
00001000
00000000
00000001
00000000
00001000
00000000
00010000
,
00000000
10000000
00000000
00000000
00000000
00000000
00000000
00000000
,
00000000
00000000
00000000
00000000
,
10000000
00000000
01000000
00000000
00100000
00000000
00010000
01000000
,
00000000
00100000
01000000
00001000
,
00100000
00000000
01000000
00000000
00010000
00000000
00001000
00010000
,
00000000
00001000
00010000
00000000
00000100
00000000
00000010
00000000
,
00000001
00000000
00000100
00000000
00001000
00000000
00000100
00000010
,
00000000
00000000
00010000
00000000
00001000
00000000
01000000
00100000
,
00000000
00100000
10000000
01000000
,
00010000
00000000
00000000
00000000
,
00001000
00000000
00000100
00000000
00000001
00000000
00001000
00000100
,
00000000
00010000
00001000
00010000
,
01000000
00000000
10000000
00000000
00010000
00000000
00100000
00001000
,
00000000
00000000
00010000
00000000
01000000
00000000
10000000
00010000
,
00000000
00000000
00100000
00000000
00001000
00000000
00010000
00000010
,
00000000
00000000
00000100
00000000
00000001
00000000
00001000
00000010
,
00000000
00000010
00000001
00000100
,
00001000
00000000
00000000
00000000
,
00000000
00000000
00000000
00000000
00000002
00000000
00000000
00000010
,
00000000
00000010
00000000
00000010
00000000
00000013
00000000
00000000
,
00000100
00000000
00001000
00000000
00020000
00000000
00000000
00000010
,
00000000
00000010
00000000
00000010
00000000
00030010
00000000
00000000
,
00011000
00000000
01000000
00000000
00020000
00000000
00000000
00100000
,
00000000
00100000
00000000
00100000
00000000
00130000
00000000
00000000
,
02000000
00000000
00000000
00010000
00000000
00000000
10000000
00000000
,
00000000
00010000
00000000
00000000
10000000
00000000
03010000
00000000
,
00002000
00000000
00000000
00000100
00000000
00000000
00013000
00000000
,
00000100
00000000
00000000
00000000
,
10100000
00000000
10100000
00000000
01000000
00010000
00000000
00110000
,
00000000
00101000
00000000
00011000
00000000
00000000
00000100
00000000
,
00001010
00000000
00001010
00000000
00000100
00000001
00000000
00001001
,
00000000
00001001
00000000
00000000
00000100
00000000
00010000
00000000
,
00011000
00000000
00101000
00000000
00010000
01000000
00000000
10010000
,
00000000
10010000
00000000
00000000
00100000
00000000
10000000
00000000
,
00110000
00000000
00101000
00000000
00010000
00001000
00000000
00011000
,
00000000
00011000
00000000
00000000
00000000
00000000
00000000
00000000
,
00011000
00000000
00000000
00000000
;

//---------------dance-double - ----------------
#NOTES:
     dance-double:
     :
     Hard:
     7:
     0.362,0.493,0.224,0.000,0.062:
00000000
00000000
00000000
00000000
,
00000000
00000000
00000000
00000000
,
00000000
00000000
00000000
00000000
,
00000000
00000000
00000000
00000000
,
00000000
00000000
00000000
00000000
,
00000000
00000000
00000000
00000000
,
00000000
00000000
00000000
00000000
,
00000000
00000000
00000000
00000000
00000000
00010000
00010000
00000000
,
00001000
00000000
00000000
00000000
00000100
00000001
00000100
00000001
,
00000000
00001000
00000000
00000010
00000000
00000100
00000000
00000001
,
00000000
00000000
00000000
00000000
00000010
00000100
00001000
00000001
,
00000000
00000100
00000000
00001000
00000000
01100000
00000000
01100000
,
00000000
00000000
00000000
00000000
10000000
01000000
00100000
00010000
,
00000000
10000000
00000000
00100000
00000000
00010000
00000000
00001000
,
00000100
00000010
00000000
00000000
00000000
00000000
00000000
00000000
,
00001000
00001000
00000000
00000001
00000000
00000010
00000001
00000000
,
00001001
00000000
00000000
00000000
00000000
00000000
00000001
00000000
00000000
00000001
00000000
00000000
00000010
00000000
00000000
00000000
,
00000100
00000000
00000000
00000000
00000000
00000000
00010000
00000000
00000000
00010000
00000000
00000000
00001000
00000000
00000000
00000000
,
01000000
00000000
00000000
00000000
00000000
00000000
00010000
00000000
00000000
00010000
00000000
00000000
00100000
00000000
00000000
00000000
,
01000000
00000000
00000000
00000000
00000000
00000000
10000000
00000000
00000000
10000000
00000000
00000000
00100000
00000000
00000000
00000000
,
01000000
00010000
00100000
10000000
00000000
00000000
10000000
00100000
,
00010000
01000000
00000000
01000000
00010000
00100000
10000000
00100000
,
00010000
00000000
00000000
00000000
00000000
00000000
01000000
00000000
00000000
00010000
00000000
00010000
10000000
00000000
00000000
00000000
,
01000000
00000000
00000000
00000000
00000000
00000000
00100000
00000000
00000000
00001000
00000000
00001000
00010000
00000000
00000000
00000000
,
00000100
00001000
00000010
00000001
00000000
00000000
00001000
00000100
,
00000010
00001000
00000100
00010000
00000000
00000000
00000000
00000000
,
10010000
10000000
01000000
00010000
00000000
00000000
01000000
00100000
,
00000000
00100000
00000000
00001000
00000000
00010000
00000000
00000100
,
00000010
00001000
00000010
00000001
00000000
00000101
00000000
00000110
,
00000000
00001100
00000000
00011000
00000000
01010000
00000000
01100000
,
00000000
11000000
00000000
00000000
00000000
00000000
00000000
00000000
,
00000000
00000000
00000000
00000000
00010000
00000000
00000000
00000000
10000000
00000000
00000000
00000000
00100000
00000000
01000000
00010000
,
10000000
00000000
01100000
00000000
10000000
01000000
00010000
00001000
,
00000000
00000000
00000010
00000000
00000001
00000000
00001000
00000010
,
00000000
00000000
00000100
00000000
00000001
00000010
00001000
00010000
,
00000000
00000000
01000000
00000000
10000000
00010000
00000000
01010000
,
00000000
00000000
10000000
00000000
01000000
00010000
00001000
00000010
,
00000000
00000000
00000001
00000000
00001000
00000001
00000100
00000010
,
00000000
00000010
00001000
00000001
00000100
00001000
00010000
00001000
,
00010000
00000000
00000000
00000000
01000000
00000000
00000000
00000000
10000000
00000000
10000000
00000000
00010000
01000000
00010000
01000000
,
00010000
00000000
00100000
00000000
01000000
10000000
00000000
01000000
,
00000000
00000000
00010000
00000000
00001000
00000000
00010000
00000010
,
00000000
00000000
00001000
00000000
00000001
00000010
00000000
00000001
,
00000000
00000000
00000100
00000000
00001000
00010000
00000000
00011000
,
00000000
00000000
00100000
00000000
01000000
10000000
00000000
10010000
,
00000000
00000000
10000000
00000000
00010000
00000000
01000000
00100000
,
00000000
00100000
10000000
00010000
01000000
00001000
00010000
00001000
,
00010000
00000000
00000010
00000000
00000010
00000000
00001000
00000000
00000100
00000000
00000100
00000000
00000010
00000001
00000010
00000001
,
00000010
00000000
00000001
00000000
00000100
00000010
00000010
00010000
,
00000000
00001000
00000000
01000000
00000000
00010000
10000000
01000000
,
11000000
01000000
00010000
00001000
00000100
00000001
00000010
00000011
,
00000000
00000000
00000001
00000000
00000000
00000000
00000001
00000000
00000000
00000000
00000001
00001000
00000010
00000000
00000000
00000000
,
00000110
00000000
00010000
00000000
00001000
01000000
00010000
00110000
,
00000000
00000000
01000000
00000000
00000000
00000000
10000000
00000000
00000000
00000000
00100000
00000000
00000000
00000000
01000000
00010000
,
10000000
00000000
00000000
11000000
00000000
00000000
00101000
00000000
,
00000000
01001000
00000000
00000000
00011000
00000000
00010100
00000000
,
00001010
00000000
00000000
00000101
00000000
00000000
00001001
00000000
,
00000100
00000000
00000000
00000000
,
00100000
00000000
00100000
00000000
10000000
00010000
00000000
01000000
,
00000000
01000000
00000000
01000000
00001000
00000000
00010000
00000000
,
00000010
00000000
00001000
00000000
00000001
00000010
00000000
00000100
,
00000000
00000100
00000000
00000100
00010000
00000000
00000001
00000000
,
00000010
00000000
00000010
00000000
00001000
00010000
00000000
01000000
,
00000000
01000000
00000000
01000000
10000000
00000000
10000000
00000000
,
00100000
00000000
00001000
00000000
00000010
00001000
00000000
00000001
,
00000000
00000001
00000000
00000001
00000000
00001000
00000010
00000001
,
00000100
00000000
00000000
00000000
;

//---------------dance-single - ----------------
#NOTES:
     dance-single:
     :
     Challenge:
     7:
     0.401,0.466,0.399,0.000,0.000: // measure 1
0000
0000
0000
0000
,  // measure 2
0000
0000
0000
0000
,  // measure 3
0000
0000
0000
0000
,  // measure 4
0000
0000
0000
0000
,  // measure 5
0000
0000
0000
0000
,  // measure 6
0000
0000
0000
0000
,  // measure 7
0000
0000
0000
0000
,  // measure 8
0000
0000
0000
0000
0000
0001
1000
0000
,  // measure 9
1001
0000
1010
0000
1000
0010
0100
0001
,  // measure 10
0000
0010
0000
1000
0000
0100
0000
0001
,  // measure 11
0000
0000
0010
0000
1000
0010
1000
0001
,  // measure 12
0000
1001
0000
0110
0000
1100
0000
0101
,  // measure 13
0000
0000
0000
0000
0001
0100
0010
1000
,  // measure 14
0000
0001
0000
1000
0000
0100
0000
0010
,  // measure 15
0001
0010
0000
0000
0100
0000
1000
0000
,  // measure 16
0010
0100
0000
0110
0000
1001
0110
0000
,  // measure 17
1000
0100
0010
0001
0010
0100
1000
0000
,  // measure 18
1000
0010
0100
0001
0100
0010
1000
0000
,  // measure 19
1000
0100
0001
0100
1000
0100
0001
0000
,  // measure 20
0001
0010
1000
0010
0001
0010
1000
0000
,  // measure 21
1000
0100
0010
0100
1000
0100
1000
0000
,  // measure 22
1000
0100
0001
0100
1000
0010
0001
0000
,  // measure 23
0001
1000
0001
1000
0010
0100
0010
0000
,  // measure 24
1000
0001
0010
0100
1000
0001
0100
0000
,  // measure 25
0101
1000
0100
0010
0000
0000
0001
0010
,  // measure 26
0000
0000
0100
1000
0000
0001
0000
0000
,  // measure 27
1000
0010
0100
0001
0000
0000
0010
1000
,  // measure 28
0000
0100
0000
0100
0000
0100
0000
0000
,  // measure 29
1000
0100
0000
0010
0000
0001
0000
0010
,  // measure 30
0000
0100
0000
1000
0000
0010
0000
0100
,  // measure 31
0000
0010
0100
0000
0110
0000
1001
0000
,  // measure 32
1100
0101
1100
1010
,  // measure 33
1100
0000
1001
0000
1000
0100
0010
0001
,  // measure 34
0000
0000
0011
0000
0000
0011
0000
0000
,  // measure 35
0011
0000
0110
0000
1000
0100
0010
0001
,  // measure 36
0000
0000
0101
0000
0010
0100
0000
0000
,  // measure 37
1010
0000
1001
0000
1000
0100
0010
0001
,  // measure 38
0000
0000
0110
0000
1000
0010
0100
0001
,  // measure 39
0100
1010
0100
0011
,  // measure 40
1001
0000
1000
0001
1000
0010
0100
0010
,  // measure 41
0101
0000
1010
0000
1000
0100
0010
0001
,  // measure 42
0010
0000
0100
0000
0000
0100
0000
0000
,  // measure 43
0100
0000
1000
0000
1000
0010
0100
0001
,  // measure 44
0000
0000
0101
0000
0000
1100
0000
0000
,  // measure 45
1100
0000
1100
0000
1000
0100
0010
0001
,  // measure 46
0000
0000
0010
1000
0100
0001
0010
1000
,  // measure 47
0100
1000
0100
1000
0001
1000
0001
1000
,  // measure 48
0010
0100
0001
0100
0010
1000
0100
0000
,  // measure 49
1001
0000
0100
0000
0010
0100
0010
0000
,  // measure 50
1000
0010
1000
0000
0001
0100
0001
0000
,  // measure 51
1001
0000
1001
0000
1000
0100
0010
0001
,  // measure 52
0010
0100
1000
0010
0100
0001
1000
0000
,  // measure 53
0001
0000
0001
0000
1000
0010
1000
0000
,  // measure 54
0001
0000
1000
0000
0100
1000
0100
0000
,  // measure 55
1001
0000
0000
1001
0000
0000
1010
0000
,  // measure 56
0000
1010
0000
0000
1001
0000
1000
0000
,  // measure 57
1001
0000
0000
0011
0000
0000
1001
0000
,  // measure 58
1010
0000
0000
0000
,  // measure 59
1000
0000
1000
0000
0010
0000
0000
0010
,  // measure 60
0000
0010
0000
0000
0010
0000
0100
0000
,  // measure 61
0001
0000
1000
0000
0010
0000
0000
1000
,  // measure 62
0000
0001
1000
0001
1000
0010
1000
0000
,  // measure 63
1000
0000
0001
0000
1000
0000
0000
1000
,  // measure 64
0000
0010
0000
1000
0100
0000
0010
0000
,  // measure 65
0001
0000
1000
0000
0001
0000
0000
0001
,  // measure 66
0000
0001
0000
1000
0010
0000
0100
0000
,  // measure 67
1001
0000
0000
0000
;
