#TITLE:Caramelldansen;
#SUBTITLE:;
#ARTIST:Caramell;
#TITLETRANSLIT:;
#SUBTITLETRANSLIT:;
#ARTISTTRANSLIT:;
#CREDIT:Oni-91 and silenttype01;
#BANNER:Caramelldansen.png;
#BACKGROUND:Caramelldansen-bg.png;
#LYRICSPATH:;
#CDTITLE:Z-I-v simfile collab.png;
#MUSIC:00. Caramelldansen.mp3;
#OFFSET:-2.340;
#SAMPLESTART:117.138;
#SAMPLELENGTH:14.130;
#SELECTABLE:YES;
#BPMS:0.000=138.000;
#STOPS:;
#BGCHANGES:;

//---------------dance-single - ----------------
#NOTES:
     dance-single:
     :
     Beginner:
     1:
     0.076,0.166,0.048,0.000,0.000:
0000
0000
0000
0000
,
0000
0000
0000
0000
,
0000
0000
0000
0000
,
0000
0000
0000
0000
,
1000
0000
0000
0000
,
0001
0000
0000
0000
,
1000
0000
1000
0000
,
1000
0000
0000
0000
,
1001
0000
0000
0000
,
0000
0000
0000
0000
,
0001
0000
0000
0000
,
0001
0000
0000
0000
,
0001
0000
0000
0000
,
0001
0000
0000
0000
,
0010
0000
0000
0000
,
0010
0000
0000
0000
,
0010
0000
0000
0000
,
0010
0000
0000
0000
,
0001
0000
0000
0000
,
0001
0000
0000
0000
,
1000
0000
0000
0000
,
1000
0000
0000
0000
,
0010
0000
0000
0000
,
0000
0000
0000
0000
,
0100
0000
0000
0000
,
0000
0000
0000
0000
,
0001
0000
0000
0000
,
0001
0000
0001
0000
,
1000
0000
0000
0000
,
1000
0000
1000
0000
,
0010
0000
0000
0000
,
0000
0000
0000
0000
,
0010
0000
0000
0000
,
0110
0000
0000
0000
,
1000
0000
0000
0000
,
0001
0000
0000
0000
,
1000
0000
0000
0000
,
0001
0000
0000
0000
,
0010
0000
0000
0000
,
0100
0000
0000
0000
,
0010
0010
0010
0000
,
0100
0000
0100
0000
,
0100
0000
0000
0000
,
0000
0000
0000
0000
,
0100
0000
0000
0000
,
0000
0000
0000
0000
,
1000
0000
0000
0000
,
0000
0000
0000
0000
,
0001
0000
0000
0000
,
0000
0000
0000
0000
,
1000
0000
0000
0000
,
0000
0000
0000
0000
,
1000
0000
0000
0000
,
0000
0000
0000
0000
,
0001
0000
0000
0000
,
0000
0000
0000
0000
,
0001
0000
0000
0000
,
0000
0000
0000
0000
,
0100
0000
0000
0000
,
0000
0000
0000
0000
,
0010
0000
0000
0000
,
0000
0000
0000
0000
,
1000
0000
0000
0000
,
0000
0000
0000
0000
,
0001
0000
0000
0000
,
0000
0000
0000
0000
,
1000
0000
0000
0000
,
0001
0000
0000
0000
,
1000
0000
0000
0000
,
0001
0000
0000
0000
,
1000
0000
0000
0000
,
0001
0000
0000
0000
,
0010
0010
0010
0000
,
0100
0000
0100
0000
,
0100
0000
0000
0000
,
1000
0000
0000
0000
,
0001
0000
0000
0000
,
1000
0000
0000
0000
,
0010
0000
0000
0000
,
0010
0000
0000
0000
,
0100
0000
0000
0000
,
0100
0000
0000
0000
,
1001
0000
0000
0000
,
0000
0000
0000
0000
,
0000
0000
0000
0000
,
0000
0000
0000
0000
,
1001
0000
0000
0000
,
0000
0000
0000
0000
,
0000
0000
0000
0000
,
0000
0000
0000
0000
,
1001
0000
0000
0000
,
1001
0000
0000
0000
,
1001
0000
0000
0000
,
0000
0000
0000
0000
,
1001
0000
0000
0000
,
0000
0000
0000
0000
,
0110
0000
0000
0000
,
0000
0000
0000
0000
,
0110
0000
0000
0000
,
0000
0000
0000
0000
,
1000
0000
0000
0000
,
0001
0000
0000
0000
,
1000
0000
0000
0000
,
0001
0000
0000
0000
,
0100
0000
0000
0000
,
0010
0000
0000
0000
,
0010
0010
0010
0000
,
0100
0000
0100
0000
,
0100
0000
0000
0000
,
0010
0000
0000
0000
,
1000
0000
0000
0000
,
0001
0000
0000
0000
,
1000
0000
0000
0000
,
0001
0000
0000
0000
,
0010
0010
0010
0000
,
0100
0000
0100
0000
,
0100
0000
0000
0000
;

//---------------dance-single - ----------------
#NOTES:
     dance-single:
     :
     Easy:
     3:
     0.143,0.251,0.033,0.024,0.000:
0000
0000
0000
0000
,
0000
0000
0000
0000
,
0000
0000
0000
0000
,
0000
0000
0000
0000
,
1000
0000
0000
0000
,
0000
0000
0000
0000
,
0001
0000
0000
0000
,
0000
0000
0000
0000
,
1001
0000
0000
0000
,
0000
0000
0000
0000
,
0001
0000
0001
0000
,
0001
0000
0000
0000
,
1000
0000
1000
0000
,
1000
0000
0000
0000
,
0010
0000
0010
0000
,
0010
0000
0000
0000
,
0100
0000
0100
0000
,
0100
0000
0000
0000
,
0001
0000
0000
0000
,
0001
0000
0001
0000
,
1000
0000
0000
0000
,
1000
0000
1000
0000
,
0010
0000
0000
0000
,
0000
0000
0000
0100
,
0100
0000
0000
0000
,
0000
0000
0000
0000
,
0000
0001
0000
0001
,
0000
0001
0000
0001
,
0000
1000
0000
1000
,
0000
1000
0000
1000
,
0001
0000
0000
0000
,
0000
0000
0000
0100
,
0110
0000
0000
0000
,
0000
0100
0100
0100
,
0001
0000
1000
0000
,
0001
0000
1000
0001
,
1000
0000
0001
0000
,
1000
0001
0010
0100
,
1000
0000
0001
0000
,
0100
0001
0100
0001
,
1000
1000
1000
0000
,
0100
0100
0100
0100
,
0010
0000
0000
0000
,
0000
0000
0000
0000
,
0010
0000
0000
0000
,
0000
0000
0000
0000
,
0001
0000
0000
0000
,
0000
0000
0000
0000
,
1000
0000
0000
0000
,
0000
0000
0000
0000
,
0010
0000
0000
0000
,
0010
0000
0010
0000
,
0100
0000
0000
0000
,
0100
0000
0100
0000
,
0001
0000
0000
0000
,
0000
0000
0000
0001
,
1000
0000
0000
0000
,
0000
0000
0000
0000
,
0010
0100
0010
0100
,
0010
0100
0010
0000
,
1000
0001
1000
0001
,
1000
0001
1000
0000
,
0100
0100
0100
0000
,
0000
0000
0000
0000
,
0010
0000
0010
0000
,
0110
0000
0000
0000
,
1000
0000
0001
0000
,
1000
0000
0001
0000
,
0100
0000
0010
0000
,
0100
0000
0010
0000
,
1000
0000
0001
0000
,
1000
0000
0001
0000
,
0010
0010
0010
0000
,
0100
0100
0100
0100
,
1000
0000
1000
0000
,
1000
0000
0000
0000
,
0001
0000
0001
0000
,
0001
0000
0000
0000
,
0010
0000
0010
0000
,
0010
0000
0000
0000
,
0100
0000
0100
0000
,
0100
0000
0000
0000
,
2002
0000
0000
0000
,
0000
0000
0000
3003
,
0000
0000
0000
0000
,
0000
0000
0000
0000
,
0220
0000
0000
0000
,
0000
0000
0000
0330
,
0000
0000
0000
0000
,
0000
0000
0000
0000
,
1001
0000
0000
0000
,
1001
1000
0001
1000
,
0010
0000
0000
0000
,
0100
0000
0000
0000
,
0001
0000
0000
0000
,
1000
0000
0000
0000
,
0010
0000
0000
0000
,
0100
0000
0000
0000
,
0001
0000
0000
0000
,
1000
0000
0000
0000
,
0100
0100
0100
0000
,
0010
0010
0010
0000
,
0001
0001
0001
0000
,
1000
1000
1000
0000
,
0001
0001
0001
0000
,
1000
1000
1000
0000
,
0010
0010
0010
0000
,
0100
0100
0100
0100
,
0001
1000
0001
1000
,
0001
1000
0001
1000
,
0010
0100
0010
0100
,
0010
0100
0010
0100
,
0001
1000
0001
1000
,
0001
1000
0001
1000
,
0010
0010
0010
0010
,
0100
0100
0100
0100
,
0200
0000
0000
0000
,
0000
0300
0000
0000
;

//---------------dance-single - ----------------
#NOTES:
     dance-single:
     :
     Hard:
     7:
     0.521,0.530,0.361,0.133,0.095:
1000
0000
0000
0100
0000
0000
1000
0000
0000
0000
0001
0000
0100
0000
0002
0000
,
0000
0000
0003
0000
0100
0010
1000
0100
,
1000
0000
0000
0100
0000
0000
0010
0000
0000
0000
0001
0000
0100
0000
0010
0000
,
1000
1000
0100
0100
0010
0001
1001
0000
,
0010
0000
0000
0100
0000
0000
0001
0000
0000
0000
1000
0000
0000
0000
0022
0000
,
0000
0033
0000
1000
0010
1000
0001
0010
,
0100
0000
1000
0010
0001
0010
2000
0000
,
0000
0000
0000
3000
,
0210
0001
0000
1000
,
0000
0000
0001
0000
0010
0010
0310
0000
,
1000
0000
0000
0001
0000
0000
0100
0000
0000
0010
0000
0000
1000
0000
0100
0000
,
0010
0000
0000
0001
0000
0000
0010
0000
0000
0100
0000
0000
1000
0000
0010
0000
,
0001
0000
0000
0010
0000
0000
1000
0000
0000
0100
0000
0000
0010
0000
0001
0000
,
0100
0000
0000
0010
0000
0000
1000
0000
0000
0001
0000
0000
0010
0000
0001
0000
,
0100
0000
0010
1000
0000
0000
0001
0000
0000
0100
0000
0000
0010
0000
1000
0000
,
0100
0000
1000
0100
0000
0000
0010
0000
0000
0001
0000
0000
0100
0000
0010
0000
,
0100
0000
0010
1000
0000
0000
0001
0000
0000
0010
0000
0000
0001
0000
0100
0000
,
0010
1000
0100
0010
0001
0010
0110
0000
,
0010
0001
0100
0010
2000
0000
3001
0000
,
0001
0101
0000
2020
0000
0000
3030
0000
,
0101
0000
0001
1000
0100
0000
0100
0010
,
0100
1000
0000
1001
0000
0001
0100
0010
,
1000
0000
1000
0100
0000
0010
0001
0000
,
0100
0010
1000
0010
0000
0100
0001
0010
,
0100
0000
1000
0100
0000
0010
0001
0000
,
1000
0100
0010
0001
0100
0010
1001
0000
,
0010
0001
0010
0100
0010
0001
0010
0100
,
1000
0010
1000
0100
1000
0001
0101
0000
,
0001
0100
1000
0100
0001
0100
1000
0100
,
0001
0010
1000
0010
0001
0100
0101
0000
,
1001
0000
1000
0100
0000
1000
0100
0000
,
0010
0001
0100
0010
0000
0010
1000
0001
,
0100
0010
1000
0100
,
0000
1000
0100
0010
0001
0000
0100
0010
,
0110
0000
0101
0000
1100
0000
1000
0001
,
0000
0100
0010
1000
0100
0000
1100
0000
,
0011
0000
0101
0000
1010
0000
0010
1000
,
0000
1000
0010
0100
0001
0000
0011
0000
,
0001
0100
0010
0000
0110
0000
0000
0010
,
0000
0010
1000
0100
0010
0000
0011
0000
,
1000
0100
0010
0001
0100
0000
0010
1000
,
0000
0010
0100
0000
0101
0000
1100
0000
,
1001
0000
0110
0000
0010
1000
0001
0200
,
0000
0010
0001
0301
,
1100
0000
0101
0000
1000
0100
0010
0200
,
0000
1000
0001
1300
,
1010
0000
0101
0000
0001
0010
0100
2200
,
0000
0000
3300
0000
0001
0100
0001
0000
,
0110
0000
1001
0000
0001
0100
0010
0220
,
0000
0000
0330
0000
0010
1000
0001
0100
,
0010
0000
1000
0100
1000
0000
1000
0001
,
1000
0010
0000
0110
0000
0100
0001
0010
,
0100
0000
0100
1000
0100
0000
0100
0010
,
0100
1000
0000
1001
0000
0001
0100
0010
,
1000
0000
1000
0010
0000
0010
0100
0000
,
0100
0001
0010
0000
0100
1000
0010
0100
,
0001
0000
0010
0001
0000
1000
0200
0000
,
0300
0010
1000
0010
1000
0000
0101
0001
,
1000
0100
0010
0001
1000
0010
0100
0001
,
1000
0100
1000
0002
0000
0100
0103
0000
,
1000
0010
0100
0001
0010
0100
1000
0010
,
0100
0001
1000
0002
0000
0010
0013
0000
,
1000
0010
0100
0001
0000
0010
0001
0000
,
1000
0100
1000
0010
0000
0010
1000
0000
,
0010
0100
0001
0000
0010
0100
1000
0010
,
0100
0110
1001
0110
,
1001
0001
0100
0010
0100
0000
0100
0001
,
0000
0010
0001
1000
0100
0000
1100
0000
,
0010
1000
0010
0100
0001
0000
0010
0001
,
0000
1000
0100
0010
0001
0000
0110
0000
,
0010
1000
0100
0000
2020
0000
3030
0101
,
0000
0100
0001
0010
0100
0000
1100
0000
,
1000
0001
0010
0000
0001
0100
0010
1000
,
0000
1000
0100
0000
0001
0100
0000
0001
,
1001
0000
0000
1000
0000
0000
0001
0000
0000
0100
0000
0000
0010
0000
1000
0000
,
0100
0000
0000
0010
0000
0000
0001
0000
0000
0010
0000
0000
0100
0000
1000
0000
,
0010
0000
0000
0001
0000
0000
0100
0000
0000
1000
0000
0000
0010
0000
0001
0000
,
0100
0000
0000
0010
0000
0000
1000
0000
0000
0001
0000
0000
0100
0000
0001
0000
,
1000
0000
0010
0100
0000
0000
0001
0000
0000
0100
0000
0001
1000
0000
0010
0000
,
0100
0000
0001
0010
0000
0000
0001
0000
0000
0100
0000
0001
1000
0000
0010
0000
,
0100
0000
0001
0100
0000
0000
0010
0000
0000
0100
0000
0010
1000
0000
0100
0000
,
1000
0000
0100
1000
0000
0000
0100
0000
0000
0010
0000
0001
0010
0000
0001
0000
,
0101
0000
0001
1000
0200
0000
0000
1300
,
0000
0010
0100
0010
0100
0000
0110
0000
,
1001
0000
1000
0100
1000
0000
0001
0100
,
0001
0010
0100
1000
0010
0000
0110
0000
,
2001
0000
0001
0000
0002
0000
0000
3003
,
0000
0001
0100
0010
1000
0000
0110
0000
,
1000
0000
0001
0100
0010
0000
0010
0100
,
0000
0100
0001
0000
0101
0000
1100
0000
,
2002
0000
0000
3003
,
0001
0000
0010
0000
0100
0000
1000
0000
0001
1000
0001
1000
0002
0000
0000
0000
,
1003
0000
0101
0000
1000
0010
0100
0001
,
0000
0010
0001
0000
1000
0100
1000
0000
,
0110
0000
1001
0000
0001
0100
0010
1000
,
0000
1000
0100
0000
0010
0001
0010
0000
,
0011
0000
1100
0000
1000
0010
0100
0001
,
0000
0001
0100
0010
1000
0100
0010
0000
,
0010
0001
0100
0001
1000
0010
0100
0010
,
0110
0000
0000
0000
0101
0000
0000
1000
0001
0000
1000
0000
0001
0000
0100
0000
,
0110
0000
0001
1000
0100
0000
0010
0001
,
0000
0001
0100
0010
1000
0000
1100
0000
,
0010
0001
0100
0000
0010
1000
0100
0010
,
0000
0100
0001
1000
0010
0000
0110
0000
,
1000
0010
1000
0000
0001
0100
0001
0000
,
0010
0001
0100
0010
1000
0000
1001
0000
,
0001
0010
0100
1000
0010
0000
0100
0001
,
0000
0010
0001
0100
0010
1000
0001
0000
,
1100
0000
0010
0001
0100
0000
0010
1000
,
0000
1000
0001
0000
0010
0001
0100
0000
,
0010
1000
0100
0000
0010
0001
0100
0010
,
0000
0010
1000
0000
1100
0000
0101
0000
,
1001
0000
0001
0100
0020
0000
0000
1030
,
0000
1000
0100
0010
0001
0000
0011
0000
,
0001
0100
0010
0000
1000
0000
0001
0100
,
0000
0001
0101
0000
1010
0000
0110
0000
,
2002
0000
0000
0000
,
0000
3003
0000
0000
;

//---------------dance-double - ----------------
#NOTES:
     dance-double:
     :
     Beginner:
     1:
     0.076,0.166,0.048,0.000,0.000:
00000000
00000000
00000000
00000000
,
00000000
00000000
00000000
00000000
,
00000000
00000000
00000000
00000000
,
00000000
00000000
00000000
00000000
,
10000000
00000000
00000000
00000000
,
00010000
00000000
00000000
00000000
,
10000000
00000000
10000000
00000000
,
10000000
00000000
00000000
00000000
,
10010000
00000000
00000000
00000000
,
00000000
00000000
00000000
00000000
,
00001000
00000000
00000000
00000000
,
00001000
00000000
00000000
00000000
,
00001000
00000000
00000000
00000000
,
00010000
00000000
00000000
00000000
,
00001000
00000000
00000000
00000000
,
00010000
00000000
00000000
00000000
,
00001000
00000000
00000000
00000000
,
00010000
00000000
00000000
00000000
,
00001000
00000000
00000000
00000000
,
00001000
00000000
00000000
00000000
,
00001000
00000000
00000000
00000000
,
00001000
00000000
00000000
00000000
,
00000100
00000000
00000000
00000000
,
00000000
00000000
00000000
00000000
,
00000010
00000000
00000000
00000000
,
00000000
00000000
00000000
00000000
,
00000001
00000000
00000000
00000000
,
00000001
00000000
00000001
00000000
,
00001000
00000000
00000000
00000000
,
00000010
00000000
00000010
00000000
,
00001000
00000000
00000000
00000000
,
00000000
00000000
00000000
00000000
,
00000100
00000000
00000000
00000000
,
00011000
00000000
00000000
00000000
,
00001000
00000000
00000000
00000000
,
01000000
00000000
00000000
00000000
,
00010000
00000000
00000000
00000000
,
00100000
00000000
00000000
00000000
,
01000000
00000000
00000000
00000000
,
10000000
00000000
00000000
00000000
,
00100000
00100000
00100000
00000000
,
01000000
00000000
00010000
00000000
,
01000000
00000000
00000000
00000000
,
00000000
00000000
00000000
00000000
,
00001000
00000000
00000000
00000000
,
00000000
00000000
00000000
00000000
,
00000001
00000000
00000000
00000000
,
00000000
00000000
00000000
00000000
,
00000010
00000000
00000000
00000000
,
00000000
00000000
00000000
00000000
,
00001000
00000000
00000000
00000000
,
00000000
00000000
00000000
00000000
,
00000010
00000000
00000000
00000000
,
00000000
00000000
00000000
00000000
,
00000100
00000000
00000000
00000000
,
00000000
00000000
00000000
00000000
,
00000001
00000000
00000000
00000000
,
00000000
00000000
00000000
00000000
,
00001000
00000000
00000000
00000000
,
00000000
00000000
00000000
00000000
,
00010000
00000000
00000000
00000000
,
00000000
00000000
00000000
00000000
,
10000000
00000000
00000000
00000000
,
00000000
00000000
00000000
00000000
,
00010000
00000000
00000000
00000000
,
00000000
00000000
00000000
00000000
,
10000000
00000000
00000000
00000000
,
01000000
00000000
00000000
00000000
,
00010000
00000000
00000000
00000000
,
01000000
00000000
00000000
00000000
,
10000000
00000000
00000000
00000000
,
00010000
00000000
00000000
00000000
,
00100000
00100000
00100000
00000000
,
01000000
00000000
01000000
00000000
,
01000000
00000000
00000000
00000000
,
10000000
00000000
00000000
00000000
,
00010000
00000000
00000000
00000000
,
01000000
00000000
00000000
00000000
,
00001000
00000000
00000000
00000000
,
00010000
00000000
00000000
00000000
,
00001000
00000000
00000000
00000000
,
00000100
00000000
00000000
00000000
,
00001001
00000000
00000000
00000000
,
00000000
00000000
00000000
00000000
,
00000000
00000000
00000000
00000000
,
00000000
00000000
00000000
00000000
,
00011000
00000000
00000000
00000000
,
00000000
00000000
00000000
00000000
,
00000000
00000000
00000000
00000000
,
00000000
00000000
00000000
00000000
,
10010000
00000000
00000000
00000000
,
10010000
00000000
00000000
00000000
,
10010000
00000000
00000000
00000000
,
00000000
00000000
00000000
00000000
,
00011000
00000000
00000000
00000000
,
00000000
00000000
00000000
00000000
,
00000110
00000000
00000000
00000000
,
00000000
00000000
00000000
00000000
,
00000110
00000000
00000000
00000000
,
00000000
00000000
00000000
00000000
,
00001000
00000000
00000000
00000000
,
00000001
00000000
00000000
00000000
,
00001000
00000000
00000000
00000000
,
00000001
00000000
00000000
00000000
,
00000100
00000000
00000000
00000000
,
00000010
00000000
00000000
00000000
,
00000100
00000100
00000100
00000000
,
00000001
00000000
00000001
00000000
,
00000001
00000000
00000000
00000000
,
00001000
00000000
00000000
00000000
,
00010000
00000000
00000000
00000000
,
10000000
00000000
00000000
00000000
,
01000000
00000000
00000000
00000000
,
00010000
00000000
00000000
00000000
,
00100000
00100000
00100000
00000000
,
01000000
00000000
01000000
00000000
,
01000000
00000000
00000000
00000000
;

//---------------dance-double - ----------------
#NOTES:
     dance-double:
     :
     Easy:
     3:
     0.143,0.251,0.033,0.024,0.000:
00000000
00000000
00000000
00000000
,
00000000
00000000
00000000
00000000
,
00000000
00000000
00000000
00000000
,
00000000
00000000
00000000
00000000
,
00000001
00000000
00000000
00000000
,
00000000
00000000
00000000
00000000
,
00001000
00000000
00000000
00000000
,
00000000
00000000
00000000
00000000
,
10010000
00000000
00000000
00000000
,
00000000
00000000
00000000
00000000
,
00010000
00000000
00010000
00000000
,
00010000
00000000
00000000
00000000
,
00001000
00000000
00001000
00000000
,
00001000
00000000
00000000
00000000
,
00000010
00000000
00000010
00000000
,
00000010
00000000
00000000
00000000
,
00000001
00000000
00000001
00000000
,
00000001
00000000
00000000
00000000
,
00001000
00000000
00000000
00000000
,
00010000
00000000
00010000
00000000
,
10000000
00000000
00000000
00000000
,
10000000
00000000
10000000
00000000
,
00100000
00000000
00000000
00000000
,
00000000
00000000
00000000
01000000
,
01000000
00000000
00000000
00000000
,
00000000
00000000
00000000
00000000
,
00000000
00010000
00000000
00001000
,
00000000
00010000
00000000
00001000
,
00000000
01000000
00000000
00010000
,
00000000
01000000
00000000
00010000
,
00010000
00000000
00000000
00000000
,
00000000
00000000
00000000
00010000
,
00011000
00000000
00000000
00000000
,
00000000
00001000
00001000
00001000
,
00001000
00000000
00010000
00000000
,
00001000
00000000
00001000
00010000
,
00000100
00000000
00000010
00000000
,
00000001
00001000
00000100
00010000
,
00001000
00000000
00010000
00000000
,
00001000
01000000
00001000
01000000
,
00010000
00010000
00010000
00000000
,
00100000
00100000
00100000
00100000
,
00010000
00000000
00000000
00000000
,
00000000
00000000
00000000
00000000
,
00000001
00000000
00000000
00000000
,
00000000
00000000
00000000
00000000
,
00001000
00000000
00000000
00000000
,
00000000
00000000
00000000
00000000
,
00010000
00000000
00000000
00000000
,
00000000
00000000
00000000
00000000
,
10000000
00000000
00000000
00000000
,
00100000
00000000
00100000
00000000
,
01000000
00000000
00000000
00000000
,
00010000
00000000
00010000
00000000
,
00100000
00000000
00000000
00000000
,
00000000
00000000
00000000
00010000
,
10000000
00000000
00000000
00000000
,
00000000
00000000
00000000
00000000
,
00001000
00000001
00001000
00000001
,
00001000
00000001
00001000
00000000
,
00010000
10000000
00010000
10000000
,
00010000
10000000
00010000
00000000
,
01000000
01000000
01000000
00000000
,
00000000
00000000
00000000
00000000
,
00001000
00000000
00001000
00000000
,
00011000
00000000
00000000
00000000
,
00001000
00000000
01000000
00000000
,
00010000
00000000
10000000
00000000
,
01000000
00000000
00100000
00000000
,
00010000
00000000
00100000
00000000
,
00001000
00000000
00010000
00000000
,
00000100
00000000
00000010
00000000
,
00000001
00000001
00000001
00000000
,
00001000
00001000
00001000
00001000
,
00000010
00000000
00000010
00000000
,
00000010
00000000
00000000
00000000
,
00000100
00000000
00000100
00000000
,
00000100
00000000
00000000
00000000
,
00000001
00000000
00000001
00000000
,
00000001
00000000
00000000
00000000
,
00001000
00000000
00001000
00000000
,
00001000
00000000
00000000
00000000
,
00022000
00000000
00000000
00000000
,
00000000
00000000
00000000
00033000
,
00000000
00000000
00000000
00000000
,
00000000
00000000
00000000
00000000
,
02200000
00000000
00000000
00000000
,
00000000
00000000
00000000
03300000
,
00000000
00000000
00000000
00000000
,
00000000
00000000
00000000
00000000
,
10010000
00000000
00000000
00000000
,
10010000
10000000
00010000
10000000
,
00100000
00000000
00000000
00000000
,
01000000
00000000
00000000
00000000
,
00010000
00000000
00000000
00000000
,
00100000
00000000
00000000
00000000
,
00001000
00000000
00000000
00000000
,
00010000
00000000
00000000
00000000
,
00000100
00000000
00000000
00000000
,
00000010
00000000
00000000
00000000
,
00000100
00000100
00000100
00000000
,
00001000
00001000
00001000
00000000
,
00000100
00000100
00000100
00000000
,
00010000
00010000
00010000
00000000
,
00001000
00001000
00001000
00000000
,
01000000
01000000
01000000
00000000
,
00100000
00100000
00100000
00000000
,
01000000
01000000
01000000
01000000
,
00010000
00100000
00010000
01000000
,
00001000
00010000
00001000
00010000
,
00000100
00000010
00000001
00001000
,
00000100
00010000
00001000
01000000
,
00010000
10000000
00100000
01000000
,
00010000
00100000
00001000
00010000
,
00001000
00001000
00001000
00001000
,
00000100
00000100
00000100
00000100
,
00000200
00000000
00000000
00000000
,
00000000
00000300
00000000
00000000
;

//---------------dance-double - ----------------
#NOTES:
     dance-double:
     :
     Medium:
     5:
     0.331,0.418,0.181,0.081,0.000:
00000000
00000000
00000000
00000000
,
00000000
00000000
00000000
00000000
,
00000000
00000000
00000000
00000000
,
00000000
00000000
00000000
00000000
,
10000000
10000000
10000000
10000000
,
01000000
01000000
01000000
01000000
,
00100000
00100000
00100000
00100000
,
00001000
00010000
00000100
00000010
,
00002002
00000000
00000000
00000000
,
00003003
00000000
00000000
00000000
00000000
00001000
00001000
00000000
,
00000001
00000100
00000010
00001000
,
00000100
00000010
00000001
00000100
,
00000010
00001000
00000001
00001000
,
00000100
00000010
00000100
00010100
,
00010000
01000000
10000000
00100000
,
01000000
00010000
10000000
00100000
,
01000000
00010000
10000000
01000000
,
00100000
00000000
00100000
00000000
00010000
10000000
10000000
00000000
,
00010000
01000000
00100000
10000000
,
01000000
00010000
00001000
00011000
,
00010000
00000010
00000100
00000001
,
00001000
00000100
00010000
00011000
,
00001000
00000000
01000000
00020000
00000000
00000000
00100000
00000000
,
00000000
00100000
00000000
00130000
,
00001000
00000000
00010000
00002000
00000000
00000000
00000100
00000000
,
00000000
00000100
00000000
00003100
,
00000000
00000001
00000000
00001000
00000000
00000100
00000000
00010000
,
00000000
00001000
00000000
01000000
00000000
00010000
00010000
00000000
,
00000000
00100000
00000000
00001000
00000000
00010000
00000000
00000100
,
00000000
00000010
00000000
00000001
00000000
00001000
00001000
00000000
,
00000001
00000010
00001000
00010000
,
01000000
00000000
10000000
00000000
00100000
00000000
01000000
00010000
,
10000000
00000000
00000000
00000000
,
00000000
00011000
00011000
00011000
,
00010000
00000100
00000010
00000001
,
00000100
00000010
00001000
00000001
,
00000100
00010000
01000000
00010000
,
10000000
00100000
01000000
00010000
,
10000000
01000000
00001000
00000100
,
00000010
00000001
00000100
00001000
,
00010000
00001000
00010000
00001000
,
00011000
00000000
00011000
00000000
00010000
00001000
00010000
00000000
,
00002000
00103000
01000000
10000000
,
00010000
00000000
00000000
00000000
,
00020000
00030010
00000100
00000001
,
00001000
00000100
00000000
00000000
,
20000000
31000000
00100000
00010000
,
01000000
00000000
00000000
00000000
,
00000002
00000013
00000100
00001000
,
00000100
00010000
00000000
00000000
,
10000000
01000000
00010000
00001000
,
00000100
00000001
00000000
00000101
00000000
00000000
00000000
00000000
,
00000001
00000100
00001000
00010000
,
01000000
10000000
00000000
11000000
00000000
00000000
00000000
00000000
,
00100000
00000000
00010000
02000000
00000000
00000000
00001000
00000000
,
00000000
00001000
00000000
03001000
,
00010000
00000000
00000100
00020000
00000000
00000000
00001000
00000000
,
00000000
00001000
00000000
00031000
,
00000100
00000001
00000000
00000101
00000000
00001001
00000000
00001100
,
00000000
00010100
00000000
00011000
00000000
01000000
01000000
00000000
,
00000000
11000000
00000000
01010000
00000000
00010010
00000000
00001010
,
00000000
00000101
00000000
00001001
00000000
00001000
00001000
00000000
,
00000001
00000000
00001000
00000200
00000000
00000000
00010000
00000000
,
00000000
00000000
00010000
00000000
00000000
00000000
00010300
00001000
,
02000000
00010000
00000000
03010000
,
00000000
10010000
10010000
10010000
,
10000000
00000000
00100000
10000000
00100000
00000000
01000000
00000000
,
00010000
00100000
00001000
00010000
,
00000100
00000000
00000010
00000001
00000010
00000000
00000001
00000000
,
00001000
00000100
00010000
00001000
,
01000000
00000000
00010000
10000000
00010000
00000000
00100000
00000000
,
01000000
00000000
00010000
01000000
00100000
00000000
00001000
00000000
,
00010000
00000000
00000100
00001000
00000001
00000000
00001000
00000000
,
00000110
00000000
00000110
00000000
00000010
00001000
00000000
00001000
,
00000001
00000000
00001000
00000000
00000100
00000000
00010000
00010000
,
00010000
00000000
00001000
00000000
01000000
00000000
00100000
00100000
,
00100000
00000000
10000000
00000000
00010000
00000000
01000000
01000000
,
01000000
00000000
00001000
00000000
00010000
00000000
00000100
00000100
,
00000100
00000000
00000010
00000000
00000001
00000000
00001000
00000100
,
00001000
00000000
00000100
00000000
00010000
00000000
00001000
00010000
,
00001000
00000000
01000000
00000000
00010000
00000000
10000000
00100000
,
10000000
00000000
01000000
00000000
00010000
00000000
00010000
00001000
,
00021000
00001000
00000000
00001000
,
00000000
00001000
00000000
00001000
,
00000000
01000000
00000000
01000000
,
00000000
01000000
00000000
01030000
,
00200000
00000000
00000000
00000000
,
00000000
00000000
00000000
00300000
,
00002000
00000000
00000000
00000000
,
00000000
00000000
00000000
00003000
,
00011000
00000000
00000000
00000000
,
00001000
00000000
00010000
00000000
01000000
01000000
10000000
10000000
,
10000000
00000000
00010000
00000000
01000000
00001000
01000000
00001000
,
00010000
00000100
00000010
00000001
,
00001000
00000000
00001000
00000000
00000010
00010000
00000010
00010000
,
00001000
01000000
00010000
10000000
,
00100000
00000000
00100000
00000000
10000000
00010000
10000000
00010000
,
00100000
00001000
00010000
00000100
,
00000010
00000000
00000010
00000000
00000001
00001000
00000001
00001000
,
00000010
00000000
00000100
00000000
00000001
00001000
00000100
00010000
,
00001000
00000000
01000000
00010000
01000000
00000000
00010000
00000000
,
10000000
01000000
00100000
00001000
,
00010000
00000000
00000100
00001000
00000100
00000000
00001000
00000000
,
00000001
00000010
00000100
00010000
,
00001000
00000000
00100000
00010000
00100000
00000000
00010000
00000000
,
01000000
00001000
00010000
00000100
,
00000010
00000000
00000001
00001000
00000010
00000000
00010000
00000000
,
00011000
00011000
00011000
00011000
,
00001000
00000000
00000100
00000010
00000100
00000000
00000001
00000000
,
00001000
00000100
00000000
00000100
00000000
00000100
00000100
00000000
,
00010000
00000000
00001000
00010000
00001000
00000000
01000000
00000000
,
00100000
10000000
01000000
00010000
,
00001000
00000000
00010000
00001000
00010000
00000000
00000100
00000000
,
00000010
00000001
00000000
00000001
00000000
00000001
00000001
00000000
,
00000100
00001000
00010000
01000000
,
10010000
01001000
00010100
00001100
,
00022000
00000000
00000000
00000000
,
00000000
00033000
00000000
00000000
;

//---------------dance-double - ----------------
#NOTES:
     dance-double:
     :
     Hard:
     7:
     0.474,0.558,0.214,0.057,0.131: // measure 1
00000000
00000000
00000000
00000000
,  // measure 2
00000000
00000000
00000000
00000000
,  // measure 3
00000000
00000000
00000000
00000000
,  // measure 4
00000000
00000000
00000000
00000000
,  // measure 5
00000001
00000000
00001000
00000000
00000100
00001000
00000000
00000010
,  // measure 6
00000000
00010000
00000000
00000000
00001000
00000000
01000000
00000000
,  // measure 7
00100000
00000000
10000000
00010000
00100000
01000000
10000000
00010000
,  // measure 8
00100000
00000000
00000000
00000000
00001000
00000000
00000000
00000000
00010000
00000000
00000000
00001000
00010000
00000000
00001000
00000000
,  // measure 9
00022000
00000000
00000000
00000000
,  // measure 10
00000000
00000000
00000000
00000000
00033000
00010000
00001000
00000000
,  // measure 11
00001000
00010000
00000100
00010000
00001000
00000000
00001000
00000000
,  // measure 12
00010000
00001000
01000000
00001000
00010000
00000000
00010000
00000000
,  // measure 13
00001000
00010000
00000010
00010000
00001000
00000000
00001000
00000000
,  // measure 14
00010000
00001000
00100000
00001000
00010000
00000000
00010000
00000000
,  // measure 15
00001000
00000100
00000001
00001000
00000100
00000000
00000100
00000000
,  // measure 16
00000010
00001000
00010000
01000000
10000000
00000000
10000000
00000000
,  // measure 17
00100000
00010000
00001000
00000100
00000001
00000000
00000001
00000000
,  // measure 18
00001000
00000100
00010000
00001000
01000000
00010000
00010000
00000000
,  // measure 19
00000000
10000000
01000000
10000000
00000000
00010000
01000000
00010000
,  // measure 20
00000000
00100000
00001000
00100000
00001000
00010000
00000100
00001000
,  // measure 21
00000100
00001000
00000000
00000001
00000100
00000010
00000000
00001000
,  // measure 22
00000100
00010000
00000000
00001000
00010000
00001000
00100000
00010000
,  // measure 23
01000000
00100000
00000000
10000000
00010000
00100000
00000000
00100000
,  // measure 24
01000000
10000000
00010000
01000000
00001000
00010000
00001000
01000000
,  // measure 25
00010000
00100000
00000000
00100000
00001000
00010000
00000000
00010000
,  // measure 26
00001000
01000000
00000000
00001000
00010000
00000100
00000000
00001000
,  // measure 27
00000001
00000010
00000000
00001000
00000000
00100000
00000000
00001000
,  // measure 28
00000000
00000100
00000000
00000001
00000000
00001000
00000100
00010000
,  // measure 29
00001000
00100000
00000000
01000000
00000000
00001000
00000000
01000000
,  // measure 30
00000000
00100000
00000000
00001000
00000000
00010000
01000000
10000000
,  // measure 31
00010000
00100000
00000000
00001000
00000000
00000100
00000000
00000010
,  // measure 32
00000000
00010000
00000000
00001000
00000000
00100000
01000000
00010000
,  // measure 33
00001000
00010000
00000000
00000100
00000000
00001000
00000000
00000001
,  // measure 34
00000100
00001001
00001001
00001001
,  // measure 35
00000010
00000000
00000001
00000100
00001000
00000000
00000001
00000000
,  // measure 36
00000100
00000000
00010000
00000100
00010000
00000000
00001000
00000000
,  // measure 37
00100000
00000000
00010000
01000000
10000000
00000000
00010000
00000000
,  // measure 38
01000000
00000000
00100000
00001000
00100000
00000000
00001000
00000000
,  // measure 39
00010000
00000000
00000100
00001000
00000001
00000000
00000010
00000000
,  // measure 40
00000100
00000000
00010000
00000010
00010000
00000000
00001000
00000000
,  // measure 41
00100000
00000000
01000000
10000000
00010000
00000000
10000000
00000000
,  // measure 42
01010000
00000000
01001000
00000000
00011000
00010100
00001100
00000000
,  // measure 43
00000001
00000000
00000001
00000000
00000001
00001000
00000010
00000100
,  // measure 44
00001000
00010000
00000000
00100000
00000000
10000000
00010000
00000000
,  // measure 45
10000000
00000000
10000000
00000000
10000000
00100000
01000000
00010000
,  // measure 46
00000000
00010000
10000000
00000000
00100000
00000000
01000000
00001000
,  // measure 47
00100000
00000000
00100000
00000000
00100000
00010000
01000000
00001000
,  // measure 48
00100000
00010000
00000000
00000010
00000000
00001000
00000010
00000000
,  // measure 49
00000001
00000000
00000001
00000000
00001000
00000010
00000100
00000001
,  // measure 50
00000000
00000000
00001000
00000000
00001000
00000000
00000000
00000000
00000000
00000000
00000100
00010000
00000100
00000000
00000000
00000000
,  // measure 51
00000000
00100000
00001000
01000000
00000000
00010000
01000000
10000000
,  // measure 52
00000000
00000000
01000000
00000000
00100000
00000000
10000000
00010000
10000000
00000000
00010000
00000000
00100000
00000000
00001000
00000000
,  // measure 53
00010000
00000100
00000000
00000001
00000100
00001000
00000000
00000010
,  // measure 54
00010000
00000000
00001000
00000000
00000000
00000000
00010000
00000100
00010000
00000000
00001000
00000000
00000100
00000000
00000010
00000000
,  // measure 55
00001000
00000001
00000000
00000010
00001000
00010000
00000000
00100000
,  // measure 56
00010000
00001000
01000000
10010000
00000000
00010000
00100000
01000000
,  // measure 57
00010000
01000000
10000000
00010000
00000000
01000000
00001000
00010000
,  // measure 58
00000000
00000000
00100000
00000000
00010000
00000000
00001000
00000000
00010000
00000010
00010000
00000000
00001000
00000000
00000100
00000000
,  // measure 59
00000000
00000000
00000000
00000001
00000010
00000000
00000000
00000000
00000000
00000100
00001000
00000000
00000000
00000000
00000000
00000010
00010000
00000000
00000000
00000000
00000000
00001000
00010000
00000000
,  // measure 60
00000000
00000000
00000000
00001000
01000000
00000000
00000000
00000000
00000000
00100000
10000000
00000000
00000000
00000000
00000000
01100000
00000000
00000000
01100000
00000000
00000000
00000000
00000000
00000000
,  // measure 61
00000000
00000000
00000000
10000000
01000000
00000000
00000000
00000000
00000000
00100000
00010000
00000000
00000000
00000000
00000000
01000000
00001000
00000000
00000000
00000000
00000000
00010000
00000100
00000000
,  // measure 62
00000000
00000000
00000000
00001000
00000001
00000000
00000000
00000000
00000000
00000100
00000001
00000000
00000000
00000000
00000000
00000110
00000000
00000000
00000110
00000000
00000000
00000000
00000000
00000000
,  // measure 63
00000000
00000000
00000000
00000001
00000100
00000000
00000000
00000000
00000000
00000100
00001000
00000000
00000000
00000000
00000000
00001000
00010000
00000000
00000000
00000000
00000000
00010000
01000000
00000000
,  // measure 64
00000000
00000000
00000000
01000000
10000000
00000000
00000000
00000000
00000000
10000000
00010000
00000000
00000000
00000000
00000000
01100000
00000000
00000000
01100000
00000000
00000000
00000000
00000000
00000000
,  // measure 65
00000000
00000000
00000000
10000000
00100000
00000000
00000000
00000000
00000000
01000000
00001000
00000000
00000000
00000000
00000000
00010000
00000100
00000000
00000000
00000000
00000000
00000010
00000001
00000000
,  // measure 66
00000000
00001100
00001100
00001100
,  // measure 67
00010000
00000000
00010000
01000000
10000000
00000000
00010000
00100000
,  // measure 68
00000000
01000000
10000000
00010000
00100000
00000000
00101000
00000000
,  // measure 69
00001000
00000000
00001000
00000100
00000001
00000000
00000010
00001000
,  // measure 70
00000001
00000000
00000000
00000000
00000100
00000000
00000000
00000000
00001000
00000000
00000000
00000010
00010000
00000000
00000010
00000000
,  // measure 71
00001000
00000000
00100000
00010000
00001000
00000000
00010000
01000000
,  // measure 72
00000000
01000000
10000000
00100000
01000000
00000000
00001000
00000000
,  // measure 73
00011000
00000000
00000010
00010000
00001000
00000000
00100000
00000000
,  // measure 74
11000000
00000000
00110000
00000000
00011000
00001100
00000000
00000011
,  // measure 75
00001000
00000000
00000000
00000010
00000000
00000000
00010000
00000000
00000000
00000100
00000000
00000000
00010000
00000000
01000000
00000000
,  // measure 76
00100000
00000000
00000000
00001000
00000000
00000000
01000000
00000000
00000000
00100000
00000000
00000000
01000000
00000000
00010000
00000000
,  // measure 77
00100000
00000000
00000000
00001000
00000000
00000000
00000100
00000000
00000000
00000001
00000000
00000000
00000010
00000000
00000100
00000000
,  // measure 78
00001000
00000000
00000000
00010000
00000000
00000000
01000000
00000000
00000000
00100000
00000000
00000000
10000000
00000000
00010000
00000000
,  // measure 79
00100000
00000000
01000000
10000000
00000000
00000000
00010000
00000000
00000000
00100000
00000000
00001000
00010000
00000000
00000100
00000000
,  // measure 80
00000010
00000000
00000001
00001000
00000000
00000000
00000010
00000000
00000000
00000100
00000000
00010000
01000000
00000000
00100000
00000000
,  // measure 81
10000000
00000000
01000000
00100000
00000000
00000000
01000000
00000000
00000000
00001000
00000000
00000100
00000010
00000000
00000001
00000000
,  // measure 82
00000100
00000000
00000010
00010000
00000000
00000000
00000100
00000000
00000000
00010000
00000000
00001000
00100000
00000000
00010000
00000000
,  // measure 83
01020000
01000000
00000000
10000000
,  // measure 84
00000000
00100000
00000000
00001000
,  // measure 85
00000000
00000100
00000000
00000010
,  // measure 86
00000000
00000000
00100000
00000000
00000000
00000000
01030000
00001000
,  // measure 87
00022000
00000000
00000000
00003000
,  // measure 88
00000200
00030000
00000000
00000000
,  // measure 89
00000002
00000300
00000000
00000000
,  // measure 90
00000020
00000000
00000003
00000000
00000000
00000000
00000030
00001000
,  // measure 91
00002200
00000000
00000000
00003300
,  // measure 92
00000001
00000000
00000001
00000000
00000100
00000000
00000100
00000000
00001000
00010000
00001000
00010000
00001000
00010000
00001000
00010000
,  // measure 93
00001000
00000000
00001000
00000000
00001000
00100000
01000000
10000000
,  // measure 94
00010000
00100000
00000000
00100000
00000000
00100000
00001000
00000000
,  // measure 95
00010000
00000000
00010000
00000000
00010000
00000100
00000010
00000001
,  // measure 96
00001000
00000000
00000000
00000000
00000001
00000000
00000000
00000000
00001000
00000000
00000000
00010000
10000000
00000000
00010000
00000000
,  // measure 97
00100000
00000000
00100000
00000000
00100000
00001000
00010000
01000000
,  // measure 98
10000000
00010000
00000000
00001000
00000000
00000001
00000001
00000000
,  // measure 99
00000010
00000000
00000010
00000000
00000010
00000100
00001000
00000001
,  // measure 100
00001100
00000000
00000000
00000000
00010100
00000000
00000000
00100000
00001000
00000000
01001000
00000000
00110000
00000000
11000000
00000000
,  // measure 101
10010000
00000000
01000000
00010000
10000000
01000000
00010000
00001000
,  // measure 102
00000000
00000010
00000001
00000100
00000010
00000000
00001010
00000000
,  // measure 103
00000100
00000000
00010000
00001000
00100000
10000000
00010000
01000000
,  // measure 104
00000000
00000000
10000000
00000000
00100000
00000000
01000000
00000000
00010000
00000000
00000000
00100000
00001000
00000000
00000100
00000000
,  // measure 105
00000001
00001000
00000100
00000001
00000100
00001000
00000010
00000100
,  // measure 106
00000000
00000001
00001000
00000010
00010000
00000000
00001000
00000000
,  // measure 107
00000100
00000000
00000001
00001000
00000100
00000000
00000010
00000000
,  // measure 108
00000101
00001100
01010000
11000000
,  // measure 109
00100000
10000000
01000000
00010000
01000000
10000000
00100000
00010000
,  // measure 110
00001000
00000010
00000001
00000010
00001000
00000010
00000010
00000001
,  // measure 111
00000100
00001000
00000100
00000001
00000010
00001000
00010000
01000000
,  // measure 112
10000000
00100000
01000000
00010000
10000000
01000000
00010000
00001000
,  // measure 113
00000100
00000010
00000001
00000010
00001000
00000100
00010000
00100000
,  // measure 114
00010000
00001000
00010000
01000000
00001000
00000010
00000010
00000100
,  // measure 115
00001000
00010000
00100000
10000000
01000000
00100000
10000000
01000000
,  // measure 116
10100000
00110000
00001010
00000011
,  // measure 117
00002002
00000000
00000000
00000000
,  // measure 118
00000000
00003003
00000000
00000000
;

//---------------dance-single - ----------------
#NOTES:
     dance-single:
     :
     Medium:
     5:
     0.332,0.390,0.133,0.086,0.000:
0000
0000
0000
0000
,
0000
0000
0000
0000
,
0000
0000
0000
0000
,
0000
0000
0000
0000
,
1000
1000
1000
1000
,
0001
0001
0001
0001
,
0100
0100
0100
0100
,
0010
0010
0010
0010
,
2002
0000
0000
3003
,
0000
0000
0000
0000
0000
1000
1000
0000
,
0001
0010
0001
0100
,
0010
1000
0100
1000
,
0010
0100
0001
1000
,
0100
0010
0001
1000
,
0001
0100
1000
0100
,
0001
0010
0100
1000
,
0001
0010
1000
0010
,
0001
0000
0010
0000
0100
1000
1000
0000
,
0001
0100
0001
1000
,
0100
0010
0110
0100
,
1000
0001
0010
0001
,
1000
0100
0110
0010
,
0001
0000
1000
0200
0000
0000
0010
0000
,
0000
0010
0000
0310
,
0001
0000
1000
0020
0000
0000
0100
0000
,
0000
0100
0000
0130
,
0000
0001
0000
1000
0000
0001
0000
1000
,
0000
0001
0000
1000
0000
0001
0001
0000
,
0000
0010
0000
0100
0000
0010
0000
0100
,
0000
0010
0000
0100
0000
0010
0010
0000
,
0001
0100
1000
0100
,
0001
0000
1000
0000
0100
0000
0001
0100
,
1000
0100
0010
0001
,
1000
0110
0110
0110
,
0010
0001
0100
0010
,
1000
0100
1000
1001
,
0001
0100
0010
1000
,
0100
0001
0100
1000
,
0101
0010
1000
0100
,
1000
0010
0100
0001
,
1010
0100
0001
1000
,
1001
0000
1001
0000
0001
1000
0001
0000
,
1001
0002
1003
0100
,
0010
0010
0010
0010
,
0002
0103
0010
1000
,
0001
1000
1000
1000
,
0020
0130
0001
1000
,
0100
0100
0100
0100
,
0020
0031
0100
1000
,
0200
0001
0000
0300
,
1000
0100
0010
0001
,
1000
0010
0000
0010
0000
0000
0000
0000
,
0001
0010
0100
1000
,
0001
0010
0000
0010
0000
0000
0000
0000
,
0001
0000
1000
0200
0000
0000
0010
0000
,
0000
0010
0000
0310
,
0001
0000
1000
0200
0000
0000
0010
0000
,
0000
0010
0000
0310
,
0001
0100
0000
0010
0000
0100
0000
0010
,
0000
0100
0000
0010
0000
0100
0100
0000
,
0000
0001
0000
1000
0000
0001
0000
1000
,
0000
0001
0000
1000
0000
0001
0001
0000
,
1000
0000
0001
0200
0000
0000
0001
0000
,
0000
0000
0001
0000
0000
0000
0301
1000
,
0020
0100
0000
0130
,
0000
1001
1001
1001
,
0100
0000
0010
0001
0010
0000
0100
0000
,
1000
0001
0100
0010
,
1000
0000
0001
0100
0001
0000
1000
0000
,
0100
0001
0100
1000
,
0001
0000
0001
1000
0001
0000
0100
0000
,
0010
1000
0001
0010
,
0100
0000
0100
1000
0100
0000
0010
0000
,
0011
0000
0011
0000
0100
1000
0000
1000
,
0001
0000
1000
0000
0001
0000
1000
1000
,
0010
0000
0100
0000
0010
0000
0100
0100
,
0001
0000
0100
0000
0001
0000
0100
0100
,
0001
0000
1000
0000
0100
0000
1000
1000
,
0010
0000
0100
0000
0001
0000
1000
1000
,
1000
0000
0100
0000
0010
0000
0001
0001
,
0001
0000
1000
0000
0100
0000
0010
0010
,
0010
0000
0100
0000
1000
0000
0001
1000
,
0200
0001
0000
1000
,
0000
0001
0000
1000
,
0000
0001
0000
1000
,
0000
0001
0000
1000
,
0320
0000
0000
0000
,
0000
0000
0000
0000
,
2030
0000
0000
0000
,
0000
0000
0000
3000
,
1001
0000
0000
0000
,
1000
0000
0001
0000
1000
1000
0001
0001
,
0010
0000
0100
0000
1000
0001
1000
0001
,
0100
0001
1000
0010
,
0100
0000
0010
0000
1000
0001
1000
0001
,
1000
0010
1000
0100
,
0010
0000
0001
0000
1000
0100
0001
0100
,
1000
0001
1000
0010
,
0100
0000
0001
0000
1000
0010
0001
0010
,
1000
0000
0001
0000
0001
1000
0010
0100
,
0001
0000
1000
0100
0001
0000
0100
0000
,
1000
0010
0100
0001
,
1000
0000
0001
0010
1000
0000
0010
0000
,
0001
0100
0010
1000
,
0001
0000
0100
0001
0010
0000
0100
0000
,
1000
0010
0100
0001
,
0010
0000
0100
1000
0010
0000
0100
0000
,
1001
1001
1001
1001
,
0100
0000
0001
1000
0001
0000
0010
0000
,
0100
1000
0000
0001
0000
0100
0100
0000
,
0010
0000
1000
0001
1000
0000
0100
0000
,
0010
0001
0100
1100
,
1000
0000
1000
0100
0001
0000
1000
0000
,
0001
0010
0000
0001
0000
1000
1000
0000
,
0010
0100
0001
1000
,
1100
0110
0011
1001
,
2002
0000
0000
0000
,
0000
3003
0000
0000
;
