#TITLE:On Time;
#SUBTITLE:;
#ARTIST:The Disco Biscuits ft. TuPhace;
#TITLETRANSLIT:;
#SUBTITLETRANSLIT:;
#ARTISTTRANSLIT:;
#GENRE:;
#CREDIT:Telperion;
#BANNER:On Time.png;
#BACKGROUND:Summer_Contest2010-bg.png;
#LYRICSPATH:;
#CDTITLE:;
#MUSIC:On Time.ogg;
#OFFSET:-1.418;
#SAMPLESTART:55.955;
#SAMPLELENGTH:12.000;
#SELECTABLE:YES;
#BPMS:0.000=110.017;
#STOPS:;
#BGCHANGES:;
#KEYSOUNDS:;

//---------------dance-single - Telperion----------------
#NOTES:
     dance-single:
     Telperion:
     Hard:
     7:
     0.499,0.454,0.346,0.286,0.139:
0000
0000
0000
0000
,
0000
0000
0000
0000
,
0000
0000
0000
0000
,
0000
0000
0000
0000
1000
0001
0010
0100
,
0002
0203
2300
3010
,
2000
3200
0320
0031
,
0020
1030
0020
0031
,
0010
0100
1000
0010
0100
1000
0100
0001
,
0010
0100
0020
0000
0031
0100
0020
0000
,
1030
0100
0002
0000
0103
1000
0001
0100
,
1000
0100
0020
0000
1030
0100
0020
0000
,
0031
0000
1000
0000
0001
0000
1000
0000
0100
0010
0000
0100
0010
0000
0001
0000
,
0100
0010
0002
0000
0013
1000
0100
0010
,
0001
0100
0020
0000
1030
0100
0020
0000
,
0031
0100
1000
0100
0001
0010
1000
0010
,
0100
0000
1000
0000
0010
0000
0100
0000
0001
0010
0000
0100
0010
0000
0001
0000
,
0100
1000
0100
0010
1000
0100
2000
0000
,
3001
0001
0010
0100
0001
0100
2000
0000
,
3001
0001
0100
1000
0100
0010
1000
0100
,
0001
0100
0010
0001
1000
0100
0010
0001
,
2000
0001
3200
0001
,
0320
0001
1030
0010
,
0002
1000
0203
1000
,
0320
0000
1030
0000
0010
1000
0100
0010
,
0001
0000
1000
0100
0000
1000
0010
0000
0100
0000
0000
0000
1010
0000
0000
0000
,
0001
0000
0100
0001
0000
0100
0001
0000
0010
0000
0000
0000
1100
0000
0000
0000
,
0010
0000
1000
0100
0000
0010
0001
0000
0100
0000
0000
0000
0011
0000
0000
0000
,
1000
0000
0001
1000
0000
1000
0100
0000
0010
0000
0001
0100
0000
0100
0010
0000
,
1000
0000
0001
1000
0000
0100
0010
0000
0011
0000
0000
0000
1010
0000
0000
0000
,
0001
0000
0100
0010
0000
1000
0001
0000
0011
0000
0000
0000
1010
0000
0000
0000
,
1000
0000
0100
0001
0000
0100
1000
0000
0010
0000
0000
0000
0110
0000
0000
0000
,
0001
0000
0001
0000
1000
0000
1000
0001
0000
0001
1000
0000
0001
0000
1000
0000
,
1001
0000
1100
0000
0110
0000
0101
0010
,
0011
0000
1010
0000
0101
0010
0100
1000
,
0010
0101
0110
1100
,
1001
0000
0110
0000
1001
0000
0110
1000
,
0100
0010
0110
0000
0001
0100
0110
0000
,
0010
1000
1001
0000
0001
1000
1100
0000
,
0010
0001
0101
0000
0010
1000
1100
0000
,
0001
0100
1100
0000
0010
0001
0010
1000
,
0010
0100
0110
0000
1000
0001
0011
0000
,
0001
1000
1100
0000
1000
0001
0101
0010
,
1000
0100
1100
0000
0010
0001
1100
0000
,
0010
0000
0100
0000
1001
0000
0000
0000
0000
0100
0010
0000
0011
0000
1000
0000
,
1010
0000
0100
0001
0010
0100
0010
0101
,
0101
0000
0010
1000
0100
0010
0100
1010
,
1010
0000
0001
0100
1000
0100
0001
0010
,
1000
0010
0001
0010
0100
1000
0001
0010
,
0100
1000
0010
1000
0001
0100
0002
1000
,
0103
0010
1000
0100
0001
0100
2000
0100
,
0002
0000
0000
0000
3003
0000
0001
0000
0100
0000
0000
1000
0000
0000
0010
0000
,
0000
0001
0000
0100
0110
0000
1001
0000
,
0100
0000
0010
0001
0000
0001
0100
0000
2000
0000
0000
0000
3200
0000
0000
0000
,
0301
0000
0010
0001
0000
0010
0001
0000
0200
0000
0000
0000
0302
0000
0000
0000
,
1003
0000
0010
1000
0000
1000
0100
0000
0002
0000
0000
0000
0203
0000
0000
0000
,
1300
0100
0110
0000
0001
0100
0110
0000
,
1000
0010
1000
0010
0200
1300
0200
0301
,
1000
0100
0001
0100
0020
0031
0020
1030
,
0010
0000
0001
0100
0000
0100
0010
0000
1000
0000
0010
1000
0000
0100
0010
0000
,
0001
0000
0100
0000
0010
0000
1000
0001
0000
0100
0010
0000
1000
0000
0001
1000
,
0002
0003
0000
0000
;

//---------------dance-single - Telperion----------------
#NOTES:
     dance-single:
     Telperion:
     Challenge:
     8:
     0.536,0.497,0.406,0.211,0.192:
0000
0000
0000
0000
,
0000
0000
0000
0000
,
0000
0000
0000
0000
,
0000
0000
0000
0000
0000
0001
1000
0010
,
0100
0001
1000
0001
0100
0001
1000
0001
,
0010
0100
1000
0100
0010
0100
1000
0100
,
0001
0100
0010
0001
0100
1000
0100
0010
,
1000
0000
0100
0000
0001
0000
0100
0000
1000
0010
0000
0100
0001
0000
0010
0000
,
0110
1000
1010
0000
0100
0010
0011
0000
,
0100
0001
1001
0000
0100
0010
0110
0001
,
0100
1000
1100
0000
0010
0001
0101
0000
,
0010
0000
1000
0000
0100
0000
0001
0000
0100
0010
0000
0100
0001
0000
0100
0000
,
1000
0001
0011
0000
0100
1000
1001
0000
,
0100
0001
0110
0000
0100
1000
0110
0000
,
0001
0100
1010
0000
0100
1000
0011
0000
,
0100
0000
1000
0000
0100
0000
0001
0000
0010
0100
0000
0010
0002
0000
0000
0000
,
1003
0000
0000
0100
1000
0000
0001
0000
0100
0000
0000
1000
0100
0000
0001
0000
,
1000
0000
0000
0100
0010
0000
0001
0000
0100
0000
0000
0010
0100
0000
1001
0000
,
0110
0000
0010
0100
1000
0000
0001
0000
0100
0000
0001
0000
1000
0000
0100
0000
,
0010
0011
1000
1010
0002
2003
0002
0000
,
3000
1000
1003
0100
0010
0001
1100
0001
,
0102
0000
1003
0001
0100
1000
0100
1001
,
0210
0000
0310
0001
0100
0010
0100
0000
,
0001
0000
1000
0000
0100
0000
0010
0000
0001
1000
0001
0000
1000
0001
0100
0001
,
1000
0000
0100
0010
0000
0010
0100
0000
0001
0000
0100
0000
0020
0000
0000
0000
,
0031
0000
0100
0010
0000
1000
0100
0000
0010
0000
0100
0000
2000
0000
0001
0000
,
3001
0000
0100
0010
0000
0010
0100
0000
1000
0000
0100
0000
0020
0000
0000
0000
,
1030
0100
0010
0001
1000
0100
1000
0001
,
0010
0000
0001
0100
0000
0010
0001
0000
0010
0000
0100
0000
0200
0000
0000
0000
,
0301
0000
1000
0010
0000
1000
0100
0000
0010
0000
1000
0000
2000
0000
0000
0000
,
3010
0000
0001
1000
0000
0100
0001
0000
0100
0000
0010
0000
0010
0000
0100
0000
,
0100
0000
1000
0000
0001
0000
1000
0100
0000
0010
0001
0000
0100
0000
0011
0000
,
1000
0001
0000
0100
0000
0010
0000
1000
,
0000
0001
0000
0100
0000
1000
0100
0001
,
0010
0100
0000
1001
0000
0100
0000
0012
,
0000
0000
0103
0000
0001
0000
1000
0100
0000
1000
0001
0000
0100
0001
1000
0000
,
0100
1000
0011
0000
0001
0100
1010
0000
,
0010
0100
0011
0000
1000
0100
0011
0000
,
0100
1000
1001
0000
0100
0001
0110
0000
,
0010
0000
0001
0000
0101
0000
0010
0000
1000
0100
0000
0100
0010
0000
0001
0000
,
0200
1000
0301
0000
0020
0100
0031
0000
,
2000
0001
3100
0000
0001
0100
0001
0100
,
1000
0100
0001
0000
0200
1000
0301
0000
,
0020
0000
1000
0000
0031
0000
0000
0000
0010
1000
0100
0000
1000
0000
0001
0000
,
1001
0000
0100
0010
0001
0100
0010
1100
,
1001
0000
0100
0010
1000
0100
0010
0101
,
1001
0000
1000
0001
1000
0010
0100
1000
,
0001
0100
0010
0001
1000
0010
0100
0010
,
0200
0000
0001
0000
1000
0000
0301
0110
,
2100
0000
0001
0000
0100
0000
3001
1010
,
0202
0000
0003
0000
0300
0000
2000
0000
0200
3000
0000
0002
0300
0000
0020
0000
,
0003
1000
0000
0031
1000
0000
1001
0000
,
1001
0000
1000
0100
0000
0100
0010
0000
0001
0000
0100
0000
0110
0000
0000
0000
,
1000
0000
0010
0100
0000
0100
0001
0000
0010
0000
0100
0000
0210
0000
0310
0000
,
0110
0000
0001
0100
0000
0001
0100
0000
0010
0000
1000
0000
1001
0000
0000
0000
,
0010
0000
0100
0001
0000
0010
0100
0000
1000
0000
0010
1000
0100
0000
0010
0001
,
0100
0000
0010
1000
0000
1000
0100
0000
0110
0000
0010
0000
0021
0000
0000
0000
,
0031
0000
1000
0010
0000
0010
1000
0000
0101
0000
1000
0000
1200
0000
0000
0000
,
1300
0000
0010
0001
0000
0001
0010
0000
1000
0000
0100
0000
0010
0000
0001
0000
,
1000
0010
0100
0001
0100
1010
1100
0110
,
1001
0000
0000
0000
;

//---------------dance-single - Telperion----------------
#NOTES:
     dance-single:
     Telperion:
     Medium:
     6:
     0.439,0.361,0.158,0.331,0.004:
0000
0000
0000
0000
,
0000
0000
0000
0000
,
0000
0000
0000
0000
,
0000
0000
0000
0000
0000
1000
0001
0100
,
0010
1000
0100
0001
,
0010
0100
0001
1000
,
0001
0010
0001
0000
0100
0010
1000
0000
,
1000
0100
0010
0001
0010
0001
0100
0010
,
2000
3100
2000
3001
,
0200
0000
0310
0000
0002
0000
0013
1000
,
0100
0000
0010
0001
0200
0000
0310
0000
,
1000
0100
0001
0100
1000
1000
0010
0000
,
0200
0301
0200
1300
,
0200
0000
0310
0000
2000
0000
3001
0100
,
0010
0000
1000
0100
0001
0100
0001
0100
,
1000
0010
0100
0001
1000
0001
0010
0100
,
2000
0000
3200
0000
0320
0000
0031
1000
,
0002
0000
0203
0000
0320
0000
1030
0001
,
1000
0010
1000
0000
0001
0010
0001
1000
,
0001
0100
1000
0100
0001
0010
0100
1000
,
0010
0100
0020
0000
2030
0000
3001
1000
,
0002
0000
0013
0100
0010
0001
0100
1000
,
0200
0000
0310
1000
0100
1000
0001
0010
,
1000
0001
0100
0010
0001
1000
0100
0000
,
1001
0000
0110
0000
0001
0010
0100
0000
,
1010
0000
0011
0000
1000
0010
0100
0000
,
1100
0000
0101
0000
0010
1000
0001
0000
,
1010
0000
1100
0000
0110
0000
0101
0001
,
0010
0001
1000
0100
0010
0000
0101
0000
,
0010
1000
0001
0100
0010
0000
1100
0000
,
0001
1000
0010
0100
1000
0000
0110
0000
,
1000
0100
0001
0100
0010
0001
0100
1000
,
0200
0001
0320
0001
,
2030
0001
3200
0001
,
0310
0001
0100
1000
,
0010
0000
0001
0000
0100
0010
1000
0100
,
0010
0000
0001
1000
0002
0000
0103
0010
,
0200
0000
0301
0010
0100
1000
0001
0100
,
0020
0000
1030
0100
2000
0000
3001
0100
,
0010
0001
0010
0100
0001
0010
0100
0010
,
0001
1000
0001
1000
0200
0000
0310
0001
,
0200
0000
0320
0000
0230
0010
0310
0000
,
2000
0000
3010
0100
2000
0000
3100
0010
,
1000
0100
0001
0100
1000
0010
0001
0010
,
1000
0100
1000
0001
0100
0010
1000
0100
,
0001
1000
0010
0100
0010
0001
1000
0010
,
0001
0010
1000
0100
1000
0001
0100
0001
,
0010
0001
1000
0010
0200
0000
2000
0300
,
3000
0001
0001
1000
1000
0001
0100
0000
,
0000
0010
1000
1000
0100
0010
0010
0000
,
0000
0000
0000
0000
0000
0000
0001
0000
2000
0000
0000
3200
0000
0000
0302
0000
,
0000
0103
1000
0001
0100
1000
0100
0001
,
1000
0100
1000
0100
0011
0000
1010
0000
,
0001
0100
0001
0100
0110
0000
1001
0000
,
0100
0010
1000
0001
0011
0000
1010
0000
,
0100
0010
0001
0100
2000
0000
3200
0000
,
0301
0010
0001
0010
1010
0000
0011
0000
,
0100
0001
1000
0100
0002
0000
0203
0000
,
1300
0010
0100
1000
0200
0000
0302
0000
,
0013
1000
0001
0100
0010
0001
1000
0100
,
1000
0000
0000
0000
;

//---------------dance-double - Telperion----------------
#NOTES:
     dance-double:
     Telperion:
     Hard:
     7:
     0.404,0.406,0.135,0.188,0.008:
00000000
00000000
00000000
00000000
,
00000000
00000000
00000000
00000000
,
00000000
00000000
00000000
00000000
,
00000000
00000000
00000000
00000000
00000000
10000000
01000000
00010000
,
00002000
00010000
00010000
00013000
,
00020000
01000000
02030000
03100000
,
00100000
00010000
01000000
00100000
,
10000000
00100000
10000000
00010000
01000000
00001000
00010000
00000010
,
00001000
00000100
00000010
00000000
00000001
00000100
00000010
00000000
,
00001000
00000100
00000001
00000000
00000100
00001000
00000010
00001000
,
00000100
00010000
00001000
00000000
01000000
00001000
00010000
00000000
,
00001000
01000000
00010000
10000000
00100000
01000000
00010000
00100000
,
01000000
10000000
01000000
00000000
00100000
00010000
01000000
00000000
,
10000000
01000000
00010000
00000000
10000000
00100000
00010000
00001000
,
00010000
00000000
00001000
00010000
00001000
00010000
00001000
00000000
,
00100000
00001000
00010000
00000100
00001000
00000001
00000010
00000100
,
00002000
00000000
00003002
00000000
00000000
00000000
00000003
00001000
,
00000200
00000000
00000320
00000000
00000000
00000000
00000030
00001000
,
00020000
00000000
00230000
00000000
00000000
00000000
00300000
01000000
,
00010000
00100000
00001000
01000000
00100000
10000000
01000000
00100000
,
00010000
00000000
10000000
00000000
00010000
00000000
10000000
01000000
,
00010000
00000000
00001000
00000000
00010000
00000000
00001000
00000100
,
00000001
00001000
00000001
00001000
,
00000001
00001000
00000001
00001000
00000010
00000100
00010000
00001000
,
00000010
00000000
00010000
00000000
00001000
00010000
00001000
00010000
,
00000100
00000000
00000010
00000000
00001000
00010000
00100000
01000000
,
00010000
00000000
10000000
00000000
00010000
10000000
00010000
10000000
,
01000000
00000000
00100000
00000000
00010000
01000000
00100000
00010000
,
00001000
00000000
00010000
00000000
00001000
00010000
00001000
00010000
,
01000000
00000000
00100000
00000000
00010000
00001000
00000100
00000010
,
00000001
00000000
00001000
00000000
00000001
00001000
00000001
00001000
,
00000010
00000100
00001000
00000100
00000010
00001000
00000100
00010000
,
00002000
00010000
00010000
00013000
,
00020000
01000000
02030000
00100000
,
03200000
00010000
10000000
00320000
,
02030000
00000000
03200000
00000000
00310000
00001000
00100000
01000000
,
10000000
00010000
00100000
00010000
02000000
00000000
10000000
00000000
,
03010000
00100000
01000000
00010000
00002000
00000000
01000000
00000000
,
00013000
00100000
00010000
00001000
00010000
00000000
00001000
00000010
,
00001000
00010000
00001000
00000000
00000010
00000001
00000100
00000000
,
00001000
00000100
00000001
00000010
00000200
00000000
00000001
00000000
,
00001300
00000010
00000100
00001000
00020000
00000000
00000100
00000000
,
00031000
00010000
00001000
00010000
00001000
00011000
00010000
00011000
,
00001000
00000000
10000000
00000000
01000000
00000000
00010000
00000000
01000000
10000000
00000000
00000000
10010000
00000000
00000000
00000000
,
01000000
10000000
01000000
00010000
00100000
01000000
00010000
00000000
,
00001000
00010000
00001000
00000100
00000010
00001000
00000100
00000000
,
00000010
00000001
00000100
00000001
00000010
00000100
00001000
00000100
,
00010000
00000000
00001000
00000000
00100000
00000000
00010000
00000000
02000000
00000000
00000000
23000000
00000000
00000000
32000000
00000000
,
00000000
03010000
01010000
00000000
,
10000000
00010000
00011000
00000000
,
00000001
00000000
00001000
00000000
00022000
00000000
00033000
00011000
,
00000000
00101000
00000000
00110000
00000000
11000000
10000000
00010000
,
01100000
00000000
10010000
00000000
00100000
01000000
00010000
00100000
,
01000000
00000000
01010000
00000000
00010000
00001000
01000000
00000000
,
00011000
00000000
01000100
00000000
00011000
00000000
01000000
00001000
,
00010000
00001000
00001000
00010000
00010000
00001000
00011000
00000000
,
00001000
00000100
00001000
00000100
00000001
00000100
00000001
00000000
,
00000010
00000100
00000010
00000100
00001000
00000100
00010000
00001000
,
00100000
00010000
00100000
10000000
00100000
00010000
00100000
00000000
,
01000000
10000000
00100000
00010000
00001000
00000100
00000001
00000010
,
00000110
00000000
00000000
00000000
;

//---------------dance-single - Telperion----------------
#NOTES:
     dance-single:
     Telperion:
     Easy:
     4:
     0.184,0.339,0.166,0.068,0.000:
0000
0000
0000
0000
,
0000
0000
0000
0000
,
0000
0000
0000
0000
,
0000
0000
0000
0000
,
1000
0000
0001
1000
,
1000
0000
1000
0001
,
0001
1000
0100
0010
,
0001
0100
0010
0001
,
0100
1000
0000
0100
,
0000
1000
0000
0001
,
0100
0001
0000
0100
,
0000
0000
1000
0000
0000
0100
0001
0000
,
1000
0001
0000
0010
,
0000
0001
0000
1000
,
0010
0100
1000
0100
,
0001
0010
0100
0110
,
1000
0000
0001
0000
1000
0000
0001
1000
,
0100
0000
0010
0000
0100
0000
0010
0100
,
1000
0000
0100
0000
0010
0100
0010
0000
,
0001
0010
0001
0100
0010
0100
0001
0010
,
0002
0000
2003
0000
,
3020
0000
0230
0000
,
2300
0000
3200
0000
,
0301
0000
1000
0000
0001
1000
0001
1000
,
1001
0010
1100
0101
,
1001
0010
0101
1100
,
0011
1000
0101
0011
,
1010
0001
1100
1001
,
0010
0100
0010
0000
0110
0000
0110
0000
,
1000
0100
1000
0000
1100
0000
1100
0000
,
0001
0100
0001
0000
0101
0000
0101
0000
,
1000
0100
1000
0001
0100
0001
1000
0001
,
1000
0100
0010
0001
,
1000
0000
0100
0000
0010
0001
0010
0001
,
0100
0010
1000
0001
,
0100
0000
0010
0000
1000
0001
1000
0001
,
1000
0012
0013
2010
,
3010
0012
0013
0000
,
0000
0000
0000
0000
,
0000
0000
0000
0000
,
0000
0000
0000
0000
,
0000
0000
0000
0000
,
0000
0000
0000
0000
,
0000
0000
0000
0000
,
0000
0000
0000
0000
,
0000
0000
0000
0000
,
0000
0000
0000
0000
,
0000
0000
0000
0000
,
0000
0000
0000
0000
,
0000
0000
0000
0000
,
0000
0000
0000
0000
,
0000
0000
0000
0000
,
0000
0000
0000
0000
,
0000
0000
0000
0000
,
0000
0000
0000
0000
,
0000
0000
0000
0000
,
0000
0000
0000
0000
,
0000
0000
0000
0000
,
0000
0000
0000
0000
,
0000
0000
0000
0000
,
1000
0000
0000
0000
;

//---------------dance-double - Telperion----------------
#NOTES:
     dance-double:
     Telperion:
     Easy:
     3:
     0.262,0.294,0.060,0.083,0.000:
00000000
00000000
00000000
00000000
,
00000000
00000000
00000000
00000000
,
00000000
00000000
00000000
00000000
,
00000000
00000000
00000000
00000000
,
10000000
01000000
00010000
01000000
,
10000000
00100000
00010000
00100000
,
10000000
01000000
00100000
00001000
,
00010000
00100000
00010000
00001000
,
00000100
00000001
00000000
00000010
,
00000000
00000100
00000000
00001000
,
00000100
00000001
00000000
00000100
,
00000000
00001000
00000001
00000100
,
00001000
00010000
00000000
01000000
,
00000000
10000000
00000000
00100000
,
00000000
01000000
00000000
10000000
,
01000000
00100000
00010000
00001000
,
00000100
00000001
00000010
00000001
,
00001001
00000010
00001000
00000100
,
00001100
00000010
00010000
00000100
,
00011000
00011000
00011000
00011000
,
00021000
00031000
01000000
00100000
,
20000000
31000000
00010000
00001000
,
00000200
00000301
00000010
00000100
,
00002000
00003020
00000230
00002300
,
00013000
00000000
00001000
00010000
00001000
00000000
00010000
00000000
,
00000100
00000000
00001000
00000100
00001000
00000000
00000010
00000000
,
00000100
00000000
00000001
00000100
00000001
00000000
00000100
00000000
,
00000010
00001000
00000100
00000010
,
00000001
00000000
00000010
00000001
00000010
00000000
00000001
00000000
,
00001000
00000000
00000100
00001000
00000100
00000000
00010000
00000000
,
00001000
00000000
00010000
00001000
00010000
00000000
00001000
00000000
,
00100000
01000000
10000000
00010000
,
01000000
10000000
01000000
00010000
,
01000000
00000000
10000000
00000000
01000000
00100000
01000000
00100000
,
01000000
00010000
00100000
10000000
,
00100000
01000000
00010000
00001000
,
00010000
00001000
00000000
00000100
,
00000000
00000001
00000000
00000010
,
00000000
00001000
00000000
00010000
,
00000000
01000000
00000000
10000000
,
00000000
00100000
00000000
00010000
,
00000000
00001000
00000000
00000100
,
00000001
00000010
00000100
00000000
,
00001000
00000010
00000100
00002020
,
00000030
00003001
00000010
00000100
,
00020000
00031000
01000000
00100000
,
20000000
00000000
31000000
00100000
01000000
00000000
00100000
00010000
,
00100000
00001000
00000000
00010000
00000000
00001000
00000000
00010000
,
00001000
00000100
00000001
00000010
,
00000100
00001000
00010000
00100000
,
01000000
00010000
00001000
00000010
,
00000100
00000000
00001000
00000000
00000010
00000100
00000010
00000100
,
00000001
00000000
00000010
00000000
00000100
00001000
00000100
00000000
,
00010000
00000000
00001000
00000000
00100000
00010000
00100000
00000000
,
01000000
00000000
10000000
00000000
00100000
01000000
00100000
00000000
,
10000000
00000000
00010000
00000000
01000000
00010000
01000000
00000000
,
00001000
00000000
00010000
00000000
00001000
00010000
00001000
00000000
,
10000000
00000000
00010000
00000000
10000000
00010000
10000000
00000000
,
00001000
00000000
00010000
00000000
00001000
00010000
00010000
00000000
,
00000100
00000100
00001000
00001000
00000001
00000000
00001000
00000010
,
00000100
00000000
00000000
00000000
;

//---------------dance-double - Telperion----------------
#NOTES:
     dance-double:
     Telperion:
     Medium:
     6:
     0.377,0.339,0.391,0.083,0.000:
00000000
00000000
00000000
00000000
,
00000000
00000000
00000000
00000000
,
00000000
00000000
00000000
00000000
,
00000000
00000000
00000000
00000000
00000000
10000000
00010000
10000000
,
00010000
10000000
00010000
01000000
,
00100000
10000000
01000000
00100000
,
00001000
00010000
00100000
01000000
,
00001000
00000000
00010000
00000000
00000100
00001000
00000100
00001000
,
00000010
00000110
00000001
00000011
,
00000100
00001100
00010000
00011000
,
01000000
01010000
00100000
01100000
,
10000000
00000000
10100000
00000000
00010000
01000000
10000000
01000000
,
00010000
00110000
01000000
11000000
,
00010000
00000000
01010000
00000000
00100000
00000000
00101000
00010000
,
00100000
00101000
00010000
00010100
,
00001000
00000000
00001001
00000000
00000010
00000100
00000010
00001000
,
00000001
00000000
00000010
00000000
00000001
00000010
00000001
00000010
,
00000100
00000000
00000010
00000000
00000100
00001000
00000100
00010000
,
00001000
00000000
00010000
00000000
00001000
00100000
00010000
10000000
,
01000000
00100000
00010000
01000000
00100000
10000000
00010000
00100000
,
01000000
00000000
11000000
00000000
00010000
00100000
01000000
00000000
,
00010000
00000000
00011000
00000000
00001000
00000100
00000010
00000000
,
00001000
00000000
00001100
00000000
00000010
00000001
00000100
00000010
,
00001000
00000100
00000010
00000001
00002000
00000000
00003001
00000000
,
00001001
00000000
00000110
00000000
00000001
00000010
00000100
00000000
,
00000011
00000000
00001100
00000000
00000001
00001000
00000100
00010000
,
00001000
00000000
00011000
00000000
00010000
00000100
00001000
00000000
,
00101000
00000000
01010000
00000000
00100000
00010000
01000000
00000000
,
01100000
00000000
10010000
00000000
01000000
00100000
00010000
00000000
,
01001000
00000000
00110000
00000000
00001000
00010000
00100000
00010000
,
00001000
00000000
00101000
00000000
00010000
00000100
00001000
00000000
,
00001010
00000101
00000011
00001100
,
00002001
00003002
00001000
00002003
,
00000100
00003000
00000200
00000000
00010000
00000300
00020000
00000000
,
00031000
00001000
01000000
01000000
,
00100000
00000000
00100000
00000000
10000000
00100000
10000000
01000000
,
00100000
00010000
01000000
00000000
00010000
01000000
00100000
00000000
,
00010000
00001000
00100000
00000000
00001000
00010000
00000010
00000000
,
00010000
00001000
01000000
00000000
00100000
00010000
00001000
00000000
,
00000100
00000010
00001000
00000000
00000001
00000010
00000001
00000000
,
00001000
00000010
00000100
00000000
00001000
00010000
00000100
00000000
,
00000010
00001000
00010000
00000000
00001000
00010000
00001000
00000000
,
00010000
00001000
01000000
00001000
00010000
00000100
00010000
00000000
,
00001000
01000000
00100000
01000000
00010000
00100000
01100000
00000000
,
00100000
00000000
00010000
00000000
01000000
00000000
10000000
01000000
,
00010000
00100000
00001000
00010000
,
00000010
00000000
00000100
00000000
00001000
00000100
00000001
00000010
,
00000100
00000000
00001000
00000000
00000001
00000100
00001000
00010000
,
00002000
00000000
00023000
00000000
,
02030000
00000000
03200000
00000000
,
00320000
00000000
00001000
00000000
,
00130000
01000000
10000000
00010000
,
00100000
01000000
00100000
00000000
01100000
00000000
10010000
00000000
,
00100000
10000000
01000000
00000000
00110000
00000000
11000000
00000000
,
00010000
00100000
00001000
00000000
00110000
00000000
00011000
00000000
,
00001000
00010000
00000100
00001000
00000010
00000100
00000001
00000000
,
00000010
00000001
00000100
00000000
00000110
00000000
00001001
00000000
,
00000010
00001000
00000001
00000000
00001010
00000000
00000101
00000000
,
00001000
00000010
00010000
00000000
00001100
00000000
00010010
00000000
,
00011000
00100100
00011000
01000010
,
00011000
00000000
00000000
00000000
;

//---------------dance-single - Telperion----------------
#NOTES:
     dance-single:
     Telperion:
     Beginner:
     1:
     0.091,0.090,0.090,0.000,0.000:
0000
0000
0000
0000
,
0000
0000
0000
0000
,
0000
0000
0000
0000
,
0000
0000
0000
0000
,
0001
0000
0000
0000
,
0001
0000
0000
0000
,
0001
0000
0000
0000
,
0001
0000
0000
0000
,
0100
0000
0000
0000
,
0010
0000
0000
0000
,
0100
0000
0000
0000
,
0010
0000
0000
0000
,
1001
0000
0000
0000
,
0001
0000
0000
0000
,
1000
0000
0000
0000
,
1001
0000
0000
0000
,
0110
0000
0000
0000
,
0100
0000
0000
0000
,
0010
0000
0000
0000
,
0100
0000
0000
0000
,
0001
0000
0000
0000
,
0010
0000
0000
0000
,
0100
0000
0000
0000
,
1000
0000
0000
0000
,
0001
0000
1000
0000
,
0010
0000
0100
0000
,
0001
0000
0010
0000
,
0100
0000
1000
0000
,
0001
0000
1000
0000
,
0100
0000
0010
0000
,
0001
0000
0100
0000
,
0010
0000
1000
0000
,
0001
0000
0000
0000
,
1000
0000
0000
0000
,
0001
0000
0000
0000
,
1000
0000
0000
0000
,
0110
0000
0000
0000
,
0110
0000
0000
0000
,
0110
0000
0000
0000
,
0110
0000
0000
0000
,
1001
0000
0000
0000
,
1001
0000
0000
0000
,
1001
0000
0000
0000
,
1001
0000
0000
0000
,
1000
0000
0000
0000
,
0100
0000
0000
0000
,
0001
0000
0000
0000
,
0100
0000
0000
0000
,
1000
0000
0000
0000
,
0010
0000
0000
0000
,
0100
0000
0000
0000
,
1000
0000
0000
0000
,
0100
0000
0010
0000
,
1000
0000
0001
0000
,
0010
0000
0100
0000
,
1000
0000
0001
0000
,
1000
0000
0100
0000
,
0010
0000
0001
0000
,
0100
0000
0010
0000
,
1000
0000
0001
0000
,
1001
0000
0000
0000
;

//---------------dance-double - Telperion----------------
#NOTES:
     dance-double:
     Telperion:
     Challenge:
     8:
     0.426,0.429,0.248,0.135,0.038:
00000000
00000000
00000000
00000000
,
00000000
00000000
00000000
00000000
,
00000000
00000000
00000000
00000000
,
00000000
00000000
00000000
00000000
00000000
10000000
01000000
00010000
,
00002000
00010000
00010000
00013000
,
00020000
01030000
02000000
03100000
,
00100000
00010000
10000000
01000000
,
00010000
00000000
00001000
00000000
00000100
00000001
00001000
00000010
,
00000001
00000000
00001010
00000000
00000100
00000010
00000001
00000000
,
00000100
00000000
00001010
00000000
00000001
00000010
00001000
00010000
,
00001000
00000000
00010010
00000000
00001000
00010000
00001000
00000100
,
00001000
01000000
00001000
00010000
00001000
00100000
00001000
00010000
,
00100000
00000000
11000000
00000000
00100000
00010000
01000000
10000000
,
01000000
00000000
00110000
00000000
01000000
10000000
00100000
00010000
,
01000000
00010000
00100000
01000000
00010000
00000000
00100000
00010000
,
00001000
00010000
00100000
00001000
00010000
00000100
00000010
00000001
,
00000100
00000000
00001000
00000000
00010000
00000000
00001000
00000100
,
00000001
00000000
00000010
00000000
00001000
00000000
00010000
00100000
,
10000000
00000000
01000000
00000000
00010000
01000000
10000000
01000000
,
00010000
00001000
00010000
01000000
00010000
00001000
00000200
00000000
,
00000320
00000000
00020030
00000000
00030200
00000000
00000310
00000001
,
00000200
00000000
00002300
00000000
00023000
00000000
01030000
00100000
,
00020000
00000000
02030000
00000000
13000000
01000000
00010000
01000000
,
00100000
00000000
00010000
00000000
00001000
00000000
00000100
00000000
00000010
00001000
00000010
00000000
00000100
00000001
00000100
00000001
,
00000010
00000100
00000001
00000000
00001100
00000000
00000101
00000000
,
00000010
00001000
00000100
00000000
00000101
00000000
00001100
00000000
,
00000001
00001000
00000100
00010000
00011000
00000000
00010100
00000000
,
00001000
01000000
00001000
00010000
00011000
00000000
01001000
00000000
,
00100000
10000000
01000000
00000000
01010000
00000000
11000000
00000000
,
00100000
00010000
01000000
00000000
10100000
00000000
01001000
00000000
,
00010000
00001000
00100000
01000000
00010000
00001000
00011000
00000000
,
00001000
00000100
00000001
00000010
00001000
00010000
01000000
10000000
,
00200000
00000000
00000000
00000000
00000000
00000000
00000000
20000000
,
00300000
00000000
00000000
00000000
00000000
31000000
00100000
00010000
,
02000000
00000000
00000000
00000000
,
03100000
00010000
00100000
01000000
00100000
10000000
01000000
00010000
,
00001000
00000000
00010000
01000000
10000000
00000000
01000000
00010000
,
00001000
00000000
00010000
01000000
10000000
00000000
01000000
00010000
,
01001000
00000000
00100000
00010000
00001000
00000000
00010000
00100000
,
10000000
01000000
00010000
00001000
00000100
00000001
00000010
00000001
,
00010000
00000000
00001000
00000100
00000001
00000000
00000100
00001000
,
00010000
00000000
00001000
00000100
00000001
00000000
00000100
00001000
,
00010100
00000010
00000001
00000100
00001000
00000000
00010000
01000000
,
00010000
00000000
00001000
00000000
00000100
00000000
00000001
00000000
00000010
00001000
00000000
00001000
00010000
00000000
01000000
00000000
,
00100000
00010000
01100000
00000000
00100000
10000000
01100000
00000000
,
00100000
00001000
01100000
00000000
00010000
00001000
00011000
01000000
,
00100000
00100000
00010000
00010000
00001000
00000100
00000010
00010000
,
00001000
00000000
10000000
00000000
01000000
00000000
00100000
00000000
00002000
00000000
00000000
00003200
00000000
00000000
00000302
00000000
,
00000000
00000000
00000013
00001000
00010000
00100000
10000000
01000000
,
00010000
00000000
10000000
00100000
00001000
00010000
00100000
00001000
,
00000010
00000000
00000000
00000000
00000100
00000000
00000001
00000000
00000010
00000000
00000000
00001000
00000000
00000000
00000100
00000000
,
00000000
00000000
00000001
00000000
00000000
00000000
00000010
00000000
00000100
00010000
00001000
00000000
00010000
00001000
00010000
00001000
,
00011000
00000000
00011000
00000000
00001000
01000000
10000000
00000000
,
11000000
00000000
01100000
00000000
10000000
01000000
00010000
00000000
,
00011000
00000000
00011000
00000000
00010000
00000100
00000001
00000000
,
00000101
00000000
00000110
00000000
00001000
00000100
00000001
00000010
,
00000001
00000100
00010000
00001000
01000000
00100000
00010000
00000000
,
10000000
00010000
00100000
01000000
00010000
00100000
01000000
00000000
,
00010000
01000000
00100000
00001000
00000010
00000100
00010000
00000000
,
00001000
00000100
00000010
00010000
01000000
00100000
00001000
00010000
,
00011000
00000000
00000000
00000000
;
