#TITLE:Lies;
#SUBTITLE:;
#ARTIST:Fenech-Soler;
#TITLETRANSLIT:;
#SUBTITLETRANSLIT:;
#ARTISTTRANSLIT:;
#GENRE:;
#CREDIT:Telperion;
#BANNER:Lies-bn.png;
#BACKGROUND:Lies-bg.png;
#LYRICSPATH:;
#CDTITLE:;
#MUSIC:Lies-lo.ogg;
#OFFSET:0.000;
#SAMPLESTART:37.676;
#SAMPLELENGTH:22.677;
#SELECTABLE:YES;
#DISPLAYBPM:127.000;
#BPMS:0.000=127.000;
#STOPS:;
#BGCHANGES:;
#KEYSOUNDS:;

//---------------dance-single - Telperion----------------
#NOTES:
     dance-single:
     Telperion:
     Hard:
     7:
     0.415,0.422,0.229,0.229,0.154:
0000
0000
0000
0000
,
0000
0000
0000
0000
,
0000
0000
0000
0000
,
0000
0000
0000
0000
,
2002
0000
0000
0000
0003
0000
3200
0020
,
0000
0000
0000
0330
,
0220
0000
0000
0000
0030
0000
2300
0002
,
0000
0000
0000
3003
,
1001
0000
0100
0010
0000
0000
0100
0000
,
1000
0000
0001
0100
0000
0000
0001
0000
,
1001
0000
1000
0010
0000
0000
0100
0000
,
0001
0100
0000
0100
0001
0010
0100
1000
,
0001
0000
0001
0000
0010
0100
0010
0100
,
1000
0000
0000
0000
1000
0000
0000
0000
0001
0000
0000
0100
0000
0000
0001
0000
,
1000
1000
0000
0000
0010
0100
0010
0100
,
0001
0010
0000
0010
,
0110
0000
1000
0100
0000
0000
1001
0000
,
0100
0000
0001
0100
0000
0000
0110
0000
,
0001
0000
0000
0010
0000
0000
0100
0000
1000
0000
0000
0000
1100
0000
0000
0000
,
0001
0100
0001
0100
0000
0010
0010
0000
,
1000
0000
0000
0010
0000
0000
0100
0000
0000
0001
0000
0000
0001
0000
0000
0010
,
0000
0000
0100
0000
0000
1000
0000
0000
0001
0000
1000
0000
0100
0000
0000
0000
,
0110
0000
1100
0000
0010
0100
0001
0100
,
0000
0010
1000
0010
0100
0001
0001
0000
,
0010
0000
0000
0100
0000
0000
1000
0000
0000
0100
0000
0000
0001
0000
0000
0100
,
0000
0000
1000
0000
0000
0010
0000
0000
0100
0000
0010
0000
0100
0000
0000
0000
,
0101
0000
1010
0000
0010
1000
0100
0000
,
0010
0100
1000
0010
0100
1000
0100
0001
,
2000
0000
0000
0000
0000
0000
3200
0020
,
0000
0000
0000
0330
,
2002
0000
0000
0000
3000
0000
0203
0020
,
0000
0000
0000
0000
0330
0000
0000
0000
0010
0000
0000
0010
0000
0100
0010
0000
,
0100
0000
0002
1000
0000
0000
0013
0000
,
0100
0000
2000
0010
0000
0000
3001
0000
,
0110
0000
0000
0100
0002
0000
1000
0000
0000
0000
0000
0000
0013
0000
0000
0000
,
0100
0000
0000
0110
0000
0000
1000
0001
1000
0001
0000
0000
,
0100
0100
0000
0010
0010
0000
0100
0000
,
0001
0010
0100
0000
1000
0010
0100
0000
,
0001
0000
0000
1000
0000
0000
0001
0000
1000
0000
0000
0000
1000
0000
0000
0000
,
0001
0010
0001
0000
1000
0010
0010
0000
,
0100
0000
0000
0001
0000
0000
0100
0000
0010
0000
0000
0000
0010
0000
0000
0000
,
1000
0001
0100
0000
0001
0010
0100
0000
,
1000
0001
0001
0001
0000
0010
0001
0000
,
1000
1000
0000
0000
0010
0000
0010
0100
,
0110
0000
0000
0001
0000
0000
0010
0000
0000
0100
0000
0000
1000
0000
0000
0100
,
0000
0000
0001
0000
0000
0100
0000
0000
1000
0000
0010
0000
0100
0000
0000
0000
,
0101
0000
1010
0000
1000
0100
0010
0100
,
1000
0010
0100
0001
0100
0010
0010
0000
,
1000
0000
0000
0010
0000
0000
0100
0000
0000
0001
0000
0000
0010
0000
0000
0001
,
0000
0000
1000
0000
0000
0100
0000
0000
0010
0000
0100
0000
1000
0000
0000
0000
,
1010
0000
0101
0000
0010
0100
0001
0000
,
0010
0001
1000
0100
0010
0001
1000
0000
,
0010
0000
0000
0020
0000
0000
0100
0000
0000
0230
0000
0000
0001
0000
0000
0302
,
0000
0000
0010
0000
0000
0023
0000
0000
0130
0000
1000
0000
0100
0000
0000
0000
,
0011
0000
0101
0000
0010
0100
0010
1000
,
0100
0010
0100
0001
0100
0010
0001
0000
,
0101
0000
0000
0200
0000
0000
0010
0000
0000
0320
0000
0000
1000
0000
0000
2030
,
0000
0000
0100
0000
0000
3200
0000
0000
0301
0000
0100
0000
1000
0000
0000
0000
,
1010
0000
0101
0000
0011
0001
0100
0000
,
0010
0000
1000
0000
0000
1000
0000
0000
0001
0000
0000
0001
0000
0000
0001
0000
;

//---------------dance-single - Telperion----------------
#NOTES:
     dance-single:
     Telperion:
     Beginner:
     1:
     0.086,0.105,0.000,0.000,0.000:
0000
0000
0000
0000
,
0000
0000
0000
0000
,
0000
0000
0000
0000
,
0000
0000
0000
0000
,
0100
0000
0000
0000
,
0000
0000
0000
0000
,
0100
0000
0000
0000
,
0000
0000
0000
0000
,
0010
0000
0000
0000
,
0000
0000
0000
0000
,
0010
0000
0000
0000
,
0010
0000
0000
0000
,
0001
0000
0000
0000
,
0000
0000
0000
0000
,
1000
0000
0000
0000
,
0000
0000
0000
0000
,
0010
0000
0000
0000
,
0000
0000
0000
0000
,
0100
0000
0000
0000
,
0100
0000
0000
0000
,
0010
0000
0010
0000
,
0010
0000
0010
0000
,
0100
0000
0100
0000
,
0100
0000
0000
0000
,
0001
0000
0001
0000
,
0001
0000
0001
0000
,
1000
0000
1000
0000
,
1000
0000
1000
0000
,
0000
0000
0000
0000
,
0000
0000
0000
0000
,
0000
0000
0000
0000
,
0000
0000
0000
0000
,
0010
0000
0000
0000
,
0000
0000
0000
0000
,
0010
0000
0000
0000
,
0000
0000
0000
0000
,
0100
0000
0000
0000
,
0001
0000
0000
0000
,
1000
0000
0000
0000
,
0100
0000
0000
0000
,
0010
0000
0000
0000
,
0100
0000
0000
0000
,
1000
0000
0000
0000
,
0010
0000
0010
0000
,
0100
0000
0100
0000
,
0100
0000
0100
0000
,
0001
0000
0001
0000
,
0001
0000
0001
0000
,
0010
0000
0010
0000
,
0010
0000
0010
0000
,
0100
0000
0100
0000
,
0100
0000
0100
0000
,
1000
0000
1000
0000
,
1000
0000
1000
0000
,
0010
0000
0010
0000
,
0010
0000
0010
0000
,
0100
0000
0100
0000
,
0100
0000
0100
0000
,
0001
0000
0001
0000
,
1000
0000
1000
0000
;

//---------------dance-single - Telperion----------------
#NOTES:
     dance-single:
     Telperion:
     Easy:
     3:
     0.198,0.211,0.018,0.185,0.000:
0000
0000
0000
0000
,
0000
0000
0000
0000
,
0000
0000
0000
0000
,
0000
0000
0000
0000
,
2000
0000
0000
0000
0000
0000
0000
3000
,
0000
0000
0000
0000
,
0002
0000
0000
0000
0000
0000
0000
0003
,
0000
0000
0000
0000
,
0020
0000
0000
0000
0000
0000
0000
0030
,
0000
0000
0000
0000
,
0100
0010
0000
0010
,
0100
0000
1000
0001
,
0220
0000
0000
0300
,
1030
0000
0100
1000
,
0220
0000
0000
0030
,
0301
0000
0010
0001
,
2000
0000
0000
0000
0000
0000
0000
3000
,
0001
0100
0000
0100
,
0002
0000
0000
0000
0000
0000
0000
0003
,
1000
0100
0010
0000
,
0001
0010
1000
0100
,
0010
0100
0010
0000
,
2000
3000
0020
0030
,
0200
0300
0001
0000
,
1000
0010
0001
0100
,
0010
0100
0010
0000
,
0002
0003
2000
3000
,
0001
0010
0001
0000
,
2000
0000
0000
0000
0000
0000
0000
3000
,
0000
0000
0000
0000
,
0002
0000
0000
0000
0000
0000
0000
0003
,
0000
0000
0100
0100
,
0200
0000
0000
0000
0000
0000
0000
0300
,
0000
0000
0000
0000
,
0020
0000
0000
0000
0000
0000
0000
0030
,
0000
0000
0010
0010
,
0100
0000
0001
0000
,
0010
0010
0100
0100
,
1000
0000
0100
0000
,
0010
0001
0100
0100
,
0010
0000
1000
0000
,
0010
0100
0001
0010
,
0100
0000
0100
0000
,
0010
0000
0010
0100
,
1000
0100
0001
0010
,
0100
0010
0100
0000
,
0001
0100
0010
0100
,
1000
0100
0001
0000
,
0001
0100
1000
0010
,
0100
0010
0100
0000
,
1000
0100
0010
0001
,
1000
0100
0010
0000
,
0001
0100
1000
0010
,
0100
1000
0001
0000
,
0200
0300
0020
0030
,
2000
3000
0001
0001
,
1000
0100
0001
0010
,
1000
0100
0010
0000
,
0100
1000
0001
0010
,
0001
0100
0001
0001
;

//---------------dance-single - Telperion----------------
#NOTES:
     dance-single:
     Telperion:
     Medium:
     5:
     0.311,0.318,0.106,0.520,0.004:
0000
0000
0000
0000
,
0000
0000
0000
0000
,
0000
0000
0000
0000
,
0000
0000
0000
0000
,
2000
0000
0000
0000
,
0000
0000
0000
3000
,
0002
0000
0000
0000
,
0000
0000
0000
0003
,
0220
0000
0000
0000
,
0000
0000
0000
0330
,
0010
0100
0000
0100
,
0001
1000
0000
1000
0001
0000
0100
0000
,
0220
0000
0000
0000
0300
0000
0000
2000
,
0000
0000
3030
0000
,
2200
0000
0000
0000
0300
0000
0000
0002
,
0000
0000
0000
3003
,
0001
0000
0010
0100
0000
0000
0100
0000
,
1000
0000
0001
0100
0000
0000
0100
0000
,
0010
0000
1000
0010
0000
0000
0010
0000
,
0100
0000
0001
0000
0010
0100
0100
0000
,
2000
0000
0000
3020
0000
0000
0230
0000
,
0000
0302
0000
0000
0013
0100
0010
0000
,
0002
0103
2000
3010
,
0100
0001
0100
0010
0100
0000
0000
0000
,
0002
0000
0000
0023
0000
0000
0230
0000
,
0000
2300
0000
0000
3001
0100
0001
0000
,
2000
3100
0002
0013
,
1000
0000
1000
0000
0010
0100
0100
0000
,
0002
0000
0000
0000
0003
0000
0001
0020
,
0000
0000
0000
0030
0000
0000
0000
0000
,
0200
0000
0000
0000
0300
0000
0100
2000
,
0000
0000
0000
0000
0000
0000
3000
0000
0100
0000
0000
0010
0000
0000
0100
0000
,
0020
0000
0001
0000
0030
0000
0100
2000
,
0000
0000
0000
3000
0000
0000
1100
0000
,
0020
0000
1000
0000
0030
0000
0100
0002
,
0000
0000
0000
0103
0000
0000
0000
0000
,
0010
1000
0000
1000
0100
0000
0010
0000
,
0100
1000
0000
0000
0001
0000
0000
0100
,
0010
0100
0000
0100
0001
0000
1000
0000
,
0001
0100
0000
0000
0010
0000
0000
1000
,
0100
1000
0001
1000
,
0100
0010
0000
0000
0001
0000
0000
1000
,
0100
0000
0100
0000
0100
0000
0000
1000
,
0010
0100
0110
0110
,
1002
0000
0000
0023
0000
0000
2030
0000
,
0000
3020
0000
0000
0031
0100
0010
0000
,
2020
0000
3030
0000
0001
0010
0100
0000
,
1000
0000
1000
0000
0001
1000
0001
0000
,
2000
0000
0000
3020
0000
0000
0032
0000
,
0000
0023
0000
0000
0130
0001
0010
0000
,
2200
0000
3300
0000
0010
0100
0001
0000
,
0010
0010
0100
0010
,
0210
0000
0000
2300
0000
0000
3020
0000
,
0000
0230
0000
0000
1300
0100
0010
0000
,
2010
0000
0000
3002
0000
0000
0023
0000
,
0000
0230
0000
0000
0301
0100
1000
0000
,
0210
0000
0000
0302
0000
0000
0023
0000
,
0000
0230
0000
0000
0301
0100
0010
0000
,
0002
0000
0000
0203
0000
0000
0320
0000
,
0000
0230
0000
0000
1300
0100
0002
0000
,
0003
0000
0000
0000
;

//---------------dance-double - Telperion----------------
#NOTES:
     dance-double:
     Telperion:
     Hard:
     7:
     0.394,0.423,0.097,0.203,0.251:
00000000
00000000
00000000
00000000
,
00000000
00000000
00000000
00000000
,
00000000
00000000
00000000
00000000
,
00000000
00000000
00000000
00000000
,
00000200
00000000
00000000
00000000
00000000
00000000
00001000
00020300
,
00000000
00000000
00000000
00030000
,
00002000
00000000
00000000
00000000
00000000
00000000
00010000
02003000
,
00000000
00000000
00000000
03000000
,
00010000
00000000
01000000
00010000
00000000
00000000
00010000
00000000
,
10000000
00000000
01000000
10000000
00000000
00000000
01000000
00000000
,
00100000
00000000
00001000
00010000
00000000
00000000
00001000
00000000
,
00000100
00000001
00000000
00000001
00000010
00000100
00001000
00010000
,
00100000
00000000
01000000
00100000
00000000
00000000
00100000
00000000
,
00010000
00000000
00000000
00000000
01000000
00000000
00100000
00000000
10000000
00000000
00000000
00100000
00000000
00000000
01000000
00000000
,
00000000
00001000
00000000
00000000
00010000
00000100
00000010
00000001
,
00000000
00000000
00001000
00000001
00000000
00000000
00000001
00000000
,
00000100
00000010
00000000
00010000
00001000
00000000
00100000
01000000
,
00000000
10000000
00010000
10000000
00000000
00000000
10000000
00000000
,
00100000
00000000
00000000
01000000
00000000
00000000
00001000
00000000
00010000
00000000
00000000
00000000
00000100
00000000
00001000
00000000
,
00000100
00000010
00000100
00001000
00000000
00000001
00000001
00000000
,
00001000
00000000
00000000
00000001
00000000
00000000
00000010
00000000
00000000
00001000
00000000
00000000
00010000
00000000
00000000
00000100
,
00000000
00000000
00000010
00000000
00000000
00001000
00000000
00000000
00100000
00000000
01000000
00000000
00010000
00000000
00000000
00000000
,
00001000
00000000
00001000
00000000
01000000
00010000
01000000
00000000
,
00100000
10000000
00100000
01000000
00010000
00100000
00100000
00000000
,
01000000
00000000
00000000
10000000
00000000
00000000
00100000
00000000
00000000
00010000
00000000
00000000
00001000
00000000
00000000
01000000
,
00000000
00000000
00100000
00000000
00000000
00001000
00000000
00000000
00000010
00000000
00000100
00000000
00001000
00000000
00000000
00000000
,
00001100
00000000
00000110
00000000
00001000
00000100
00000010
00000000
,
00000001
00000010
00000100
00010000
00001000
00100000
00001000
00010000
,
01000000
00000000
20000000
30000000
00000000
00000000
10000000
00000000
,
00010000
00000000
02000000
03000000
00000000
00000000
01000000
00000000
,
00001000
00000000
00020000
00030000
00000000
00000000
00000100
00000000
,
00000010
00000000
00000000
00000000
00000001
00000000
00000000
00000000
00000100
00000000
00000000
00001000
00000000
00000000
00010000
00000000
,
01000000
00000000
10000000
00100000
00000000
00000000
01000000
00000000
,
00001000
00000000
00010000
01000000
00000000
00000000
00010000
00000000
,
00001000
00000000
00000000
00001000
00000100
00000000
00000010
00000000
00000000
00000000
00000000
00000000
00000010
00000000
00000000
00000000
,
00001000
00000000
00000000
00000001
00000000
00000000
00001000
00000001
00001000
00000001
00000000
00000000
,
00000100
00000000
00000000
00000001
00000000
00000000
00000010
00000000
00000000
00000100
00000000
00000000
00010000
00000000
00000000
00001000
,
00000000
00000000
00000100
00000000
00000000
00001000
00000000
00000000
00010000
00000000
00000000
01000000
00000000
00000000
10000000
00000000
,
00100000
00000000
00000000
10000000
00000000
00000000
01000000
00000000
00000000
00100000
00000000
00000000
00001000
00000000
00000000
00010000
,
00000000
00000000
00100000
00000000
00000000
01000000
00000000
00000000
00010000
00000000
10000000
00000000
10000000
00000000
00000000
00000000
,
01000000
00000000
00000000
10000000
00000000
00000000
00100000
00000000
00000000
01000000
00000000
00000000
00001000
00000000
00000000
00010000
,
00000000
00000000
00000100
00000000
00000000
00010000
00000000
00000000
00000010
00000000
00000000
00001000
00000000
00000000
00000001
00000000
,
00000010
00000000
00000000
00000000
00000100
00000000
00001000
00000000
00000000
00000001
00000000
00000000
00000100
00000000
00000000
00001000
,
00000000
00011000
00000000
00001000
00110000
00000000
11000000
10000000
,
00100000
00000000
00000000
01000000
00000000
00000000
10000000
00000000
00000000
01000000
00000000
00000000
00100000
00000000
00000000
00010000
,
00000000
00000000
00001000
00000000
00000000
00000100
00000000
00000000
00000001
00000000
00000010
00000000
00000100
00000000
00000000
00000000
,
00001100
00000000
00001010
00000000
00000100
00000010
00001000
00000100
,
00000000
00000100
00010000
00000010
00001000
00000001
00000001
00000000
,
00000010
00000000
00000000
00000100
00000000
00000000
00000001
00000000
00000000
00000100
00000000
00000000
00000010
00000000
00000000
00001000
,
00000000
00000000
00010000
00000000
00000000
01000000
00000000
00000000
10000000
00000000
00100000
00000000
01000000
00000000
00000000
00000000
,
11000000
01100000
10010000
01100000
,
00010000
01000000
00100000
01000000
10000000
01000000
00010000
00000000
,
00100000
00000000
00000000
00200000
00000000
00000000
01300000
00000000
00000000
02000000
00000000
00000000
03010000
00000000
00000000
00020000
,
00000000
00000000
00031000
00000000
00000000
00002000
00000000
00000000
00003100
00000000
00000000
00000100
00000000
00000000
00000001
00000000
,
00000010
00000000
00000000
00000020
00000000
00000000
00001030
00000000
00000000
00002000
00000000
00000000
00013000
00000000
00000000
00020000
,
00000000
00000000
00130000
00000000
00000000
00200000
00000000
00000000
10300000
00000000
00000000
10000000
00000000
00000000
01000000
00000000
,
00100000
00000000
00000000
00200000
00000000
00000000
00301000
00000000
00000000
00002000
00000000
00000000
00003100
00000000
00000000
00000200
,
00000000
00000000
00000301
00000000
00000000
00000002
00000000
00000000
00000013
00000000
00000100
00000000
00000010
00000000
00001000
00000000
,
00000010
00000000
00000000
00000020
00000000
00000000
00000031
00000000
00000000
00000002
00000000
00000000
00001003
00000000
00000000
00002000
,
00000000
00000000
00003001
00000000
00000000
00000100
00000000
00000000
00010000
00000000
00000000
01000000
00000000
00000000
20000000
00000000
,
30000000
00000000
00000000
00000000
;
