#TITLE:Icicles;
#SUBTITLE:;
#ARTIST:Jimmy WeckI;
#TITLETRANSLIT:;
#SUBTITLETRANSLIT:;
#ARTISTTRANSLIT:;
#GENRE:;
#CREDIT:Telperion;
#BANNER:[DDR Artists] - Icicles.png;
#BACKGROUND:[DDR Artists] - Icicles-bg.png;
#LYRICSPATH:;
#CDTITLE:;
#MUSIC:Icicles.ogg;
#OFFSET:-0.116492;
#SAMPLESTART:31.256001;
#SAMPLELENGTH:12.152000;
#SELECTABLE:YES;
#DISPLAYBPM:158.000000;
#BPMS:0.000000=158.000000;
#STOPS:;
#DELAYS:;
#TIMESIGNATURES:0.000000=4=4
;
#BGCHANGES:0.000=Icicles-bg.png=1.000=0=0=0=StretchNoLoop====,
1.612=Icicles.avi=1.000=0=0=1=====,
283.500=Icicles-bg.png=1.000=0=0=0=StretchNoLoop====,
99999=-nosongbg-=1.000=0=0=0 // don't automatically add -songbackground-
;
#KEYSOUNDS:;
#ATTACKS:;

//---------------dance-single - Telperion----------------
#NOTES:
     dance-single:
     Telperion:
     Hard:
     9:
     0.537,0.697,0.224,0.358,0.438,355.000,25.000,40.000,0.000,0.000,0.000,0.000,0.537,0.697,0.224,0.358,0.438,355.000,25.000,40.000,0.000,0.000,0.000,0.000: // measure 1
0000
0000
0000
0000
,  // measure 2
0000
0000
0000
0000
,  // measure 3
0000
0000
0000
0000
,  // measure 4
0000
0000
0000
0000
,  // measure 5
0000
0000
0000
0000
0000
0000
1000
0000
0001
0000
0010
0000
,  // measure 6
0100
0000
0000
0000
0010
0000
0000
0000
0001
0000
0000
0000
0000
0000
0000
0000
0000
0000
0000
0101
0000
0000
0000
0000
,  // measure 7
0000
1010
0000
0000
1100
0000
0000
0011
,  // measure 8
0000
0220
0000
0000
,  // measure 9
0000
0000
0000
0000
0330
0000
0000
0000
1000
0000
0000
0000
0001
0000
0000
0002
,  // measure 10
0000
0000
0000
0000
0003
0000
0100
0000
0010
0000
0000
0010
0000
0000
0010
0000
,  // measure 11
0000
0000
0000
0000
1001
0000
0000
0000
0000
0000
0000
0000
1000
0000
0000
2000
,  // measure 12
0000
0000
0000
0000
3000
0000
0100
0000
0010
0000
0000
0100
0000
0000
1000
0000
,  // measure 13
0000
0000
0001
0000
1000
0000
0000
0000
1000
0000
0000
0000
0001
0100
0010
2000
,  // measure 14
0000
0000
0000
0000
3000
0000
0010
0000
1000
0000
0000
0010
0000
0000
0010
0000
,  // measure 15
0000
0000
1000
0000
0001
0000
0000
0000
0001
0000
0000
0000
1000
0100
0010
0002
,  // measure 16
0000
0000
0000
0000
0003
0000
0010
0000
0100
0000
0000
0010
0000
0000
0010
0000
,  // measure 17
0000
0000
0001
0000
0000
0000
1000
0000
0001
0000
0000
0100
0000
0000
1000
0000
,  // measure 18
0000
0100
1010
0000
0000
0200
0000
1300
,  // measure 19
0000
0000
0100
0000
0010
0000
0100
0000
1000
0000
0000
0100
0000
0000
0001
0000
,  // measure 20
0000
0100
1001
0000
0000
0002
0000
0103
,  // measure 21
0000
0000
0010
0000
0010
0000
1000
0000
1000
0000
0000
0000
0001
0010
0001
2000
,  // measure 22
0000
0000
0000
0000
3010
0000
0000
0000
0100
0000
0000
1000
0000
0000
0100
0000
,  // measure 23
0010
0000
1000
0000
1001
0000
0000
0000
0001
0000
0000
0000
1000
0010
1000
0002
,  // measure 24
0000
0000
0000
0000
0013
0000
0001
0000
0010
0000
0000
0100
0000
0000
0100
0000
,  // measure 25
0000
0000
0010
0000
0001
0000
0000
0000
1000
0000
0000
0000
0001
0010
0100
2000
,  // measure 26
0000
0000
0000
0000
3010
0000
0000
0000
1000
0000
0000
0100
0000
0000
0001
0000
,  // measure 27
0100
0000
1000
0000
1010
0000
0000
0000
0001
0000
0000
0000
1000
0010
0100
0002
,  // measure 28
0000
0000
0000
0000
0013
0000
0001
0000
0010
0000
0100
1000
0000
0100
1000
0000
,  // measure 29
0001
1000
0001
0000
0100
0000
0000
0000
0010
0000
0000
0010
0000
0000
0100
0000
,  // measure 30
1000
0000
0100
0000
0001
0000
0000
0000
0010
0000
0000
0010
0000
0000
0010
0000
,  // measure 31
0000
0000
0000
0000
0000
0000
0000
0000
0100
0000
0000
0001
0000
0000
0100
0000
,  // measure 32
1000
0000
0010
0000
0100
0000
0000
0000
0100
0000
0000
0001
0000
0000
0001
0000
,  // measure 33
0000
0000
1000
0000
0001
0000
0000
0000
0010
0000
0000
0100
0000
0000
1000
0000
,  // measure 34
0000
0000
0000
0000
1100
0000
0000
0000
0010
0000
0000
0100
0000
0000
0001
0000
,  // measure 35
0000
0000
0000
0000
0101
0000
0000
0000
0010
0000
0000
1000
0010
0000
0200
0000
,  // measure 36
0000
0000
0300
0000
0001
0000
0000
1000
0100
0000
0020
0000
0000
0000
0030
0000
,  // measure 37
0100
0000
0000
1000
0001
0000
0200
0000
0000
0000
0300
0000
1000
0000
0000
0100
,  // measure 38
0001
0000
0020
0000
0000
0000
0030
0000
0100
0000
0000
0010
0002
0000
2000
0000
,  // measure 39
0000
0000
0000
0000
0000
0000
0000
0003
,  // measure 40
0000
0000
3000
0000
0000
0000
0000
0000
0101
0000
0000
0101
0000
0000
0101
0000
,  // measure 41
0001
0000
0010
0100
0000
1000
0000
0000
0100
0010
0000
0000
1001
0000
0000
0110
,  // measure 42
0000
0000
1010
0000
1000
0000
0010
0000
0100
0000
0000
0100
0000
0000
0001
0000
,  // measure 43
0000
0001
0000
0000
1000
0000
0001
0000
1000
0100
1000
0000
0001
0100
0001
0000
,  // measure 44
1000
0010
1000
0000
0010
0000
0010
0000
0200
0000
0000
0000
1000
0000
0320
0000
,  // measure 45
0000
2030
0000
3200
0000
0001
0000
2300
,  // measure 46
0000
0002
3003
0000
0020
0000
0100
0032
,  // measure 47
0000
0000
0000
0000
0000
0000
0203
0000
0000
0000
0000
0000
0000
0000
0000
0000
0000
0000
0310
0000
0000
0000
0000
0000
0000
0000
0000
0000
0000
0000
0000
0000
0000
1000
0000
0000
0000
0000
0000
0000
0010
0000
0000
0000
0000
0000
0000
0000
,  // measure 48
0000
0100
0000
0000
0000
0000
0010
0000
0000
0010
0000
0000
2000
0000
0000
0000
0000
0000
0100
0000
0000
3002
0000
0000
,  // measure 49
0000
0023
0000
2030
0000
3020
0000
0032
,  // measure 50
0000
0000
0000
0200
0000
0000
0303
0000
0000
0000
0000
0000
1010
0000
0000
0000
1000
0000
0000
0000
0100
0000
0000
0000
,  // measure 51
0010
0000
1000
0000
0001
0000
0100
0000
0010
0000
0001
0000
,  // measure 52
0100
0000
0100
0000
0100
0000
0000
0000
0000
0000
0000
0000
,  // measure 53
0000
0000
0000
0000
0000
0000
0000
0000
0001
0000
0000
0000
1000
0100
0010
0002
,  // measure 54
0000
0000
0000
0000
0003
0000
0100
0000
0100
0000
0000
0010
0000
0000
1000
0000
,  // measure 55
0000
0000
0010
0000
0100
0000
0010
0000
1000
0000
0000
0000
0001
0010
0100
2000
,  // measure 56
0000
0000
0000
0000
3000
0000
0100
0000
0100
0000
0000
0010
0000
0000
0100
0000
,  // measure 57
1000
0000
0100
0000
0010
0000
0000
0000
1001
0000
0000
0000
0001
1000
0010
0200
,  // measure 58
0000
0000
0000
0000
0300
0000
0100
0000
0001
0000
0000
0010
0000
0000
1000
0000
,  // measure 59
0000
0000
0010
0000
0001
0000
1000
0000
0001
0000
0000
0000
1000
0001
0100
0020
,  // measure 60
0000
0000
0000
0000
0030
0000
0100
0000
0010
0000
0100
0001
0000
0100
0001
0000
,  // measure 61
1000
0000
0000
0100
0000
0000
1000
0000
0000
0000
0000
0000
0001
0000
0000
0000
0000
0000
0000
0000
0000
0000
0000
0000
0100
0000
0000
0000
0000
0000
0000
0000
0000
0000
0000
0000
0010
0000
0000
0000
1000
0000
0000
0000
0000
0000
0000
0000
,  // measure 62
0010
0000
0000
0100
0001
0000
0010
0000
0100
0000
0000
1000
,  // measure 63
0100
0000
0010
0000
0001
0000
0101
0000
1000
0000
0100
0000
,  // measure 64
0001
0000
0100
0000
0010
0000
0011
0000
1000
0000
0010
0000
,  // measure 65
0100
0000
0000
0000
1000
0000
0000
0000
0100
0000
0000
0000
0001
0000
0000
0000
0000
0000
0000
0000
0000
1100
0000
0000
,  // measure 66
0000
0000
0000
0000
1000
0100
1000
0100
0010
0000
0000
0000
0000
0000
1001
0000
,  // measure 67
0000
0000
0000
0000
0001
0000
0001
0100
0010
0000
0100
0000
1000
0000
0001
0000
,  // measure 68
0010
1000
0100
0010
1000
0001
0100
0010
,  // measure 69
0001
0000
0010
0001
0010
0001
0010
0000
0100
0000
1000
0000
0010
0000
1000
0010
,  // measure 70
1000
0010
1000
0000
0010
0000
0100
0000
0001
0000
1000
0000
0220
0000
0000
0000
,  // measure 71
0000
0000
0000
0000
0030
0000
0000
0300
;

//---------------dance-single - Telperion----------------
#NOTES:
     dance-single:
     Telperion:
     Medium:
     7:
     0.392,0.571,0.250,0.233,0.116,253.000,28.000,26.000,0.000,0.000,0.000,0.000,0.392,0.571,0.250,0.233,0.116,253.000,28.000,26.000,0.000,0.000,0.000,0.000:
0000
0000
0000
0000
,
0000
0000
0000
0000
,
0000
0000
0000
0000
,
0000
0000
0000
0000
,
0000
0000
1010
0000
,
0101
0000
0100
0001
,
0000
1000
0000
0000
0001
0000
0000
0110
,
0000
2002
0000
0000
,
0000
0000
3003
0000
0010
0000
0001
0100
,
1000
0000
0000
0000
0001
0000
0000
1000
,
0000
0000
1000
0000
0010
0000
1000
0100
,
0001
0000
0000
0000
1000
0000
0000
0001
,
0000
0000
0100
0000
0010
0000
0100
0010
,
0001
0000
0000
0010
1000
0000
0000
1000
,
0000
0000
0001
0000
0010
0000
0100
0010
,
1000
0000
0000
0000
0000
0000
0010
0000
0001
0000
0000
1000
0000
0000
0010
0000
,
0000
0000
0000
0000
0010
0000
0000
0000
0100
0000
0000
0010
0000
0000
1000
0000
,
0000
0000
1000
0000
0000
0002
0000
0000
,
0000
0000
0000
0000
0003
0000
0000
0000
0010
0000
0000
0100
0000
0000
0010
0000
,
0000
0000
0001
0000
0001
2000
0000
0000
,
0000
0000
3000
0000
0010
0000
0100
1000
,
0100
0000
0000
0000
0000
0000
0000
0000
0001
0000
0000
0010
0000
0000
0100
0000
,
0000
0000
0100
0000
0010
0000
0100
0001
,
0100
0000
0000
0000
0000
0000
0000
0000
1000
0000
0000
0010
0000
0000
0100
0000
,
0000
0000
0110
0000
1001
0000
0001
0010
,
1000
0000
0000
0000
0000
0000
0000
0000
0010
0000
0000
0100
0000
0000
1000
0000
,
0000
0000
1010
0000
0001
0000
1000
0010
,
0001
0000
0000
0000
0000
0000
0000
0000
0010
0000
0000
0100
0000
0000
0001
0000
,
1000
0001
0001
0000
0100
0000
0000
0100
,
0010
0000
0000
0000
0000
0000
0010
0000
1000
0000
0000
1000
0000
0000
1000
0000
,
0000
0000
0000
0000
0001
0000
0000
0010
,
0000
0100
0000
0000
0100
0000
0000
1000
,
0000
0001
0000
0000
0100
0000
0000
0100
,
0001
0000
0000
0001
1000
0000
0000
0100
,
0000
0100
0000
0000
1100
0000
0000
1001
,
0000
0000
0101
0000
0000
0110
0000
0000
,
1001
0000
0000
0110
0000
0000
1001
0000
,
0000
0110
0000
0000
0101
0000
0000
2020
,
0000
0000
0000
0000
0000
0000
0000
0030
,
0000
0000
3000
0000
0000
0000
0000
0000
0001
0000
0000
0001
0000
0000
0001
0000
,
1000
0000
0000
0000
0110
0000
0000
0000
2000
0000
0000
0000
3020
0000
0000
0230
,
0000
0000
0302
0000
0103
0000
0000
0000
0010
0000
0000
0010
0000
0000
1000
0000
,
0000
1000
0000
0000
0001
0000
1000
0000
0001
0000
0010
0000
0100
0000
1000
0000
,
0001
0010
0100
1000
0200
0000
0000
0302
,
0000
0203
0000
2300
0000
3020
0000
0230
,
0000
0002
0303
0000
0020
0000
0000
2030
,
0000
3020
0000
0032
0000
0000
0000
0000
,
2000
0000
3003
0000
0110
0000
0010
1000
,
0000
1000
0000
0001
0000
0001
0000
0010
,
0000
0000
0000
0010
0000
0000
0100
0000
0000
0000
0000
0000
0110
0000
0000
0000
0010
0000
0000
0000
0001
0000
0000
0000
,
1000
0000
0010
0000
0100
0000
0001
0000
0010
0000
0100
0000
,
1000
0000
0010
0000
0001
0000
0000
0000
0000
0000
0000
0000
,
0000
0000
0000
0000
1000
0000
0001
0100
,
0010
0000
0000
0000
0100
0000
0000
0001
,
0000
0000
0010
0000
0100
0000
1000
0100
,
0001
0000
0000
0000
1000
0000
0000
0001
,
0000
0000
0110
0000
1000
0000
0001
0100
,
1000
0000
0000
0000
0000
0000
0000
0000
0100
0000
0000
0010
0000
0000
1000
0000
,
0000
0000
1100
0000
0010
0000
1000
0010
,
0001
0000
0000
0000
1000
0000
0001
0000
0100
0000
0000
0010
0000
0000
0010
0000
,
1000
0001
1000
0000
2010
0000
0000
0000
,
3100
0000
0012
0000
,
0103
0000
0000
0000
0000
0000
1010
0000
0000
0000
1000
0000
,
0100
0000
0000
0000
0010
0000
0001
0000
0000
0000
0001
0000
,
0100
0000
0000
0000
0000
0000
0000
0000
0010
0000
0000
0000
1000
0000
0000
0010
0000
0000
0100
0000
0000
0001
0000
0000
,
0010
0100
0000
0000
1000
0010
0100
1000
,
0100
0010
0000
0000
1000
0100
0010
0001
,
0010
0100
1000
0010
0100
0001
0100
0000
,
1010
1000
0001
0010
0100
0000
0110
0010
,
0001
1000
0010
0000
0100
0100
2002
0000
,
0000
0000
0000
0000
0003
0000
0000
3000
;

//---------------dance-single - Telperion----------------
#NOTES:
     dance-single:
     Telperion:
     Easy:
     4:
     0.248,0.317,0.161,0.224,0.004,151.000,18.000,25.000,0.000,0.000,0.000,0.000,0.248,0.317,0.161,0.224,0.004,151.000,18.000,25.000,0.000,0.000,0.000,0.000:
0000
0000
0000
0000
,
0000
0000
0000
0000
,
0000
0000
0000
0000
,
0000
0000
0000
0000
,
0000
0000
1000
0000
,
0001
0000
0000
0010
,
0000
0100
0000
0000
1000
0000
0000
0001
,
0000
0200
0000
0000
,
0000
0300
0000
0001
,
0000
0000
0001
0000
1000
0000
0000
0100
,
0000
0010
0000
0001
,
0000
0000
0001
0000
0010
0000
0000
0100
,
0000
0010
0000
1000
,
0000
0000
1000
0000
0010
0000
0000
0100
,
0000
0010
0000
1000
,
0000
0000
1000
0000
0001
0000
0000
0010
,
0000
0001
0200
0000
,
0000
0000
0310
0000
0000
0010
0000
0000
,
0000
0000
0200
0000
,
0000
0000
0310
0000
0000
0010
0000
0000
,
0000
0000
0000
1000
,
0000
0000
1000
0000
0001
0000
0000
0010
,
0000
0100
0000
1000
,
0000
0000
1000
0000
0001
0000
0000
0100
,
0000
0010
0000
0001
,
0000
0000
0001
0000
1000
0000
0000
1000
,
0000
0001
0000
0010
,
0000
0010
0100
0010
,
0001
1000
0210
0000
,
0301
0000
0000
0000
0022
0000
0000
0003
,
0030
0001
0200
0000
,
0310
0000
0100
0000
0001
0000
0000
1000
,
0000
0001
0210
0000
,
1300
0000
0000
0000
2002
0000
0000
3000
,
0000
0003
1000
0000
0001
0000
0000
0001
,
0000
0000
0010
0000
0000
0010
0000
0000
,
1000
0000
0000
1000
0000
0000
0100
0000
,
0000
0100
0000
0000
0002
0000
0000
2000
,
0000
0000
0000
0000
0000
0000
0000
0003
,
0000
0000
0000
0000
3000
0000
0000
0000
0010
0000
0000
0010
0000
0000
0020
0000
,
0000
0030
0100
0001
,
1000
0000
0100
0000
0010
0000
0000
0010
,
0000
0010
0001
0010
,
0100
1000
0002
0000
,
0103
0000
2000
0000
,
3010
0000
0200
0000
,
0301
0000
0002
0000
,
0013
0100
2000
0000
,
3100
0000
0002
0000
,
0103
0000
0010
0000
,
0110
0000
0101
0000
,
1001
0000
0000
0000
,
0000
0000
0001
1000
,
0000
0000
1000
0000
0100
0000
0000
0010
,
0000
0001
0000
1000
,
0000
0000
1000
0000
0010
0000
0000
0100
,
0000
0010
0000
0001
,
0000
0000
0001
0000
0010
0000
0000
0100
,
0000
0010
0000
0001
,
0000
0000
0001
0000
1000
0000
0000
0010
,
0000
0100
0120
0000
,
1030
0000
0120
0000
,
0031
0000
2100
0000
,
3010
0000
0102
0000
,
0013
0000
0000
0000
1000
0000
0000
1100
,
0000
0000
0000
0000
0001
0000
0000
0101
,
0000
0000
0000
0000
0010
0000
0000
1100
,
0000
0000
1000
0000
0000
0101
0000
0000
,
0010
0000
0000
1001
0000
0000
0100
0000
,
0000
1001
0000
0000
0000
0000
0220
0000
,
0000
0000
0000
0000
0030
0000
0000
0300
;
