#TITLE:Colors of Sorrow;
#SUBTITLE:;
#ARTIST:Tsukasa;
#TITLETRANSLIT:;
#SUBTITLETRANSLIT:;
#ARTISTTRANSLIT:;
#GENRE:;
#CREDIT:Telperion;
#BANNER:;
#BACKGROUND:;
#LYRICSPATH:;
#CDTITLE:;
#MUSIC:Colors of Sorrow.mp3;
#OFFSET:-1.871;
#SAMPLESTART:15.298;
#SAMPLELENGTH:20.140;
#SELECTABLE:YES;
#DISPLAYBPM:71.500:143.000;
#BPMS:0.000=143.000,64.000=71.500,80.000=143.000;
#STOPS:;
#BGCHANGES:-4.000=Colors of Sorrow.avi=1.000=0=0=0=StretchNoLoop====,
99999=-nosongbg-=1.000=0=0=0 // don't automatically add -songbackground-
;
#KEYSOUNDS:;

//---------------dance-single - Telperion----------------
#NOTES:
     dance-single:
     Telperion:
     Challenge:
     9:
     0.571,0.598,0.431,0.113,0.420:
0000
0000
0000
0000
,
0000
0000
0000
0000
,
0000
0000
0000
0000
,
0000
0000
0000
0000
,
0010
0000
0100
0000
0000
0100
0000
0010
0000
1000
0000
0000
1000
0000
0100
0000
,
0010
0000
0001
0000
0000
0001
0000
0100
0000
0010
0000
0000
0010
0000
0100
0000
,
0001
0000
1000
0000
0000
1000
0000
0100
0000
1000
0000
0000
1000
0000
0002
0000
,
2000
0000
3003
1000
0011
0100
1100
0010
,
0110
0000
0110
0000
0001
1000
1100
0000
,
0101
0000
1100
0000
0001
1000
1010
0000
,
0100
0000
0010
0000
0001
0100
0000
0100
0010
0000
0010
1000
0000
1000
0010
0000
,
0010
0100
0000
0100
0001
0000
1000
0000
0000
0000
2001
0000
0000
0000
0000
0000
,
3001
0000
1001
0000
0010
0100
0011
0000
,
1010
0000
0011
0000
0100
1000
0110
0000
,
0010
0000
1000
0000
1000
0100
0000
0100
0010
0000
0010
0001
0000
0001
0010
0000
,
0100
0000
0000
1000
0000
0000
0001
0000
0100
0000
0000
0011
0000
0000
1000
0000
,
1001
0000
0000
0000
0000
0000
0000
0000
0000
0000
0000
0000
0000
0000
0000
0000
0000
0000
0000
0000
0000
0000
1000
0000
0000
0000
0001
0000
0000
0011
0000
0000
,
1001
0000
0000
0000
0000
0000
0000
0000
0000
0000
0000
0000
0000
0000
0000
0000
1000
0000
0000
0000
0000
0000
0001
0000
0000
0000
1000
0000
0000
1010
0000
0000
,
0110
0000
0000
0000
0010
0000
0000
0000
0100
0000
0000
0000
1000
0000
0000
0000
0100
0000
0000
0000
0001
0000
0100
0000
0000
0000
0100
0000
0000
0010
1000
0000
,
0200
0000
0000
0000
0010
0000
0000
0000
0000
0000
0000
0000
0310
0000
0000
0000
0100
0000
0000
0000
0000
0000
0100
0000
1000
0000
0001
0000
0100
0001
1000
0000
,
0100
1000
0100
0001
0100
0010
0100
0001
,
1000
0010
0001
1000
0100
0010
0001
0000
,
0001
0100
1000
0100
0001
0100
1000
0100
,
0001
0010
0100
1000
0001
0010
0100
0010
,
0001
0100
0110
0010
1000
0100
0101
0000
,
0100
1000
1001
0001
0100
0010
0100
0010
,
0100
0000
0000
1000
0000
0000
0100
0000
0000
0001
0000
0000
0010
0000
0100
0000
,
1000
0100
1000
0010
0100
0010
0100
0001
0010
0100
1000
0100
0010
0001
1000
0000
,
0001
0000
0100
0000
0001
0000
1000
0100
0000
0100
1000
0000
0001
0000
0100
0000
,
1000
0000
0100
0000
0010
0000
0100
0001
0000
0001
0010
0000
0001
0000
0100
0000
,
0010
1000
1100
0000
1000
0001
0011
0000
,
0010
0000
0010
0100
0000
0100
0010
0000
0000
0000
2001
0000
0000
0000
0000
0000
,
3001
0010
1000
0010
0010
0100
1000
0100
,
0010
0000
0001
0000
0100
0000
0010
0100
0010
0100
0010
0000
1000
0000
0100
0000
,
1000
0000
0000
0010
0000
0000
0100
0000
0001
0000
0000
0100
0000
0000
1000
0000
,
0001
0000
0000
0010
0000
0000
1000
0000
0000
0000
0220
0000
0000
0000
0000
0000
,
0330
0000
1001
0000
1000
0100
0001
0000
,
0100
0001
0100
1000
0001
0100
0100
0010
,
0010
0000
1100
0000
1000
0001
0101
0000
,
0010
0000
0010
1000
0000
1000
0100
0000
0000
0000
0110
0000
0001
0000
0100
0000
,
1200
0000
0000
0000
0010
0000
0000
1000
0000
0000
0301
0000
0000
1010
0000
0000
,
0012
0000
0000
0000
1000
0000
0000
0013
0000
0000
0011
0000
0000
1100
0000
0000
,
1002
0000
0000
0000
0103
0000
1000
0000
0000
0001
0000
0000
0100
0000
1000
0000
,
0001
0000
0000
0000
1001
0000
0000
0000
0001
0000
1000
0010
0000
1000
0100
0000
,
0010
0000
0001
0000
0000
0100
0000
0010
0000
1000
0000
0000
1000
0000
0100
0000
,
0010
0000
0100
0000
0000
0100
0000
1000
0000
0001
0000
0000
0001
0000
1000
0000
,
0100
0000
0001
0000
0000
0001
0000
0100
0000
1000
0000
0000
1000
0000
0001
0000
,
0100
0001
1000
0010
0100
0001
0010
0100
,
1000
0000
0010
0000
0000
0100
0000
1000
0000
0100
0000
0000
1000
0000
0100
0000
,
0010
0000
1000
0000
0000
0100
0000
0010
0000
0100
0000
0000
0001
0000
0100
0000
,
0110
0000
0000
0000
1001
0000
0000
0010
,
1010
0000
0100
0000
0110
0000
0001
0000
0100
0010
0000
0010
0100
0001
2000
0000
,
0000
0000
0000
0000
,
3000
0000
0000
0000
;

//---------------dance-single - Telperion----------------
#NOTES:
     dance-single:
     Telperion:
     Hard:
     8:
     0.488,0.489,0.287,0.174,0.272:
0000
0000
0000
0000
,
0000
0000
0000
0000
,
0000
0000
0000
0000
,
0000
0000
0000
0000
,
1000
0000
0001
0000
0100
0000
0000
0010
0000
0000
0100
0000
0001
0000
0000
0000
,
1000
0000
0100
0000
0010
0000
0000
0100
0000
0000
0010
0000
0001
0000
0000
0000
,
0100
0001
1000
0100
,
0110
0000
0000
0000
0000
0000
0010
0000
0100
1000
0000
0001
0100
0001
0000
1000
,
0100
0010
0110
0000
0001
0100
0110
0000
,
1000
0100
0011
0000
0001
1000
1010
0000
,
0100
0000
1000
0000
0100
0010
0000
0010
0100
0000
0000
0001
0000
0000
0010
0000
,
0100
0000
0000
1000
0000
0000
0001
0000
0000
0000
2001
0000
0000
0000
0000
0000
,
3001
1000
1100
0000
1000
0001
0101
0000
,
0010
0100
1001
0000
0010
0001
0101
0000
,
0010
0000
1000
0000
0100
0010
0000
0010
0001
0000
0001
0100
0000
0100
0010
0000
,
2000
0000
0000
0000
0000
0000
0000
0000
0001
0000
0000
3001
0000
0000
1000
0000
,
1001
0000
0000
0000
0000
0000
0000
0000
0000
0000
0000
0000
0000
0000
0000
0000
0000
0000
0000
0000
0000
0000
0001
0000
0000
0000
1000
0000
0000
0001
0000
0000
,
0010
0000
0000
0000
0000
0000
0000
0000
0000
0000
0000
0000
0000
0000
0000
0000
0100
0000
0000
0000
0000
0000
1000
0000
0000
0000
0001
0000
0000
1000
0000
0000
,
0001
0000
0000
0000
0100
0000
0000
0000
0000
0000
0000
0000
0100
0000
0000
0000
0000
0000
0000
0000
0100
0000
0100
0000
0000
0000
0001
0000
0000
1000
0000
0000
,
0100
0000
0010
0000
0001
0000
0100
0000
0010
0000
0100
0010
0010
0000
0100
0010
,
0010
0000
1100
0000
0010
0001
0101
0000
,
0010
0000
0101
0000
0001
1000
0100
1000
,
0001
0000
0011
0000
1000
0010
1010
0000
,
0100
0110
0001
0101
,
0010
0100
0010
0000
0001
0100
0001
0010
,
0100
1000
0100
0000
1000
0001
0100
1000
,
0100
0000
0000
0010
0000
0000
1000
0000
0000
0100
0000
0000
0010
0000
0001
0000
,
0100
0001
0100
0000
0010
0100
0010
0000
1000
0010
1000
0000
0100
1000
0100
0000
,
1000
0001
0101
0010
0100
0000
1100
0000
,
1000
0100
0010
0100
0001
0100
0010
0001
,
0010
0200
1000
0000
0001
0000
0310
0001
,
0200
0000
1000
0000
0001
0000
0310
0100
,
0001
1000
1100
0010
0100
0000
0001
0100
,
0001
0000
0000
0000
1000
0000
0100
0000
1000
0000
0001
0100
0000
0100
0010
0000
,
1000
0001
1000
0100
0000
0100
0010
0001
,
0000
0000
0001
0100
0000
0100
0010
0000
0000
0000
0110
0000
0000
0000
0000
0000
,
2000
0000
3001
0000
0001
1000
0100
0000
,
0100
1000
0100
0010
0001
0100
1000
0100
,
0010
0000
1010
0000
0001
0010
0100
0010
,
0000
0000
0010
0100
0000
0100
1000
0000
0000
0000
1001
0000
0000
0001
0000
0000
,
0200
0000
0000
0000
0000
0000
0000
0000
0000
0000
1000
0000
0000
0001
0000
0000
,
0320
0000
0000
0000
0000
0000
0000
0000
0000
0000
2030
0000
0000
3200
0000
0000
,
0301
0000
0000
0100
0000
0000
1000
0000
0000
0001
0000
0000
0100
0000
1000
0000
,
0200
0000
0000
0000
0301
0000
0000
0000
1100
0000
0000
0101
0000
0000
0010
0000
,
0110
0021
1000
0032
,
0103
0000
0010
0000
1000
0000
0000
0010
0000
1000
0100
0000
0010
0000
0000
0000
,
0100
0000
0010
0000
0001
0000
0000
0100
0000
0010
0100
0000
0001
0000
0000
0000
,
1000
0000
0100
0000
0001
0000
0100
0010
0000
0001
0000
0100
0010
0000
1000
0000
,
0002
0000
0000
0000
,
0003
0000
0000
0000
0000
0000
0000
0002
,
1000
0000
0003
2000
0001
0000
3000
0001
,
1000
0000
0100
0000
0010
0000
0001
0000
1000
0010
0000
0010
0200
0000
0020
0000
,
0300
0000
0000
0000
,
0030
0000
0000
0000
;

//---------------dance-double - Telperion----------------
#NOTES:
     dance-double:
     Telperion:
     Hard:
     8:
     0.475,0.435,0.174,0.092,0.179:
00000000
00000000
00000000
00000000
,
00000000
00000000
00000000
00000000
,
00000000
00000000
00000000
00000000
,
00000000
00000000
00000000
00000000
,
10000000
00000000
01000000
00000000
00010000
00000000
00000000
00001000
00000000
00000000
00010000
00000000
00100000
00000000
00010000
00000000
,
00001000
00000000
00000100
00000000
00000001
00000000
00000000
00000100
00000000
00000000
00000010
00000000
00001000
00000000
00000100
00000000
,
00000010
00000000
00000001
00000000
00000010
00000000
00000000
00001000
00000000
00000000
00010000
00000000
00001000
00000000
00020000
00000000
,
00001000
00000000
00000000
00000000
00000000
00000000
00031000
00000000
00010000
00001000
00000000
00001000
00100000
01000000
00000000
10000000
,
00100000
01000000
00010000
01000000
00100000
00010000
00001000
00000000
,
00010000
00001000
00100000
01000000
00010000
01000000
10000000
00010000
,
01000000
00000000
10000000
00000000
00000000
01000000
00000000
00000000
00010000
00000000
00000000
00000100
00000000
00000000
00000010
00000000
,
00000100
00000000
00000000
00000100
00000000
00000000
00000001
00000000
00000000
00000000
00001002
00000000
00000000
00000000
00000000
00000000
,
00000013
00000100
00001000
00000100
00000010
00001000
00010000
00000000
,
00001000
00010000
00000100
00010000
00001000
00000100
00000010
00000100
,
00000001
00000000
00000010
00000000
00000000
00001000
00000000
00000000
00100000
00000000
00000000
01000000
00000000
00000000
00100000
00000000
,
00010000
00000000
00000000
01000000
00000000
00000000
00100000
00000000
10000000
00000000
00000000
00010000
00000000
00000000
10000000
00000000
,
10010000
00000000
00000000
00000000
,
01100000
00000000
01001000
00000000
,
00011000
00001000
00000000
00001000
00000000
00001000
00000000
00001000
,
00010000
00000000
00001000
00000000
00000000
00000000
00001000
00000000
00000010
00000000
00000000
00000010
00000001
00000100
00000010
00000100
,
00000001
00000010
00000100
00010000
00001000
00000010
00001000
00000000
,
00010000
00001000
00100000
00000000
01000000
10000000
00100000
00000000
,
01000000
10000000
01000000
00100000
10000000
00010000
10000000
00000000
,
10000000
01000000
00100000
00010000
00100000
00001000
00010000
00000010
,
00001000
00000100
00000010
00000000
00000100
00001000
00000001
00000100
,
00000010
00000100
00001000
00000000
00010000
00001000
00010000
01000000
,
10000000
00000000
00000000
01000000
00000000
00000000
00100000
00000000
00000000
00001000
00000000
00000000
00010000
00000000
00001000
00000000
,
00000100
00000001
00000010
00000100
00001000
00010000
00100000
01000000
,
00100000
00010000
01000000
10000000
01000000
00100000
01000000
00010000
,
00100000
01000000
00010000
00001000
02000000
00000000
00010000
00000000
,
03001000
00010000
00001000
00010000
00100000
01000000
00010000
00100000
,
01000000
00000000
00000000
00010000
00000000
00000000
00001000
00000000
00000000
00000000
00000200
00000000
00000000
00000000
00000000
00000000
,
00001300
00020000
00000100
00031000
00010000
00000100
00001000
00000100
,
00000010
00000000
00000000
00000000
00000010
00000000
00000001
00000000
00000100
00000000
00000000
00001000
00000000
00000000
00000100
00000000
,
00000010
00000000
00001000
00000000
00000100
00000000
00000000
00000000
00010000
00000000
00000000
00001000
00000000
00000000
00100000
00000000
,
00010000
00000000
00000000
01010000
00000000
00000000
01100000
00000000
00000000
00000000
20010000
00000000
00000000
00000000
00000000
00000000
,
31000000
00000000
01010000
00000000
00001000
00010000
00001000
00000000
,
00000100
00001000
00000100
00000010
00000100
00000001
00000010
00000100
,
00001000
00000000
00000001
00000000
00000001
00000000
00000000
00000000
00001000
00000000
00000000
00000010
00000000
00000000
00000100
00000000
,
00001000
00000000
00000000
00010000
00000000
00000000
01000000
00000000
00000000
00000000
00010000
00000000
00001000
00000000
01000000
00000000
,
00100000
00000000
00000000
00000000
00000000
00000000
00000000
00000000
00000000
00000000
00110000
00000000
00000000
00011000
00000000
00000000
,
00101000
00000000
00000000
00000000
00000000
00000000
00000000
00000000
00000000
00000000
01100000
00000000
00000000
01010000
00000000
00000000
,
00011000
00000000
00000000
00000100
00000000
00000000
00000010
00000000
00000000
00001000
00000000
00000000
00000100
00000000
00000010
00000000
,
00000011
00000000
00000000
00000000
00000001
00000000
00000100
00000000
00001000
00000000
00010000
01000000
00000000
01000000
10000000
00000000
,
00010000
01000000
00100000
10000000
01000000
00010000
00001000
00000000
,
00001000
00000100
00000010
00001000
00000100
00000010
00000001
00000000
,
00000100
00001000
00000100
00000010
00001000
00000100
00010000
00000000
,
00010000
01000000
00100000
00010000
10000000
01000000
00100000
00010000
,
01000000
00000000
00000000
00000000
02000000
00000000
00000000
00100000
00000000
00000000
00000000
00000000
03000000
00000000
00000000
00000000
,
00001000
00000000
00000000
00000000
00002000
00000000
00000000
01000000
00000000
00000000
00000000
00000000
00000000
00000000
01003000
00000000
,
00010000
00000000
00000000
00100000
01100000
00000000
00000000
10000000
,
00100000
00000000
00010000
00000000
00001000
00000000
00000100
00000000
00000010
00001000
00000000
00001000
00000100
00000000
00000020
00000000
,
00000000
00000000
00000000
00000000
,
00000030
00000000
00000000
00000000
;

//---------------dance-single - Easy----------------
#NOTES:
     dance-single:
     Easy:
     Beginner:
     1:
     0.085,0.109,0.092,0.082,0.000:
0000
0000
0000
0000
,
0000
0000
0000
0000
,
0000
0000
0000
0000
,
0000
0000
0000
0000
,
0002
0000
0000
0000
,
0003
0000
0000
0000
,
2000
0000
0000
0000
,
3000
0000
0000
0000
,
1001
0000
0000
0000
,
0000
0000
0000
0000
,
1001
0000
0000
0000
,
0000
0000
0000
0000
,
0110
0000
0000
0000
,
0000
0000
0000
0000
,
0110
0000
0000
0000
,
0000
0000
0000
0000
,
1001
0000
0000
0000
,
0000
0000
0000
0000
,
0110
0000
0000
0000
,
1000
0000
0001
0000
,
0100
0000
0000
0000
,
0010
0000
0000
0000
,
0100
0000
0000
0000
,
0010
0000
0000
0000
,
1000
0000
0000
0000
,
0001
0000
0000
0000
,
2002
0000
0000
0000
,
3003
0000
0000
0000
,
1000
0000
0000
0000
,
0001
0000
0000
0000
,
0010
0000
0000
0000
,
0100
0000
0000
0000
,
0010
0000
0000
0000
,
0100
0000
0000
0000
,
1000
0000
0000
0000
,
0001
0000
0000
0000
,
0000
1001
0000
0000
,
0000
0000
0000
0000
,
0010
0000
0000
0000
,
0100
0000
0000
0000
,
0001
0000
0000
0000
,
0001
0000
0000
0000
,
1000
0000
1000
0000
,
1000
0000
1000
0000
,
1000
0000
0000
0000
,
0100
0000
0000
0000
,
0010
0000
0000
0000
,
0001
0000
0000
0000
,
0200
0000
0000
0000
,
0300
0000
0000
0000
,
0020
0000
0000
0000
,
0030
0000
0000
0000
,
0220
0000
0000
0000
,
0330
0000
0000
0000
;

//---------------dance-single - Telperion----------------
#NOTES:
     dance-single:
     Telperion:
     Easy:
     4:
     0.353,0.380,0.482,0.246,0.036:
0000
0000
0000
0000
,
0000
0000
0000
0000
,
0000
0000
0000
0000
,
0000
0000
0000
0000
,
2001
0000
0000
0000
,
3200
0000
0000
0000
,
0001
0000
2300
0000
,
3001
0000
0110
1001
,
0110
0001
0100
1000
,
0110
1000
0100
0010
,
0101
0101
1100
1100
,
0001
0000
0000
1000
0000
0000
0001
0000
0000
0000
0002
0000
0000
0000
0000
0000
,
1003
0100
0010
0100
,
1001
0010
0100
0001
,
2100
0001
0010
3001
,
1000
0000
0000
0001
0000
0000
1000
0000
0100
0000
0000
0010
0000
0000
0001
0000
,
2000
0000
3001
0100
0020
0000
0030
0000
,
0020
0000
0130
0001
0020
0000
0030
0000
,
0200
0000
1300
0001
2000
0000
3000
0001
,
0100
0010
1000
0100
0010
0100
0000
0100
,
0010
0110
0001
0100
,
0010
0110
1000
0100
,
0010
0011
0001
0100
,
0010
1010
0011
1010
,
0001
1001
0010
0100
,
1000
1010
0100
0011
,
0220
0000
0000
0330
,
2002
0000
3003
0000
,
1000
0101
0000
0011
,
1000
1100
0000
1010
,
0001
0101
0000
0110
,
0001
0101
0000
0110
,
1000
1100
0010
0001
,
0100
0000
0010
0100
0010
0000
0100
0010
,
0100
0110
1000
1100
,
0001
0000
0000
1000
0000
0000
0001
0000
0000
0000
0002
0000
0000
0000
0000
0000
,
1003
1001
0100
0000
,
0010
0101
0010
0101
,
1000
0110
1000
0010
,
1000
0000
0000
0001
0000
0000
1000
0000
0000
0000
2000
0000
0000
0000
0000
0000
,
3002
0000
0000
0000
0000
0100
0000
0000
,
2003
0000
0000
0000
0000
0100
0000
0000
,
3001
0000
0000
1000
0000
0000
0001
0000
1000
0000
0000
0001
0000
0000
1000
0000
,
0002
0000
1003
1001
,
0100
0010
0001
0100
,
1000
0100
0010
1000
,
0100
0110
0001
0010
,
0100
0001
0100
1000
,
0010
0220
0000
0000
,
0330
0000
0000
0000
,
0110
0000
1001
0000
,
1010
1100
0011
0101
,
0220
0000
0000
0000
,
0330
0000
0000
0000
;

//---------------dance-single - Telperion----------------
#NOTES:
     dance-single:
     Telperion:
     Medium:
     6:
     0.391,0.408,0.133,0.267,0.067:
0000
0000
0000
0000
,
0000
0000
0000
0000
,
0000
0000
0000
0000
,
0000
0000
0000
0000
,
1000
0000
0001
0000
0020
0000
0000
0100
0000
0000
0000
0000
0030
0000
0000
0000
,
0001
0000
1000
0000
0020
0000
0000
0100
0000
0000
0000
0000
0030
0000
0000
0000
,
1000
0000
0001
0000
1000
0000
0000
0100
0000
0000
1000
0000
0010
0000
0000
0000
,
0200
0000
0310
0110
,
0001
1000
0100
0000
0100
1000
0010
0000
,
1000
0100
0010
0000
0010
0001
0100
0000
,
0200
0010
0320
1000
,
1030
0000
0000
0001
0000
0000
1000
0000
0000
0000
1000
0000
0000
0000
1000
0000
,
0001
0010
0001
0000
0001
0100
0010
0000
,
0010
1000
0001
0000
0010
0001
1000
0100
,
0020
0000
0000
0030
,
0010
0000
0000
0001
0000
0000
0100
0000
0010
0000
0000
1000
0000
0000
0100
0000
,
0020
0000
0000
0000
0000
0000
0000
0000
0000
0000
0000
0030
0000
0000
0000
0000
,
0002
0000
0000
0000
0000
0000
0000
0000
2000
0000
0000
3003
0000
0000
0000
0000
,
2002
0000
0000
0000
0000
0000
0000
0000
0000
0000
0000
3003
0000
0000
0000
0000
,
0010
0100
1000
0001
0010
0100
1000
0010
,
0100
0001
0100
0000
0010
0000
0110
0000
,
0010
1000
0100
0000
0010
0000
0110
0000
,
0001
1000
0100
0000
0100
0000
1100
0000
,
0100
1000
0100
1000
0100
0010
0100
0010
,
0001
0000
0100
0000
0100
0010
0100
0000
,
0001
0000
0010
0000
0010
0100
0010
0000
,
0001
0000
0000
1000
0000
0000
0001
0000
0100
0000
0000
0010
0000
0000
0100
0000
,
0001
0010
0001
0010
0100
1000
0100
1000
,
0020
0100
2030
0100
,
3002
0100
0013
0100
,
2000
0000
0010
0000
3002
0000
0013
0100
,
1000
0000
0010
0000
0010
0100
0000
0100
,
0020
1000
0130
0010
,
2000
0100
3001
0010
,
0100
1000
0100
1000
0000
0001
0100
0001
,
1000
0000
0000
0001
0000
0000
1000
0000
0000
0000
1000
0000
0000
0000
1000
0000
,
0001
0000
1001
0000
0001
1000
0001
0000
,
2000
0100
3010
0100
,
0002
0000
0010
0000
2003
0000
3010
1000
,
0100
0010
0001
0100
,
0210
0000
0000
0000
0000
0000
0000
0000
0000
0000
0310
0000
0000
1000
0000
0000
,
0200
0000
0000
0000
0000
0000
0000
0000
0000
0000
0310
0000
0000
0001
0000
0000
,
0100
0000
0000
0000
0010
0000
0000
1000
0000
0000
0100
0000
0000
0010
0000
0000
,
0001
0100
0010
1000
0001
0100
0010
1000
,
0001
1000
0010
0000
0010
0100
0001
0010
,
0100
1000
0100
0000
0100
1000
0010
0100
,
0001
0100
0010
0000
0010
1000
0001
0010
,
0001
0100
0010
0000
0010
1000
0100
0010
,
0002
0000
0000
0000
,
0003
0000
0000
0000
,
1001
0000
0000
0000
0110
0000
0000
0001
,
0000
0101
0000
1100
0000
1010
0000
0220
,
0000
0000
0000
0000
,
0330
0000
0000
0000
;

//---------------dance-double - Telperion----------------
#NOTES:
     dance-double:
     Telperion:
     Medium:
     6:
     0.363,0.380,0.226,0.154,0.026:
00000000
00000000
00000000
00000000
,
00000000
00000000
00000000
00000000
,
00000000
00000000
00000000
00000000
,
00000000
00000000
00000000
00000000
,
20000000
00000000
32000000
00000000
,
03020000
00000000
00032000
00000000
,
00003200
00000000
00020300
00000000
,
01030000
00000000
00000000
01000000
00100000
10000000
01000000
00100000
,
00010000
00000000
01010000
00000000
01000000
00100000
10000000
00000000
,
01000000
00000000
01100000
00000000
00100000
00010000
01000000
00000000
,
00100000
00010000
00001000
00000000
00010000
00001000
00000100
00000000
,
00001000
00000100
00000001
00001000
00000000
00001001
00000000
00000000
,
00000001
00000010
00000100
00000000
00001000
00000000
00001010
00000000
,
00000010
00000100
00000001
00000000
00001000
00000000
00001010
00000000
,
00000010
00000100
00001000
00000000
00001000
00010000
00001000
00000000
,
00010000
01000000
00100000
00000000
00010000
00000000
10000000
00000000
,
10010000
00000000
00000000
00000000
,
11000000
00000000
10010000
00000000
,
01010000
00000000
01001000
00000000
,
00011000
00010000
00000000
00010000
00011000
00001000
00011000
00010000
,
00011000
00000000
00001000
00000000
00010000
00001000
01000000
00000000
,
00100000
00000000
01100000
00000000
00100000
10000000
01000000
00000000
,
10000000
00000000
10010000
00000000
01000000
00010000
00100000
00000000
,
01000000
10000000
01000000
10000000
01000000
00100000
01000000
00100000
,
00010000
00000000
00110000
00000000
00100000
00001000
00010000
00000000
,
00000010
00000000
00001000
00000010
00001000
00000010
00010000
00000000
,
00002000
00000000
00000000
00000000
,
00013000
00001000
00000100
00001000
00000100
00000010
00001000
00000100
,
00000010
00000001
00000001
00001000
,
00001000
00000100
00000010
00001000
,
00020000
00000000
00000000
00000000
00031000
00010000
01000000
00000000
,
00010000
01000000
10000000
00010000
00000000
10010000
00000000
00000000
,
00100000
00000000
01000000
10000000
01000000
00000000
00010000
00000000
,
00001000
00000000
00000100
00001000
00000100
00000000
00000001
00000100
,
00000002
00000000
00000000
00000000
00000013
00000100
00001000
00000000
,
00001000
00000000
00000000
00000001
00000000
00000000
00001000
00000000
00000000
00000000
00001001
00000000
00000000
00000000
00000000
00000000
,
00000110
00002001
00000000
00003001
,
00000001
00000000
00000100
00000000
00001000
00000100
00000010
00000000
,
00001000
00000100
00000010
00001000
,
00010000
00001000
00010000
00100000
,
01000000
00000000
00000000
00000000
00000000
00000000
00000000
00000000
00000000
00000000
00100000
00000000
00000000
01000000
00000000
00000000
,
00010000
00000000
00000000
00000000
00000000
00000000
00000000
00000000
00000000
00000000
00100000
00000000
00000000
00010000
00000000
00000000
,
01000000
00000000
00000000
00010000
00000000
00000000
00100000
00000000
00000000
00001000
00000000
00000000
00010000
00000000
00001000
00000000
,
00011000
00000000
00001000
00010000
00000100
00001000
00000100
00000010
,
00000002
00000100
00002003
00000100
,
00003010
00000100
00001000
00010000
,
02000000
10000000
03100000
00010000
,
01000000
00100000
01000000
00000000
00010000
01000000
00010000
00000000
,
00200000
00000000
00000000
00000000
,
00300000
00000000
00000000
00000000
00000000
00000000
00000000
01000000
,
00100000
00000000
00000000
00100000
00010000
00000000
00000000
00010000
,
10000000
00000000
01000000
00100000
01000000
00010000
00002000
00000000
,
00010000
00000000
00000000
00000000
,
00003000
00000000
00000000
00000000
;

//---------------dance-double - Telperion----------------
#NOTES:
     dance-double:
     Telperion:
     Easy:
     4:
     0.231,0.272,0.205,0.082,0.000:
00000000
00000000
00000000
00000000
,
00000000
00000000
00000000
00000000
,
00000000
00000000
00000000
00000000
,
00000000
00000000
00000000
00000000
,
00000001
00000000
00000000
00000000
,
00001000
00000000
00000000
00000000
,
00000001
00000000
00000100
00000000
,
00000010
00000000
00000100
00001000
,
00010000
00001000
00001000
01000000
,
01000000
00100000
10000000
01000000
,
00100000
01100000
00000000
00110000
,
00000000
00101000
00000000
00011000
,
00001000
00010000
00010000
00000100
,
00000100
00000010
00000001
00000100
,
00000020
00000000
00000000
00000000
,
00000000
00000000
00000130
00001000
,
00010000
00000000
00000000
00000000
,
00010000
00000000
00000000
00000000
,
00010000
00000000
00010000
00000000
,
00010000
00010000
00010000
00010000
,
00010000
00001000
00100000
00000000
,
01000000
00010000
00001000
00000000
,
00010000
00100000
01000000
00000000
,
00010000
00100000
01000000
10000000
,
00010000
01000000
00100000
00000000
,
01000000
00010000
00100000
01000000
,
00020000
00000000
00032000
00000000
,
00013000
00000000
00000000
00000000
,
00011000
00001000
00000100
00000010
,
00001000
00000100
00000000
00000100
,
00000010
00000001
00000010
00001000
,
00010000
00001000
00000000
00001000
,
00010000
00100000
01000000
00010000
,
01000000
00100000
00000000
00100000
,
10000000
01000000
00010000
00001000
,
00010000
00011000
00000000
00001010
,
00000000
00000110
00001000
00000001
,
00000100
00000000
00000100
00000010
,
00001000
00000000
00000010
00000001
,
00000100
00001000
00010000
00000000
,
00022000
00000000
00033000
00000000
,
02020000
00000000
03030000
00000000
,
11000000
00000000
10100000
00000000
,
00110000
00000000
01100000
10010000
,
01100000
00010000
01000000
00000000
,
00100000
10000000
01000000
00000000
,
00100000
00001000
00010000
00000000
,
00100000
00010000
00001000
00000100
,
00000010
00000000
00000000
00000000
,
00000000
00000000
00000000
00000000
,
00001010
00000000
00000101
00000000
,
00000011
00000001
00001010
00001000
,
00000002
00000000
00000000
00000000
,
00000003
00000000
00000000
00000000
;

//---------------dance-double - Telperion----------------
#NOTES:
     dance-double:
     Telperion:
     Challenge:
     9:
     0.549,0.571,0.246,0.164,0.461:
00000000
00000000
00000000
00000000
,
00000000
00000000
00000000
00000000
,
00000000
00000000
00000000
00000000
,
00000000
00000000
00000000
00000000
,
00020000
00000000
00001000
00000000
00000000
00130000
00000000
01000000
00000000
00010000
00000000
00000000
00010000
00000000
00100000
00000000
,
02000000
00000000
10000000
00000000
00000000
03010000
00000000
00001000
00000000
00010000
00000000
00000000
00001000
00000000
00000100
00000000
,
00000010
00000000
00001000
00000000
00000100
00000010
00000000
00000100
00000000
00001000
00000001
00000000
00000100
00000000
00000010
00000000
,
00000110
00000000
00000000
00000000
00000000
00000000
00000001
00000000
00000010
00000001
00000000
00000001
00000010
00001000
00000000
00001000
,
00010000
00100000
01100000
00010000
01000000
00100000
10100000
00000000
,
01000000
00010000
00011000
00001000
00000100
00000010
00000110
00000000
,
00001000
00000000
00000100
00000000
00001000
00000001
00000000
00000001
00000010
00000000
00000010
00001000
00000000
00001000
00010000
00000000
,
00010000
00100000
00000000
00100000
01000000
00000000
00010000
00000000
00000000
00000000
01020000
00000000
00000000
00000000
00000000
00000000
,
10030000
01000000
01100000
00001000
00010000
00100000
00110000
00000000
,
00001000
00100000
01100000
00010000
00001000
00000100
00000010
00001000
,
00000100
00000000
00000010
00000000
00000001
00000010
00000000
00000010
00001000
00000000
00001000
00010000
00000000
00010000
00100000
00000000
,
00010000
00000000
00000000
00001000
00000000
00000000
00100000
00000000
00101000
00000000
00000000
00010000
00000000
00000000
00001000
00000000
,
00022000
00000000
00000000
00000000
00000000
00000000
00000000
00000000
00000000
00000000
00000000
00000000
00030000
00000000
00003000
00000000
00000000
00000000
00000000
00000000
00000000
00000000
00010000
00000000
00000000
00000000
00001000
00000000
00000000
00000100
00000000
00000000
,
00000020
00000000
00000000
00000000
00000000
00000000
00000000
00000000
00000000
00000000
00000000
00000000
00000030
00000000
00000000
00000000
00000100
00000000
00000000
00000000
00000000
00000000
00000100
00000000
00000000
00000000
00000001
00000000
00000000
00000100
00000000
00000000
,
00000010
00000000
00000000
00000000
00001000
00000000
00000000
00000000
00000100
00000000
00000000
00000000
00001000
00000000
00000000
00000000
00000010
00000000
00000000
00000000
00000100
00000000
00001000
00000000
00000000
00000000
00010000
00000000
00000000
00100000
00000000
00000000
,
02000000
00000000
00010000
00000000
00000000
00000000
13000000
00000000
01000000
00000000
00100000
10000000
01000000
00100000
00010000
10000000
,
00010000
00100000
01000000
00000000
10000000
01000000
00010000
00001000
,
00000100
00000010
00001000
00000000
00000100
00001000
00000100
00000010
,
00000001
00000100
00001000
00000000
00001000
00010000
01000000
00010000
,
00001000
00100000
01000000
10000000
01000000
00100000
00010000
00001000
,
00000100
00001000
00000001
00000000
00000001
00000100
00001100
00000000
,
00001000
00000000
00010000
00000000
00010100
00000000
00011000
00000000
00000000
00001000
00010000
00000000
00001000
00000000
00000100
00000000
,
00000010
00000000
00000000
00001000
00000000
00000000
01000000
00000000
00000000
10000000
00000000
00000000
00100000
00000000
01000000
00000000
,
00100000
01000000
00010000
00100000
00001000
00010000
00000100
00001000
00000010
00000100
00000001
00000100
00000010
00000100
00000001
00000000
,
00000101
00000000
00000000
00000100
00000010
00000000
00000000
00000010
00001000
00000000
00000000
00001000
00000100
00000000
00000000
00000100
,
00000010
00000000
00000000
00000010
00000001
00000000
00000000
00000001
00000100
00000010
00000100
00000000
00000010
00000100
00000010
00000000
,
00001000
00000000
00000001
00000000
00000100
00000000
00000000
00000000
00001000
00000000
00000000
00010000
00000000
00000000
01000000
00000000
,
00010000
00000000
00000000
00001000
00000000
00000000
00000100
00000000
00000000
00000000
00000210
00000000
00000000
00000000
00000000
00000000
,
00000301
00000000
00000000
00000001
00000010
00000000
00000000
00000010
00001000
00000000
00000000
00001000
00010000
00000000
00000000
00010000
,
01000000
00000000
00000000
01000000
10000000
00000000
00000000
10000000
00100000
00000000
00000000
00100000
01000000
00000000
00000000
01000000
,
10000000
00000000
02000000
00000000
00100000
00000000
00000000
00000000
13000000
00000000
00000000
01000000
00000000
00000000
00010000
00000000
,
00100000
00000000
00100000
01000000
00000000
01000000
00010000
00000000
00000000
00001000
00010000
00000000
01000000
00000000
00100000
00000000
,
01000000
00000000
00000000
00000000
10020000
00000000
00000000
00000000
10030000
00000000
00000000
10000000
01000000
00000000
00100000
00000000
,
00001000
00000000
00000000
00001000
00000100
00000000
00000000
00000100
00000010
00000000
00000000
00000010
00001000
00000000
00000100
00000000
,
00000010
00000000
00001000
00000000
00010000
00000000
00000000
00000000
00100000
00000000
00000000
00010000
00000000
00000000
00001000
00000000
,
00000010
00000000
00000010
00000100
00000000
00000100
00001000
00000000
00000010
00000000
00000000
00001010
00000000
00000000
00000100
00000000
,
00000021
00000000
00000000
00000000
00000000
00000000
00000000
00000000
00001030
00000000
00010000
00000000
00000000
00100000
00000000
00000000
,
12000000
00000000
00000000
00000000
00000000
00000000
00000000
00000000
03010000
00000000
00001000
00000000
00000000
00000100
00000000
00000000
,
00000001
00000000
00000000
00000100
00000000
00000000
00001000
00000000
00000000
00100000
00000000
00000000
01000000
00000000
00010000
00000000
,
00001000
00000000
00000000
00000000
00001000
00000000
00010000
00000000
00100000
00000000
01000000
00100000
10000000
00000000
01000000
00000000
,
00200000
00010000
01300000
10000000
,
00100000
00000000
00000000
00100000
01000000
00000000
00000000
01000000
00001000
00000000
00000000
00001000
00000010
00000000
00000000
00000010
,
00000001
00000101
00001000
00001100
,
00000001
00000100
00001000
00000100
00000010
00001000
00100000
01000000
,
20000000
00000000
00000000
00000000
,
30000000
00000000
00000000
00000000
00000000
00000000
00000000
01000000
,
00110000
00000000
00000000
01000000
10100000
00000000
00000000
01000000
,
00100000
00000000
00001000
00000000
00000010
00000000
00000001
00000000
00000100
00001000
00000000
00001000
00010000
00100000
01000000
00020000
,
20000000
00000000
00000000
00000000
,
30030000
00000000
00000000
00000000
;
