#TITLE:Cheap Shop;
#SUBTITLE:;
#ARTIST:Anamanaguchi;
#TITLETRANSLIT:;
#SUBTITLETRANSLIT:;
#ARTISTTRANSLIT:;
#GENRE:;
#CREDIT:Telperion;
#BANNER:;
#BACKGROUND:;
#LYRICSPATH:;
#CDTITLE:;
#MUSIC:cs.ogg;
#OFFSET:-0.079110;
#SAMPLESTART:28.877001;
#SAMPLELENGTH:19.200001;
#SELECTABLE:YES;
#DISPLAYBPM:100.000000;
#BPMS:0.000000=100.000000;
#STOPS:;
#DELAYS:;
#TIMESIGNATURES:0.000000=4=4
;
#BGCHANGES:;
#KEYSOUNDS:;
#ATTACKS:;

//---------------dance-single - Telperion----------------
#NOTES:
     dance-single:
     Telperion:
     Medium:
     5:
     0.289,0.309,0.062,0.229,0.151,166.000,6.000,22.000,0.000,0.000,0.000,0.000,0.289,0.309,0.062,0.229,0.151,166.000,6.000,22.000,0.000,0.000,0.000,0.000:
0000
0000
0000
0000
,
0000
0000
0000
0000
,
0000
0000
0000
0000
,
0000
0000
0000
0000
,
2000
0000
0000
0000
3001
0100
0010
0100
,
2000
0000
3100
0010
2000
0000
3100
0010
,
0002
0000
0000
0000
1003
0100
0010
1000
,
0002
0000
0103
0010
0002
0000
2003
0000
,
3010
0000
0000
0000
0000
0000
0000
0000
0000
0100
0010
0000
1000
0000
0000
0000
,
0010
0000
0000
0000
0000
0000
0000
0000
0000
0100
0001
0000
0010
0000
0000
0000
,
0200
0300
2000
3000
,
0002
0003
0100
0010
,
1000
0000
0000
0000
0000
0000
0000
0000
0000
1000
0100
0000
0010
0000
0000
0000
,
0001
0000
0000
0000
0000
0000
0000
0000
0000
0001
0100
0000
0010
0000
0000
0000
,
0100
0010
0100
0010
0100
1000
0100
1000
,
0100
0000
0000
0001
0000
1000
0000
0001
0000
0000
0000
0000
0000
0000
0000
0000
,
0010
0000
0100
0000
0000
0100
0000
0000
0000
0010
0000
0000
0010
0000
0000
0000
,
0001
0000
1000
0000
0000
1000
0000
0000
0000
0001
0000
0000
0001
0000
0000
0000
,
0100
0000
0100
0000
0000
0100
0000
0000
0000
0010
0000
0000
0010
0000
0000
0000
,
1000
0000
0001
0000
0000
0001
0000
0000
0000
1000
0000
0000
0000
0001
0000
0000
,
0010
0000
0100
0000
0000
0100
0000
0000
0000
0010
0000
0000
0010
0000
0000
0000
,
0001
0000
1000
0000
0000
1000
0000
0000
0000
0010
0000
0000
0010
0000
0000
0000
,
0100
0010
0100
0010
0100
1000
0100
1000
,
0100
0000
0000
0001
0000
1000
0000
0001
0000
0000
0000
0000
0000
0000
0000
0000
,
0010
0000
0100
0000
0001
0100
0010
0001
,
1000
0000
0010
0000
1000
0010
0100
0001
,
0010
0100
0010
1000
0010
0001
1000
0001
,
0100
0000
0000
0000
0000
0000
0000
0010
0000
0100
0000
0000
0000
0000
0000
0000
,
0002
0013
2000
3010
,
0002
0103
2000
3100
,
0020
0000
0130
0000
1000
0100
0001
0010
,
0100
0000
0000
0000
,
0220
0330
0000
0000
,
2001
0010
0100
3001
,
0220
0330
0000
0000
,
0012
1003
2010
3001
,
0100
0010
0100
0001
0100
0010
0100
1000
,
0001
0000
0010
0000
1000
0000
0000
0001
0000
1000
0000
0000
0100
0000
0010
0000
,
0001
0000
0001
0000
1000
0000
0000
0010
0000
0000
0000
0000
0000
0000
0000
0110
,
0000
0000
0000
0000
1000
1000
0000
0000
;

//---------------dance-single - Telperion----------------
#NOTES:
     dance-single:
     Telperion:
     Easy:
     3:
     0.170,0.164,0.062,0.156,0.000,93.000,6.000,15.000,0.000,0.000,0.000,0.000,0.170,0.164,0.062,0.156,0.000,93.000,6.000,15.000,0.000,0.000,0.000,0.000:
0000
0000
0000
0000
,
0000
0000
0000
0000
,
0000
0000
0000
0000
,
0000
0000
0000
0000
,
0020
0030
0100
0001
,
0011
0000
1001
0000
,
0110
0000
1000
0100
,
1100
0000
1000
0001
,
0110
0000
0010
0100
,
0001
0000
1000
0001
,
0020
0030
0200
0300
,
2000
3000
0001
1000
,
0010
0000
1000
0100
,
0010
0000
0100
1000
,
0001
0100
0010
0100
,
1000
0100
0001
0000
,
1000
0000
0001
0000
,
0010
0000
0100
0000
,
0001
0000
0100
0000
,
1000
0000
0010
0010
,
0100
0000
1000
0000
,
0100
0000
0001
0000
,
0010
0100
0001
0100
,
1000
0001
1000
0000
,
0001
0100
0010
1000
,
0010
0000
0100
0010
,
1000
0100
0010
0001
,
0010
0000
0100
0000
,
0020
0030
0002
0003
,
0200
0300
0020
0030
,
2000
3000
0200
0300
,
0010
0000
0000
0000
,
0020
0000
0030
0000
,
0200
0000
0300
0000
,
2000
0000
3000
0000
,
0002
0003
2000
3000
,
0010
0100
1000
0100
,
0001
0010
0100
0000
,
1000
0100
0010
0001
,
0100
0000
0110
0000
;

//---------------dance-single - Telperion----------------
#NOTES:
     dance-single:
     Telperion:
     Hard:
     8:
     0.399,0.416,0.146,0.291,0.552,226.000,14.000,28.000,0.000,0.000,0.000,0.000,0.399,0.416,0.146,0.291,0.552,226.000,14.000,28.000,0.000,0.000,0.000,0.000:
0000
0000
0000
0000
,
0000
0000
0000
0000
,
0000
0000
0000
0000
,
0000
0000
0000
0000
,
0002
0000
0000
0000
0003
0000
1000
0010
0000
0100
0000
1000
0000
0100
0000
0001
,
0020
0000
0000
0000
0130
0000
0000
1000
0002
0000
0000
0000
0103
0000
0000
0001
,
2000
0000
0000
0000
3000
0000
0100
0010
0000
1000
0000
0010
0000
0001
0000
0100
,
0020
0000
0000
0000
1030
0000
0000
0100
0002
0000
0000
0000
0203
0000
0000
0000
,
1300
0000
0000
1000
0000
0000
0000
0000
0000
0001
1000
0000
0100
0000
0100
0000
,
0010
0000
0000
0010
0000
0000
0000
0000
0000
0001
1000
0000
0010
0000
0010
0000
,
0200
0300
0012
0003
,
2100
0000
0000
0000
3100
0000
1000
0010
0000
0000
0010
0100
0000
0000
0100
0001
,
0100
0000
0000
0100
0000
0000
0000
0000
0000
0001
1000
0000
0100
0010
0100
0000
,
1000
0000
0000
1000
0000
0000
0000
0000
0000
0001
1000
0001
0100
0000
0100
0000
,
0020
0000
0030
1000
0100
1000
0100
0010
0002
0000
0003
0100
0001
0100
0010
0100
,
0001
1000
0000
0001
0000
1000
0001
1000
0000
0000
0000
0000
0000
0000
0000
0000
,
0000
0000
1000
0000
0000
1010
0000
0000
0000
0001
0000
0000
0011
0000
0000
0000
,
0000
0000
1000
0000
0000
1100
0000
0000
0000
0010
0000
0000
0110
0000
0000
0000
,
0000
0000
1000
0000
0000
1001
0000
0000
0000
0110
0000
0000
0110
0000
0000
0000
,
0001
0000
1000
0000
0000
1000
0000
0000
0000
0110
0000
0000
0000
1001
0000
0000
,
0001
0000
1000
0000
0010
1000
0000
0000
0000
0001
0000
0010
0001
0000
0000
0000
,
0001
0000
1000
0000
0100
1000
0000
0000
0000
0001
0000
0100
0001
0000
0000
0000
,
0020
0000
0030
0100
1000
0100
0010
0001
0020
0000
0030
0001
0100
0001
1000
0001
,
0100
0010
0000
0100
0000
0010
0100
0010
0000
0000
0000
0000
0000
0000
0000
0000
,
0100
0000
0000
0000
0000
1000
0100
0000
0001
0000
0000
0010
0000
0100
0000
2000
,
0000
0000
0000
0000
3000
0001
1000
0000
0100
0010
0000
0100
1000
0001
0000
0100
,
0010
0100
0000
0001
1000
0001
0000
0010
0000
0100
1000
0000
0001
0000
0002
0000
,
0000
0000
0000
0000
0000
0103
0010
0100
0000
0002
0000
0000
0000
0000
0003
0000
,
0000
1000
0100
0001
0000
0000
0000
0000
0000
0100
1000
0010
0000
0000
0000
0000
,
0000
0001
0010
1000
0000
0000
0000
0000
0000
0100
0010
0001
0000
0000
0000
0000
,
0000
0100
0010
1000
0000
0000
0000
0000
0000
0010
0100
0001
0000
0001
0100
0000
,
0020
0030
0000
0000
,
1000
0000
0000
0000
0001
0000
1000
0000
0010
0000
0000
0100
0000
0100
0010
0000
,
1000
0200
0302
0203
,
0310
0000
0000
0000
0000
0001
0010
0000
0100
0000
0010
0001
0000
1000
0000
0000
,
0020
0030
0200
0300
,
0001
1000
0001
0000
0010
0000
0001
1000
0010
0100
0010
0000
1000
0000
0010
0100
,
0001
0000
1000
0000
0001
1000
0000
0001
0000
1000
0000
0000
0000
0000
0000
0000
,
2200
3300
0022
0033
,
1001
0000
0000
1000
0100
0010
1000
0010
0001
0000
0002
0000
0000
0000
0000
0000
,
0003
0000
0000
0000
;

//---------------dance-double - Telperion----------------
#NOTES:
     dance-double:
     Telperion:
     Hard:
     8:
     0.397,0.416,0.031,0.250,0.541,240.000,3.000,24.000,0.000,0.000,0.000,0.000,0.397,0.416,0.031,0.250,0.541,240.000,3.000,24.000,0.000,0.000,0.000,0.000: // measure 1
00000000
00000000
00000000
00000000
,  // measure 2
00000000
00000000
00000000
00000000
,  // measure 3
00000000
00000000
00000000
00000000
,  // measure 4
00000000
00000000
00000000
00000000
,  // measure 5
10000000
00000000
01000000
00000000
00100000
00000000
00001000
00010000
00000000
00001000
00000000
00100000
00000000
00001000
00000000
00010000
,  // measure 6
00000020
00000000
00000130
00000001
00000020
00000000
00000130
00000010
,  // measure 7
00000001
00000000
00000100
00000000
00000010
00000000
00010000
00001000
00000000
00100000
00000000
00001000
00000000
00010000
00000000
00000010
,  // measure 8
00000200
00000000
00001300
00010000
02000000
00000000
23000000
00000000
,  // measure 9
30010000
00000000
00000000
00020000
00000000
00000000
00000000
00000000
00030000
10000000
01000000
00100000
00001000
00010000
00000010
00000100
,  // measure 10
00000001
00000000
00000000
00000002
00000000
00000000
00000000
00000000
00000003
00001000
00000010
00000100
00001000
00010000
00001000
00100000
,  // measure 11
01000000
00000000
00000000
00100000
00000000
00010000
00000000
10000000
00000000
00000000
00000000
00000000
00100000
00000000
01000000
00000000
,  // measure 12
00200000
00000000
00000000
00000000
10300000
00000000
01000000
00100000
00000000
00000000
00100000
00001000
00000000
00000000
00010000
00001000
,  // measure 13
00010000
00000000
00000000
00020000
00000000
00000000
00000000
00000000
00030000
00000100
00001000
00000010
00000100
00001000
00010000
01000000
,  // measure 14
00100000
00000000
00000000
00200000
00000000
00000000
00000000
00000000
00300000
01000000
00010000
01000000
00100000
01000000
10000000
00010000
,  // measure 15
02000000
03000000
00200000
00300000
,  // measure 16
01000000
00001000
00000000
00010000
00000000
00000100
00000010
00000001
00000000
00000000
00000000
00000000
00000000
00000000
00000000
00000000
,  // measure 17
00000100
00000000
00000100
00000000
00000000
00000010
00000000
00000000
00000000
00001000
00000000
00000000
00001000
00000000
00000000
00000000
,  // measure 18
00000100
00000000
00000010
00000000
00000000
00000010
00000000
00000000
00000000
00000100
00000000
00000000
00010000
00000000
00000000
00000000
,  // measure 19
00001000
00000000
00001000
00000000
00000000
00010000
00000000
00000000
00000000
00100000
00000000
00000000
00100000
00000000
00000000
00000000
,  // measure 20
00010000
00000000
00001000
00000000
00000000
00001000
00000000
00000000
00000000
00100000
00000000
00000000
00000000
01000000
00000000
00000000
,  // measure 21
10000000
00000000
00010000
00000000
10000000
00010000
00000000
00000000
01000000
00001000
00000000
00010000
00001000
00000000
00000000
00000000
,  // measure 22
00010000
00000000
00000100
00000000
00010000
00000100
00000000
00000000
00001000
00000010
00000000
00000100
00000010
00000000
00000000
00000000
,  // measure 23
00001000
00000000
00000001
00000010
00000001
00001000
00000010
00010000
00001000
00000000
00100000
00001000
00010000
00001000
00100000
00010000
,  // measure 24
01000000
00100000
00000000
01000000
00000000
00100000
01000000
00100000
00000000
00000000
00000000
00000000
00000000
00000000
00000000
00000000
,  // measure 25
10000000
01000000
00100000
00010000
00100000
00001000
00000010
00000100
,  // measure 26
00000001
00000000
00000000
00000000
00000000
00000000
00000100
00000000
00000010
00000001
00000000
00001000
00000010
00001000
00000000
00000001
,  // measure 27
00000010
00000100
00000000
00001000
00000001
00000100
00000000
00000010
00000000
00000100
00000001
00000000
00000010
00000000
00000020
00000000
,  // measure 28
00000000
00000000
00000000
00000000
00000030
00000001
00000010
00000100
00000000
00010000
00000000
00000000
00000000
00000000
00000000
00000000
,  // measure 29
00000000
00001000
00010000
00100000
00000000
00000000
00000000
00000000
00000000
10000000
01000000
00010000
00000000
00000000
00000000
00000000
,  // measure 30
00000000
00001000
00000010
00000001
00000000
00000000
00000000
00000000
00000000
00000100
00001000
00010000
00000000
00000000
00000000
00000000
,  // measure 31
00000000
01000000
00010000
00001000
00000000
00000000
00000000
00000000
00000000
00100000
01000000
10000000
00000000
10000000
00010000
00000000
,  // measure 32
01000000
00000000
00000000
00000000
,  // measure 33
02000000
00000000
03100000
10000000
00010000
01000000
00001000
00000100
,  // measure 34
00000002
00000010
00001000
00000103
,  // measure 35
00000020
00000000
00000000
00000000
00000030
00001000
00000001
00001000
00000010
00000100
00000010
00001000
00000000
00000001
00000000
00000000
,  // measure 36
00000020
00000030
00002000
00003000
,  // measure 37
00010000
00000000
00001000
00010000
00000000
00001000
01000000
00000000
00100000
00000000
10000000
01000000
00000000
00100000
00010000
00100000
,  // measure 38
01000000
00000000
01000000
00000000
10000000
00010000
00000000
02200000
00000000
03300000
00000000
00000000
00000000
00000000
00000000
00000000
,  // measure 39
10000000
00000000
01000000
00000000
00100000
00000000
00000000
00001000
00000000
00000200
00000000
00000000
00000002
00000000
00000000
00000000
,  // measure 40
00000303
00000000
00000000
00000000
00001010
00002020
00000000
00000000
,  // measure 41
00003030
00000000
00000000
00000000
;
