#TITLE:Braveheart;
#SUBTITLE:(Joey Riot Mix);
#ARTIST:Frantic & Gammer;
#TITLETRANSLIT:;
#SUBTITLETRANSLIT:;
#ARTISTTRANSLIT:;
#GENRE:;
#CREDIT:Telperion respect for Braeden47;
#BANNER:bn-2a.png;
#BACKGROUND:bg-1.png;
#LYRICSPATH:;
#CDTITLE:;
#MUSIC:Braveheart.ogg;
#OFFSET:0.000000;
#SAMPLESTART:50.823002;
#SAMPLELENGTH:21.684000;
#SELECTABLE:YES;
#DISPLAYBPM:135.800003:177.091995;
#BPMS:0.000000=177.089996,4.000000=130.895004,8.000000=135.800003,56.000000=177.091995;
#STOPS:;
#DELAYS:;
#TIMESIGNATURES:0.000000=4=4
;
#BGCHANGES:;
#KEYSOUNDS:;
#ATTACKS:;

//---------------dance-single - Telperion----------------
#NOTES:
     dance-single:
     Telperion:
     Hard:
     9:
     0.483,0.546,0.195,0.130,0.125,329.000,21.000,14.000,4.000,0.000,0.000,0.000,0.483,0.546,0.195,0.130,0.125,329.000,21.000,14.000,4.000,0.000,0.000,0.000: // measure 1
0000
0000
0000
0000
,  // measure 2
1000
0000
0100
0000
,  // measure 3
0020
0000
0000
0000
,  // measure 4
0000
0000
0230
0000
,  // measure 5
2300
0000
3000
0000
,  // measure 6
0002
0000
0000
0000
0000
0000
0000
0003
0200
0000
0000
0000
0000
0000
0000
0000
,  // measure 7
0320
0000
0000
0000
,  // measure 8
0000
0000
0000
0000
,  // measure 9
0000
0000
0000
0000
,  // measure 10
0000
0000
0000
0000
,  // measure 11
0030
0000
0000
0000
,  // measure 12
0000
0000
0000
0000
,  // measure 13
0000
0000
0000
0000
,  // measure 14
0000
0000
0000
0000
,  // measure 15
MMMM
0000
0000
0000
,  // measure 16
0000
0000
0000
0000
,  // measure 17
0000
0000
0000
0000
,  // measure 18
0000
0000
1000
0100
,  // measure 19
0000
0100
0010
0100
,  // measure 20
1000
0001
0100
0000
,  // measure 21
0010
0000
0100
0000
,  // measure 22
0001
0100
1000
0100
,  // measure 23
0000
0100
0010
1000
,  // measure 24
0001
1000
0100
0100
,  // measure 25
1000
0001
0100
0001
1000
0010
1000
0000
,  // measure 26
1100
0000
0011
0000
0101
0001
1000
0000
,  // measure 27
0100
0010
0100
0000
1001
1000
0010
0000
,  // measure 28
0100
0010
0100
0000
0011
0001
1000
0001
,  // measure 29
0010
0001
0100
0000
0110
0010
1000
0100
,  // measure 30
1000
0001
0100
0000
0010
0010
0100
0100
,  // measure 31
0001
0010
0100
0100
1000
0010
0100
0100
,  // measure 32
1000
0100
0001
0001
0020
0000
0230
0000
,  // measure 33
0301
0100
1000
0100
0010
0001
0100
1000
,  // measure 34
0100
0010
0000
0100
0000
0000
0000
0000
1001
0000
0000
0000
0001
1000
0001
0000
,  // measure 35
0010
0000
0000
0000
0010
0000
0000
0000
0100
0000
1000
0000
0001
1000
0001
0000
,  // measure 36
0100
0000
0000
0000
0100
0000
0000
0000
0010
0000
0100
0001
0000
0000
0001
1000
,  // measure 37
0000
0000
0100
0000
1000
0000
0000
0001
0000
1000
0000
0000
0010
0000
0000
1000
,  // measure 38
0000
0001
0000
0000
0010
0000
0000
0000
1100
0000
0000
0000
0001
0100
0001
0000
,  // measure 39
1000
0000
0000
0000
1000
0000
0000
0000
0001
0010
0001
0000
1000
0000
0000
0000
,  // measure 40
1000
0000
0010
0000
1000
0000
0001
0000
0100
0000
0010
0100
0000
0000
0100
0001
,  // measure 41
0000
1000
0001
0000
0001
0010
0100
1000
,  // measure 42
0001
0010
0000
0010
0001
0000
0000
0000
1010
0000
0000
0000
0100
0010
0100
0000
,  // measure 43
0001
0000
0000
0000
1000
0000
0000
0000
0011
0000
0000
0000
0100
0010
0100
0000
,  // measure 44
1000
0000
0000
0000
0001
0000
0000
0000
0110
0000
0010
1000
0000
0000
1000
0001
,  // measure 45
0000
0000
0010
0000
0100
0000
0000
0010
0000
0001
0000
0000
0100
0000
0000
0010
,  // measure 46
0000
1000
0000
0000
0100
0000
0000
0000
0010
0000
0100
0000
0001
0000
0100
0000
,  // measure 47
1000
0001
0000
0000
0001
0000
0000
0000
0100
0000
0010
0000
1000
0000
0010
0000
,  // measure 48
0100
0000
0001
0100
0001
0000
0000
0000
0010
0000
0001
0000
0010
0000
0001
0000
,  // measure 49
1000
0010
1000
0010
0200
0000
0000
0000
,  // measure 50
0000
0000
0000
0000
0310
0100
0000
0100
,  // measure 51
0000
1000
0001
0010
2000
0000
0100
0000
,  // measure 52
0001
0000
3100
0000
0001
0010
0000
0010
,  // measure 53
0000
1000
0010
0001
2000
0000
0100
0000
,  // measure 54
3002
0000
0100
0000
1003
0010
1000
0010
,  // measure 55
0000
0001
1000
0100
0001
0010
0001
0010
,  // measure 56
0000
0010
0100
0010
0001
0100
0001
0100
,  // measure 57
0000
1000
0001
0010
1000
0100
0001
0100
,  // measure 58
2000
0010
3001
0011
,  // measure 59
0010
0011
0001
1000
,  // measure 60
0100
1000
0010
1010
,  // measure 61
1000
1010
0001
0011
,  // measure 62
1000
0100
0001
0101
,  // measure 63
0100
0010
0001
0101
,  // measure 64
0010
1000
0100
0110
,  // measure 65
0100
0000
1100
0000
1000
0010
0000
0010
,  // measure 66
0000
0010
0100
0001
0100
0010
0001
0000
,  // measure 67
0010
0100
0001
0000
1000
0100
0010
0000
,  // measure 68
0001
0000
0010
0000
0100
0000
0000
1000
0001
0000
0100
0000
0001
0000
0000
0000
,  // measure 69
1000
0010
0001
0010
1000
0001
1000
0000
,  // measure 70
1000
0001
0010
0000
0100
0010
0100
0010
,  // measure 71
0001
0010
1000
0010
0001
0100
0010
0000
,  // measure 72
1000
0001
0100
0000
0010
0100
0010
0100
,  // measure 73
0001
0100
1000
0100
0002
0000
0000
0000
,  // measure 74
0000
1003
0110
0000
;

//---------------dance-single - Telperion----------------
#NOTES:
     dance-single:
     Telperion:
     Medium:
     7:
     0.395,0.478,0.130,0.102,0.000,273.000,14.000,11.000,2.000,0.000,0.000,0.000,0.395,0.478,0.130,0.102,0.000,273.000,14.000,11.000,2.000,0.000,0.000,0.000:
0000
0000
0000
0000
,
0000
0000
0000
0000
,
0200
0000
0000
0000
,
0000
0000
0000
0000
,
0320
0000
0000
0000
,
0230
0000
0000
0000
,
0302
0000
0000
0000
,
0000
0000
0000
0000
,
0000
0000
0000
0000
,
0000
0000
0000
0000
,
0003
0000
0000
0000
,
0000
0000
0000
0000
,
0000
0000
0000
0000
,
0000
0000
0000
0000
,
M00M
0000
0000
0000
,
0000
0000
0000
0000
,
0000
0000
0000
0000
,
0000
0000
0110
0001
,
0000
0001
0000
0001
,
0000
0001
1000
0001
,
0000
0001
0100
0001
,
0000
0020
0130
1000
,
0000
1000
0000
1000
,
0000
1000
0001
1000
,
0010
1000
0001
0001
,
0010
0001
0010
0000
0110
0000
0100
0000
,
1000
0001
0100
0000
0010
0100
0010
0100
,
0001
0000
0001
0000
1000
0001
1000
0000
,
0001
0010
0100
0000
1000
0001
0100
0010
,
1000
0010
0100
0000
0001
0010
0100
1000
,
0001
0010
0100
0010
0001
1000
0010
0100
,
0001
0100
0010
1000
0001
0000
0001
0000
,
1000
0000
1000
0000
0010
0010
0100
0100
,
0020
0000
0030
0000
1000
0100
0001
0000
,
0100
1000
0010
0000
0100
0010
0001
0010
,
0100
0001
1000
0000
0100
0010
0100
0010
,
0001
0010
0001
0000
1000
0010
0100
0000
,
0100
0010
1000
0000
0001
0100
1000
0000
,
0100
0010
0100
0000
0001
0010
1000
0000
,
0010
0100
1000
0000
0001
0100
0010
0100
,
0001
0100
0010
0000
1000
0000
1000
0000
,
1000
0000
0000
0000
0001
0100
1000
0100
,
0001
0000
1000
0000
0001
0010
0100
0010
,
0001
0000
0001
0000
1000
0010
0100
0001
,
1000
0001
0100
0000
0010
1000
0001
0000
,
0001
1000
0010
0000
1000
0100
0001
0100
,
1000
0000
0001
0000
1000
0010
0001
0010
,
1000
0001
0010
0000
0100
0010
0100
0001
,
0100
1000
0100
0010
0002
0000
0000
0000
,
0003
0000
1000
0001
,
0010
1100
0001
0100
,
0001
0000
0001
1000
,
0010
0101
1000
0001
,
0010
0000
0100
0010
,
0100
1001
0100
0100
,
0100
0100
0010
0100
,
0010
0000
0101
0000
1000
0001
0010
0001
,
2000
0000
3010
0110
,
0100
0001
1000
1100
,
0001
0100
0010
1010
,
1000
0100
0010
0000
,
0100
1000
0100
0110
,
0001
1000
0001
0011
,
0100
1000
0001
0101
,
0100
0110
0000
0000
,
0000
0000
0000
0000
1000
0001
1000
0000
,
0100
0010
1000
0000
0010
0001
1000
0000
,
0010
0000
1000
0000
0001
1000
0001
0000
,
0010
0100
0001
0100
2000
0000
0000
0000
,
3001
0000
1000
0000
0010
0100
0010
0100
,
1000
0100
0001
0000
0010
0100
0010
0100
,
1000
0001
1000
0000
0010
0010
0100
0000
,
0010
0100
0010
0000
2002
0000
0000
0000
,
0000
0000
3003
0000
;

//---------------dance-single - Telperion----------------
#NOTES:
     dance-single:
     Telperion:
     Beginner:
     2:
     0.073,0.171,0.000,0.000,0.000,55.000,0.000,0.000,0.000,0.000,0.000,0.000,0.073,0.171,0.000,0.000,0.000,55.000,0.000,0.000,0.000,0.000,0.000,0.000:
0000
0000
0000
0000
,
0000
0000
0000
0000
,
0000
0000
0000
0000
,
0000
0000
0000
0000
,
0000
0000
0000
0000
,
0000
0000
0000
0000
,
0000
0000
0000
0000
,
0000
0000
0000
0000
,
0000
0000
0000
0000
,
0000
0000
0000
0000
,
0000
0000
0000
0000
,
0000
0000
0000
0000
,
0000
0000
0000
0000
,
0000
0000
0000
0000
,
0000
0000
0000
0000
,
0000
0000
0000
0000
,
0000
0000
0000
0000
,
0000
0000
1000
0000
,
0000
0000
0000
0000
,
0000
0000
0001
0000
,
0000
0000
0000
0000
,
0000
0000
1000
0000
,
0000
0000
0000
0000
,
0000
0000
0010
0000
,
0000
0000
0100
0000
,
0000
0000
0001
0000
,
0000
0000
0000
0000
,
0000
0000
1000
0000
,
0000
0000
0000
0000
,
0000
0000
0001
0000
,
0000
0000
0001
0000
,
0000
0000
0010
0000
,
0010
0000
0010
0000
,
0000
0000
0100
0000
,
0000
0000
1000
0000
,
0000
0000
0001
0000
,
0000
0000
1000
0000
,
0000
0000
0001
0000
,
0000
0000
0100
0000
,
0000
0000
0010
0000
,
0000
0000
0100
0000
,
0100
0000
0100
0000
,
0000
0000
0001
0000
,
0000
0000
1000
0000
,
0000
0000
0100
0000
,
0000
0000
0010
0000
,
0000
0000
0100
0000
,
0000
0000
1000
0000
,
1000
0000
1000
0000
,
0000
0000
0001
0000
,
0000
0000
0000
0000
,
0000
0000
0000
0000
,
0000
0000
0000
0000
,
0000
0000
0001
0000
,
0000
0000
1000
0000
,
0000
0000
0001
0000
,
0001
0000
1000
1000
,
1000
0000
0010
0000
,
0000
0000
0010
0000
,
0000
0000
0100
0000
,
0000
0000
0001
0000
,
0000
0000
0010
0000
,
0000
0000
0010
0000
,
0000
0000
0100
0000
,
0000
0000
0000
0000
,
0000
0000
1000
0000
,
0000
0000
0001
0000
,
0000
0000
0100
0000
,
0000
0000
0010
0000
,
0000
0000
1000
0000
,
0000
0000
0001
0000
,
0000
0000
0010
0000
,
0000
0000
0100
0000
,
0100
0000
0100
0000
;

//---------------dance-single - Telperion----------------
#NOTES:
     dance-single:
     Telperion:
     Easy:
     4:
     0.277,0.375,0.269,0.130,0.005,166.000,29.000,14.000,2.000,0.000,0.000,0.000,0.277,0.375,0.269,0.130,0.005,166.000,29.000,14.000,2.000,0.000,0.000,0.000:
0000
0000
0000
0000
,
0000
0000
0000
0000
,
1000
0000
0000
0000
,
0000
0000
0100
0000
,
0010
0000
0000
0000
,
0100
0000
1000
0000
,
0002
0000
0000
0000
,
0000
0000
0000
0000
,
0000
0000
0000
0000
,
0000
0000
0000
0000
,
0003
0000
0000
0000
,
0000
0000
0000
0000
,
0000
0000
0000
0000
,
0000
0000
0000
0000
,
0MM0
0000
0000
0000
,
0000
0000
0000
0000
,
0000
0000
0000
0000
,
0000
0000
1001
0000
,
0000
1000
0100
0000
,
0010
0100
1000
0000
,
0000
0000
0001
0000
,
0100
0001
0010
0000
,
0000
0001
0100
0000
,
0010
0100
0001
0000
,
1000
0000
0001
0000
,
1000
0000
0110
0000
,
0000
0000
0000
0000
,
0000
0000
0001
0000
,
0000
0000
1000
0000
,
0000
0000
0110
0000
,
0000
0000
0110
0000
,
0000
0000
1010
0000
,
0101
0000
0011
0100
,
2000
0000
0000
0010
0000
0000
0000
0000
3001
0000
0000
0000
0100
0000
0000
0000
,
0010
0110
1000
0100
,
0001
0110
0001
1000
,
0010
1010
0001
0011
,
1000
1100
0001
0100
,
0010
0110
1000
0010
,
0100
0110
0001
0001
,
1000
1000
0002
1000
,
0023
0000
0130
0010
,
0001
1010
0100
0001
,
1000
0011
0001
0010
,
0100
1100
0001
0101
,
1000
1010
0001
0010
,
0100
0001
1000
0010
,
0001
0100
0010
0010
,
0010
0010
0100
0000
,
0000
0000
0001
0001
,
0001
1000
0010
0000
,
0000
0000
1000
1000
,
1000
0001
0010
0000
,
0010
0000
0001
0001
,
0001
1000
0010
0100
,
0010
0000
1000
1000
,
1000
0001
0010
0100
,
0110
0000
1001
0001
,
0001
1000
1001
1000
,
0001
0100
0110
0010
,
0010
0100
0110
0100
,
0001
0000
1001
1000
,
1000
0001
1001
1000
,
0100
0010
0110
0100
,
0010
0000
0100
0000
1000
0001
0000
0001
,
0000
0000
0201
0000
,
0000
0302
2003
0000
,
3200
0320
0032
0000
,
0000
0000
0023
0000
,
0130
0010
0002
0000
,
0000
0010
2003
0000
,
3010
0100
0020
0000
,
0000
0000
0030
0000
,
0000
0000
1001
0000
;

//---------------dance-single - respect B47----------------
#NOTES:
     dance-single:
     respect B47:
     Edit:
     10:
     0.603,0.682,0.084,0.334,0.343,410.000,9.000,36.000,38.000,0.000,9.000,0.000,0.603,0.682,0.084,0.334,0.343,410.000,9.000,36.000,38.000,0.000,9.000,0.000:
0000
0000
0000
0000
,
2000
0000
3200
0000
,
M32M
0000
0000
0000
,
0000
0000
0230
0000
,
2300
0000
0000
0000
,
3002
0000
0000
0000
0000
0000
0000
0003
0200
0000
0000
0000
0000
0000
0000
0000
,
M320
000M
0M00
M000
,
000M
0M00
000M
M000
,
0M00
M000
000M
0M00
,
000M
M000
000M
0M00
,
M030
0M00
00M0
000M
,
0M00
00M0
M000
00M0
,
0M00
000M
00M0
0M00
,
M000
0M00
00M0
000M
,
M0M0
0000
0000
0000
0000
0M0M
0000
0000
0000
0000
0000
0000
0000
0000
0000
0000
,
0000
0000
0000
0000
,
0000
0000
0000
0000
,
0000
0000
1002
0013
,
0010
0000
0000
0000
0000
0000
0000
0000
0000
0000
0000
0000
0000
0000
0000
0000
0000
0000
0000
0000
0000
0000
0000
0000
0000
0000
0000
0000
0000
0000
0000
0000
0000
0000
0000
0000
0000
0000
0000
0000
0000
0000
0000
0000
0000
0000
0000
0000
0020
0000
0000
0000
0000
0000
0000
0000
0000
0000
0000
0000
0000
0000
0000
0000
0000
0000
0000
0000
0000
0000
0000
0000
0000
0000
0000
0000
0000
0000
0000
0000
0000
0000
0000
0000
0000
0000
0000
0000
0000
0000
0000
0000
0000
0000
0000
0000
0230
0000
0000
0000
0000
0000
0000
0000
0000
0000
0000
0000
0000
0000
0000
0000
0000
0000
0000
0000
0000
0000
0000
0000
0000
0000
0000
0000
0000
0000
0000
0000
0000
0000
0000
0000
0000
0000
0000
0000
0000
0000
0000
0000
0000
0000
0000
0300
0100
0000
0000
0000
0000
0000
0000
0000
0000
0000
0000
0000
0000
0000
0000
0000
0000
0000
0000
0000
0000
0000
0000
0000
0000
0000
0000
0000
0000
0000
0000
0000
0000
0000
0000
0000
0000
0000
0000
0000
0000
0000
0000
0000
0000
0000
0000
0000
,
0100
0000
0000
0000
0000
0000
0000
0000
0000
0000
0000
0000
0000
0000
0000
0000
0000
0000
0000
0000
0000
0000
0000
0000
0000
0000
0000
0000
0000
0000
0000
0000
0000
0000
0000
0000
0000
0000
0000
0000
0000
0000
0000
0000
0000
0000
0000
0000
1000
0000
0000
0000
0000
0000
0000
0000
0000
0000
0000
0000
0000
0000
0000
0000
0000
0000
0000
0000
0000
0000
0000
0000
0001
0000
0000
0000
0000
0000
0000
0000
0000
0000
0000
0000
1000
0000
0000
0000
0000
0000
0000
0000
0000
0000
0000
0000
0020
0000
0000
0000
0000
0000
0000
0000
0000
0000
0000
0000
0000
0000
0000
0000
0000
0000
0000
0000
0000
0000
0000
0000
0000
0000
0000
0000
0000
0000
0000
0000
0000
0000
0000
0000
0000
0000
0000
0000
0000
0000
0000
0000
0000
0000
0000
0030
0010
0000
0000
0000
0000
0000
0000
0000
0000
0000
0000
0000
0000
0000
0000
0000
0000
0000
0000
0000
0000
0000
0000
0000
0000
0000
0000
0000
0000
0000
0000
0000
0000
0000
0000
0000
0000
0000
0000
0000
0000
0000
0000
0000
0000
0000
0000
0000
,
0010
0000
0000
0000
0000
0000
0000
0000
0000
0000
0000
0000
0000
0000
0000
0000
0000
0000
0000
0000
0000
0000
0000
0000
0000
0000
0000
0000
0000
0000
0000
0000
0000
0000
0000
0000
0000
0000
0000
0000
0000
0000
0000
0000
0000
0000
0000
0000
0010
0000
0000
0000
0000
0000
0000
0000
0000
0000
0000
0000
0000
0000
0000
0000
0000
0000
0000
0000
0000
0000
0000
0000
0000
0000
0000
0000
0000
0000
0000
0000
0000
0000
0000
0000
0000
0000
0000
0000
0000
0000
0000
0000
0000
0000
0000
0000
0200
0000
0000
0000
0000
0000
0000
0000
0000
0000
0000
0000
0000
0000
0000
0000
0000
0000
0000
0000
0000
0000
0000
0000
0000
0000
0000
0000
0000
0000
0000
0000
0000
0000
0000
0000
0000
0000
0000
0000
0000
0000
0000
0000
0000
0000
0000
0300
0100
0000
0000
0000
0000
0000
0000
0000
0000
0000
0000
0000
0000
0000
0000
0000
0000
0000
0000
0000
0000
0000
0000
0000
0000
0000
0000
0000
0000
0000
0000
0000
0000
0000
0000
0000
0000
0000
0000
0000
0000
0000
0000
0000
0000
0000
0000
0000
,
0020
0430
0301
1000
,
0002
0010
1003
0001
,
1000
0000
0010
1000
0001
0000
0010
0000
,
0001
0000
0010
0000
0001
0000
1000
0000
0010
0000
0100
0010
0100
0000
0010
0000
,
0010
1000
4000
0000
3001
1000
0001
0100
,
0010
0100
0002
0000
0013
0100
1000
0100
,
0010
0001
1000
1000
0010
0100
0010
0001
,
0010
0100
0002
0000
0013
0001
1000
0100
,
0010
0000
0100
0000
2000
0000
0000
0000
3010
0100
0010
0100
0010
0000
0400
0000
,
0301
1000
0001
1000
0001
0000
0040
0000
0031
0010
0001
1000
0001
0000
0040
0000
,
0031
1000
0001
0100
0010
0000
1000
0000
0040
0000
0000
0030
0400
0000
0000
0300
,
0001
0000
0100
0000
1000
0000
0100
0000
0001
0000
0010
0001
1000
0000
0010
1000
,
0002
0000
0000
0003
0000
0000
0000
0000
1001
0000
1000
0100
0010
0100
1000
0001
,
0000
0001
0000
0000
0100
0000
0000
0000
0010
0000
0100
0010
1000
0010
0100
0001
,
0000
1000
0000
0000
1000
0000
0000
0001
1000
0000
0100
0010
0000
0100
1000
0001
,
0000
1000
0100
0000
0100
0000
0000
1000
0000
0001
0000
0000
0100
0000
0000
0010
,
0000
0100
0000
0000
0001
0000
0000
0000
1000
0000
1000
0100
0010
0100
1000
0001
,
0000
0100
0000
0000
0100
0000
0000
0000
0010
0100
0001
1000
0100
0010
0000
0100
,
1000
0000
0001
1000
0100
0000
1000
0000
0001
0000
0100
0010
0000
0100
0001
0100
,
0000
0100
0010
0000
1000
0000
0000
0000
0001
0000
0000
0000
1000
0000
0000
0000
,
0001
1000
0000
0000
0110
0000
0000
0000
0001
0000
1000
0010
0100
0010
1000
0010
,
0100
0001
0000
0000
0001
0000
0000
0000
1000
0000
0001
0010
0100
0010
0001
1000
,
0001
0010
0000
0000
0010
0000
0000
0000
0100
0000
1000
0010
0000
0100
0010
1000
,
0000
1000
0010
0000
0100
0000
0000
0001
0000
1000
0000
0000
0100
0000
0000
1000
,
0000
0001
0000
0000
0100
0000
0000
0000
0010
0000
1000
0100
0010
0001
0010
0100
,
0010
0001
0000
0000
1000
0000
0000
0000
0010
0100
0001
1000
0100
0010
0000
0010
,
0100
1000
0001
0100
0010
0000
0100
0000
0001
0000
0100
0000
1000
0000
0100
0000
,
0001
0004
1003
4000
3200
0000
0000
0000
,
0300
0000
0000
0000
1000
0002
1003
0002
,
1003
0010
0002
0013
1000
0000
0000
0000
,
0000
0000
0000
0000
0001
2000
3001
2000
,
3001
0010
2000
3010
0001
0100
0000
0010
,
0000
1000
0000
0000
0001
2000
3100
2000
,
3001
0100
2000
3100
0001
0000
0001
0000
,
1000
0000
0001
0000
1000
0002
0103
0002
,
1003
0000
0100
0000
0002
0000
0103
0000
1000
0000
0010
0100
0001
0000
0010
0100
,
2000
0000
3000
0000
1100
0100
1000
0100
,
0001
0100
0010
0001
0000
1000
0010
0100
,
1000
0100
0001
0010
0000
0100
0010
0100
,
0001
0100
1000
0010
0000
0100
0010
0100
,
1000
0100
0010
1000
0000
0001
0010
0100
,
0001
1000
0010
0001
0000
0010
0100
1000
,
0010
0001
1000
0100
0000
1000
0100
0001
,
0010
0100
0001
1000
0000
0001
0100
1000
,
0000
0001
1000
0001
0110
1000
0100
0010
,
0001
2000
0010
3001
0100
0001
0100
0010
,
1000
0000
0001
0000
0010
0000
0000
0010
0001
0000
1000
0000
0010
0000
0100
0000
,
0001
2000
0100
3001
0010
0100
1000
0000
,
0010
0000
0100
0000
0110
0001
1000
0100
,
0010
0100
1000
0000
0110
1000
0001
0100
,
0001
1000
0010
0000
1001
1000
0100
0010
,
0101
0100
0010
1000
0002
0000
0000
0000
,
0000
0000
0000
0000
0003
0000
1000
0001
0010
0000
0000
0000
0000
0000
0000
0000
;

//---------------dance-double - Telperion----------------
#NOTES:
     dance-double:
     Telperion:
     Hard:
     9:
     0.471,0.512,0.065,0.111,0.107,336.000,7.000,12.000,8.000,0.000,0.000,0.000,0.471,0.512,0.065,0.111,0.107,336.000,7.000,12.000,8.000,0.000,0.000,0.000:
00000000
00000000
00000000
00000000
,
00000000
00000000
00000000
00000000
,
00022000
00000000
00000000
00000000
,
00003000
00000000
02030000
00000000
,
23000000
00000000
00000000
00000000
,
30200000
00000000
00000000
00000000
00000000
00000000
00000000
00300000
00020000
00000000
00000000
00000000
00000000
00000000
00000000
00000000
,
00030020
00000000
00000000
00000000
,
00000000
00000000
00000000
00000000
,
00000000
00000000
00000000
00000000
,
00000000
00000000
00000000
00000000
,
00000030
00000000
00000000
00000000
,
00000000
00000000
00000000
00000000
,
00000000
00000000
00000000
00000000
,
00000000
00000000
00000000
00000000
,
MMMM0000
00000000
00000000
00000000
00000000
0000MMMM
00000000
00000000
00000000
00000000
00000000
00000000
00000000
00000000
00000000
00000000
,
00000000
00000000
00000000
00000000
,
00000000
00000000
00000000
00000000
,
00000000
00000000
10000000
01000000
,
00000000
01000000
00010000
01000000
,
00100000
00001000
00000100
00000010
,
00000000
00000010
00000100
00000001
,
00000000
00000010
00000001
00000100
,
00000000
00000100
00001000
00000100
,
00000010
00000000
00010000
00001000
00100000
00000000
01000000
00000000
,
10000000
01000000
00100000
00010000
00100000
00000000
00100000
00000000
,
01000000
00100000
01000000
00000000
10010000
10000000
00100000
00000000
,
00010000
00001000
00100000
00000000
01000000
00010000
00001000
00000000
,
00000100
00000010
00000100
00000000
00001001
00000001
00000010
00000100
,
00000010
00000001
00001000
00000000
00000100
00010000
00001000
00000000
,
00000010
00000100
00010000
00000000
00001000
01000000
00100000
01000000
,
00020000
00000000
10000000
00000000
00130000
01000000
10000000
00100000
,
00010000
00001000
00101000
00000100
,
00001010
00000000
00010000
00000000
00011000
00001000
01000000
00001000
,
00010000
00000000
00000000
00001000
00000000
00000000
00010000
00000000
00000100
00000000
00000000
00000000
00000010
00000100
00000010
00000000
,
00001000
00000000
00000000
00000000
00000001
00000000
00000000
00000001
00000100
00000000
00000000
00000000
00000010
00001000
00000010
00000000
,
00010000
00000000
00000000
00000000
00010000
00000000
00000000
00001000
00010000
00000000
00000100
00000000
00000010
00000000
00001000
00000000
,
00010000
00000000
01000000
00000000
00100000
00000000
00000000
00010000
00000000
01000000
00000000
00000000
00100000
00000000
00000000
10000000
,
00000000
01000000
00000000
00000000
00100000
00000000
00000000
00000000
00010000
00000000
00100000
00000000
01000000
10000000
01000000
00000000
,
00010000
00000000
00001000
00000000
00100000
00001000
00010000
00000010
,
00001000
00000000
00000100
00000010
00000100
00000000
00000000
00000000
00001000
00000000
00000010
00000000
00000001
00000000
00000010
00000000
,
00001000
00000000
00000001
00000000
00000010
00000000
00000000
00000010
00000200
00000000
00000000
00000000
00000001
00000000
00000000
00000000
,
00001300
00000000
00000000
00000000
00000000
00000000
00000000
00000000
00000001
00000000
00000000
00000000
00000100
00000010
00000100
00000000
,
00000001
00000000
00001000
00000000
00000010
00000000
00000000
00000000
00010000
00000000
00000000
00000000
00001000
00010000
00001000
00000000
,
00100000
00000000
01000000
00000000
10000000
00000000
00000000
00000000
00100000
00000000
00010000
00001000
00000000
00000000
00001000
00000010
,
00000000
00000000
00000001
00000000
00000010
00000000
00000000
00000100
00000000
00010000
00000000
00000000
00001000
00000000
00000000
01000000
,
00000000
00100000
00000000
00000000
10000000
00000000
00000000
00000000
00100000
00000000
01000000
00000000
00010000
10000000
00010000
00000000
,
01000000
00100000
00010000
00000000
00001000
00000010
00000100
00010000
,
00001000
00100000
00100000
00000000
01000000
00010000
01000000
10000000
,
00100000
00010000
00100000
01000000
00002000
00000000
00000000
00000000
,
00003000
00000000
00000000
00000000
00010000
00001000
00000000
00001000
,
00000000
00010000
01000000
10000000
00100000
00000000
01000000
00000000
,
00100000
00000000
00010000
00000000
00001000
00010000
00000000
00010000
,
00000000
00001000
00000100
00000001
00000010
00000000
00000100
00000000
,
00000010
00000100
00000010
00000000
00000001
00001000
00000000
00000001
,
00000000
00000010
00000100
00010000
01000000
10000000
00000000
00010000
,
00000000
01000000
00100000
01000000
00010000
10000000
00000000
00100000
,
00000000
00010000
00001000
00000100
00000001
00000010
00001000
00000010
,
00000002
00000000
00000000
00000000
00000103
00000010
00000000
00000010
,
00000100
00001000
00000000
00010000
00000100
00001000
00000000
00000100
,
00000010
00001000
00000000
00010000
00001000
00010000
00000000
00001000
,
01000000
00001000
00000000
01000000
00100000
00010000
00000000
00100000
,
10000000
01000000
00100000
00001000
00010000
00001000
00000000
00100000
,
01000000
10000000
00000000
00010000
01000000
00100000
00000000
00010000
,
00001000
00100000
00000000
01000000
00010000
00001000
00000000
00000100
,
00001000
00010000
00000000
00000100
00000000
00000100
00000000
00000100
,
00000000
00010000
00001000
00010000
00100000
01000000
10000000
01000000
,
00100000
00001000
00000010
00000000
00000100
00000001
00000010
00000100
,
00001000
00000000
00000010
00000000
00000100
00000000
00000000
00000100
00000010
00000000
00001000
00000000
00000010
00000000
00000100
00000000
,
00010000
01000000
10000000
00000000
01000000
00010000
00100000
00000000
,
01000000
00100000
00010000
00000000
10000000
01000000
00100000
00010000
,
00100000
00001000
00000010
00000001
00000100
00000010
00000100
00001000
,
00000100
00000010
00000100
00000000
00000001
00000010
00000100
00001000
,
00010000
01000000
10000000
01000000
00200000
00000000
00000000
00000000
,
00000000
01300000
10010000
00000000
;
