#TITLE:Ukigumo;
#SUBTITLE:;
#ARTIST:Hige Driver;
#TITLETRANSLIT:;
#SUBTITLETRANSLIT:;
#ARTISTTRANSLIT:;
#GENRE:Chiptune;
#CREDIT:D. Nelson;
#BANNER:ukigumo-bn.png;
#BACKGROUND:ukigumo-bg.png;
#LYRICSPATH:;
#CDTITLE:muteCD.png;
#MUSIC:ukigumo.ogg;
#OFFSET:1.356;
#SAMPLESTART:91.615;
#SAMPLELENGTH:18.875;
#SELECTABLE:YES;
#DISPLAYBPM:178.000;
#BPMS:0.000=178.108;
#STOPS:;
#TIMESIGNATURES:0.000=4=4
;
#BGCHANGES:2.500=ukigumo.avi=1.000=0=0=1=====,
99999=-nosongbg-=1.000=0=0=0 // don't automatically add -songbackground-
;
#KEYSOUNDS:;

//---------------dance-single - mute----------------
#NOTES:
     dance-single:
     mute:
     Challenge:
     12:
     0.982,1.000,0.304,0.889,0.425,728.000,39.000,114.000,55.000,0.000,0.000,0.982,1.000,0.304,0.889,0.425,728.000,39.000,114.000,55.000,0.000,0.000: // measure 1
0000
0000
0000
0000
,  // measure 2
0000
0000
0000
0000
,  // measure 3
0000
0000
0000
0000
,  // measure 4
0000
0000
0000
0000
,  // measure 5
0000
0000
0000
0000
,  // measure 6
0000
0000
0000
0000
,  // measure 7
0000
0000
0000
0000
,  // measure 8
0000
0000
0000
0000
,  // measure 9
0000
0000
0000
0000
,  // measure 10
1000
0010
1000
0100
0010
0100
1000
0001
,  // measure 11
0100
0010
1000
0100
0010
0100
1000
0001
,  // measure 12
0010
0001
1000
0010
0100
0010
1000
0100
,  // measure 13
0010
0100
1000
0001
0100
0010
1000
0010
,  // measure 14
0100
0001
0010
0001
1000
0010
0100
0010
,  // measure 15
1000
0100
0010
0100
1000
0001
0100
0010
,  // measure 16
1000
0001
0010
0100
0010
0001
1000
0010
,  // measure 17
0100
0000
0010
0000
1000
0000
0001
0000
0010
0000
0100
0000
0100
0000
0100
01M0
,  // measure 18
0002
1003
1001
1000
0100
0010
0110
0100
,  // measure 19
1000
0000
0001
0000
1001
0000
1000
0000
0010
0000
0100
0000
0101
0000
0100
01M0
,  // measure 20
1000
0100
1100
0100
0010
0001
0011
0001
,  // measure 21
1000
0000
0010
0000
0110
0000
0100
0000
0001
0000
0010
0000
0011
0000
0010
0M10
,  // measure 22
1000
0001
1001
1000
0010
0100
0101
0001
,  // measure 23
1000
0000
0100
0000
0110
0000
0100
0000
1000
0000
0010
0000
1010
0000
0010
0M10
,  // measure 24
0001
0100
0110
0100
0001
0010
0011
0001
,  // measure 25
1MM1
0000
1000
0000
1M1M
0000
0010
0000
M11M
0000
0100
0100
10MM
0000
0001
0000
,  // measure 26
0200
0000
0000
0310
0020
0000
0000
1030
,  // measure 27
0020
0000
1030
0200
0000
0301
0100
1000
,  // measure 28
0020
0000
0000
0130
0200
0000
0000
0301
,  // measure 29
0200
0000
0310
0200
0000
1300
0100
0001
,  // measure 30
0020
0000
0000
0130
0200
0000
0000
0310
,  // measure 31
0200
0000
1300
0020
0000
0031
0010
2000
,  // measure 32
0000
3002
0000
0013
0100
0200
0000
1300
,  // measure 33
0200
0000
0000
0000
1300
0000
2000
0000
0000
0000
3010
0000
0010
0000
0010
0M10
,  // measure 34
0002
1003
1001
0001
0010
0100
0110
0010
,  // measure 35
0001
0000
1000
0000
1001
0000
0001
0000
0100
0000
0010
0000
1010
0000
0010
0M10
,  // measure 36
0001
0010
0011
0010
0100
1000
1100
1000
,  // measure 37
0001
0000
0100
0000
0110
0000
0010
0000
1000
0000
0100
0000
1100
0000
0100
01M0
,  // measure 38
0001
1000
1001
0001
0100
0010
1010
1000
,  // measure 39
0001
0000
0010
0000
0110
0000
0010
0000
0001
0000
0100
0000
0101
0000
0100
01M0
,  // measure 40
1000
0010
0110
0010
1000
0100
1100
1000
,  // measure 41
1MM1
0000
0001
0000
MM11
0000
0010
0000
M11M
0000
0100
0100
M0M1
0000
1000
0000
,  // measure 42
0020
0000
0000
0130
0200
0000
0000
0301
,  // measure 43
0200
0000
0301
0020
0000
1030
0010
0001
,  // measure 44
0200
0000
0000
0310
0020
0000
0000
1030
,  // measure 45
0020
0000
0130
0020
0000
0031
0010
1000
,  // measure 46
0200
0000
0000
0310
0020
0000
0000
0130
,  // measure 47
0020
0000
0031
0200
0000
1300
0100
0002
,  // measure 48
0000
2003
0000
3100
0010
0020
0000
0031
,  // measure 49
0020
0000
0000
0000
0031
0000
0002
0000
0000
0000
0103
0000
0100
0000
0100
01M0
,  // measure 50
2000
0000
3001
0010
0100
0000
0010
0001
0010
0000
0001
1000
0010
0000
1000
0001
,  // measure 51
1000
0000
0001
0100
0010
0000
0100
0001
0100
0000
0001
1000
0100
0000
0100
01M0
,  // measure 52
0001
0000
1000
0010
0100
0000
0001
1000
0001
0000
1000
0100
0010
0000
0100
0010
,  // measure 53
0100
0000
0010
0001
0100
0000
0001
1000
0001
0000
1000
0010
0100
0000
0100
01M0
,  // measure 54
1000
0000
0010
0100
0001
0000
1000
0100
1000
0000
0010
0100
0001
0000
1000
0100
,  // measure 55
1000
0000
0001
0100
0010
0000
1000
0010
1000
0000
0001
0010
0100
0000
0100
M100
,  // measure 56
0001
0000
1000
0010
0100
0000
0001
1000
0001
0000
1000
0100
0010
0000
0100
1000
,  // measure 57
0M1M
0000
0000
0000
1MM1
0000
0000
0000
M1M1
0000
0100
0100
10MM
0000
0010
0010
,  // measure 58
0002
0000
0013
0000
0100
0000
2000
3000
0020
0030
0100
0000
0001
0000
0020
0030
,  // measure 59
0200
0300
1000
0000
0001
0000
0200
0300
0020
0030
2000
3002
0023
0030
0002
0003
,  // measure 60
0200
0300
0010
0000
1000
0000
0002
0003
0020
0030
0100
0000
1000
0000
0020
0030
,  // measure 61
0100
0000
0001
0010
0000
0100
1000
0000
0001
0100
0010
1000
0001
1000
0010
1000
,  // measure 62
0100
0000
0010
0100
0010
0000
0010
0000
0010
0000
0002
0000
0003
0000
200M
0000
,  // measure 63
0000
0000
3020
0000
0130
0000
0100
0000
0100
0000
0001
0100
0010
0000
1000
0000
,  // measure 64
0200
0000
0000
0320
0000
0031
1000
1000
,  // measure 65
1000
0000
0001
1000
0001
0000
0020
0000
0000
0000
0031
0000
0200
0000
0000
0000
,  // measure 66
0301
0000
0001
1000
0001
0000
0001
0000
0001
0000
0020
0000
0030
0000
02M0
0000
,  // measure 67
0000
0000
1300
0000
0001
0000
0001
0000
0001
0000
0001
1000
0100
0000
0020
0000
,  // measure 68
0032
0000
0000
0000
0000
0000
0203
0000
0000
0000
0301
0000
0010
0000
0010
0001
,  // measure 69
0010
0000
0010
0001
0010
0000
0200
0000
1300
0000
0010
0M10
0001
0000
0100
01M0
,  // measure 70
1000
0000
1000
0001
1000
0000
1000
0000
1000
0000
0020
0000
0030
0000
02M0
0000
,  // measure 71
0000
0000
0301
0000
0010
0000
0010
0000
0010
0000
0010
0001
0100
0000
0001
0000
,  // measure 72
1000
0000
1000
0010
1000
0000
1000
0000
1000
0000
0200
0000
0300
0000
0M20
0000
,  // measure 73
0000
0000
0031
0000
0010
0000
0010
0000
0010
0000
0100
01M0
0001
0000
0010
0M10
,  // measure 74
1000
0000
1000
0001
1000
0000
1000
0000
1000
0000
0200
0000
0300
0000
0M20
0000
,  // measure 75
0031
0000
0100
0001
0100
0000
0010
0M10
0001
0000
0100
01M0
1000
0001
1000
0001
,  // measure 76
0010
0000
0100
0000
0010
0000
0001
0100
0010
0100
0001
0000
0010
0000
0100
0000
,  // measure 77
1000
0000
0001
0000
0100
0000
0010
1000
0001
1000
0010
0000
0100
0000
0001
0010
,  // measure 78
0100
0000
1000
0000
0010
0000
1000
0001
0100
0001
1000
0000
0100
0000
0010
0000
,  // measure 79
0001
0000
0100
0001
0100
0000
0100
0001
1000
0001
1000
0000
0100
0010
0100
0010
,  // measure 80
0001
0000
1000
0000
0001
0000
0010
0100
1000
0100
0010
0000
0001
0000
1000
0000
,  // measure 81
0010
0000
0100
0000
0001
0000
1000
0100
0010
0100
1000
0000
0001
0000
0100
0010
,  // measure 82
1000
0000
0001
0000
1000
0000
0010
0100
0001
0100
0010
0000
1000
0000
0001
0000
,  // measure 83
0010
0000
0100
0000
0010
0000
0001
1000
0000
0001
1000
0001
0000
1000
0100
1000
,  // measure 84
0001
0000
0001
1000
0001
0000
0001
0000
0001
0000
0200
0000
0300
0000
0M20
0000
,  // measure 85
0000
0000
0000
0000
1030
0000
0000
0001
0000
1000
0001
0000
1000
0000
0010
0100
,  // measure 86
0001
0000
0001
0010
0001
0000
0001
0010
0001
0000
0200
0000
0300
0000
0M20
0000
,  // measure 87
1030
0000
0100
0000
0010
0000
0001
0010
0000
0010
0001
0000
0001
0010
0001
1000
,  // measure 88
0010
0000
0010
1000
0010
0000
0010
0000
0010
0000
2000
0000
3000
0000
0100
0000
,  // measure 89
M11M
0000
0000
0000
1MM1
0000
0000
0000
M1M1
0000
0001
1000
0010
1000
0001
0000
,  // measure 90
2000
0000
3100
0000
0010
0000
0002
0003
0200
0300
0010
0000
1000
0000
0200
0300
,  // measure 91
0020
0030
0001
0000
1000
0000
0020
0030
0200
0300
0002
2003
3200
0300
2000
3000
,  // measure 92
0020
0030
0100
0000
0001
0000
2000
3000
0200
0300
0010
0000
0001
0000
0200
0300
,  // measure 93
0020
0030
1000
0001
1000
0000
2000
3000
0200
0300
0020
0032
2003
3000
0020
0030
,  // measure 94
0200
0300
0001
0000
1000
0000
0200
0300
0020
0030
0001
0000
1000
0000
0002
0003
,  // measure 95
0200
0300
0010
0000
1000
0000
0002
0003
2000
3000
0200
0320
0032
0003
0200
0300
,  // measure 96
0020
0030
1000
0000
0001
0000
0020
0030
0200
0300
1000
0000
0001
0000
0200
0300
,  // measure 97
0020
0030
0000
0000
0000
0000
0000
0000
0000
0000
0000
0000
0000
0000
0000
0000
;

//---------------dance-single - mute----------------
#NOTES:
     dance-single:
     mute:
     Hard:
     11:
     0.885,0.899,0.304,0.476,0.425,694.000,39.000,61.000,7.000,0.000,0.000,0.885,0.899,0.304,0.476,0.425,694.000,39.000,61.000,7.000,0.000,0.000:
0000
0000
0000
0000
,
0000
0000
0000
0000
,
0000
0000
0000
0000
,
0000
0000
0000
0000
,
0000
0000
0000
0000
,
0000
0000
0000
0000
,
0000
0000
0000
0000
,
0000
0000
0000
0000
,
0000
0000
0000
0000
,
0001
0100
0001
0010
0100
0010
0001
1000
,
0010
0100
0001
0010
0100
0010
0001
1000
,
0100
1000
0001
0100
0010
0100
0001
0010
,
0100
0010
0001
1000
0010
0100
0001
0100
,
0010
1000
0100
1000
0001
0100
0010
0100
,
0001
0010
0100
0010
0001
1000
0010
0100
,
0001
1000
0100
0010
0100
1000
0001
0100
,
0010
0000
0100
0000
0001
0000
1000
0000
0100
0000
0010
0000
0010
0000
0010
0001
,
2000
3001
1001
1000
0100
0010
0110
0100
,
1000
0000
0001
0000
1001
0000
1000
0000
0010
0000
0100
0000
0101
0000
0100
0001
,
1000
0100
1100
0100
0010
0001
0011
0001
,
1000
0000
0010
0000
0110
0000
0100
0000
0001
0000
0010
0000
0011
0000
0010
0100
,
1000
0001
1001
1000
0010
0100
0101
0001
,
1000
0000
0100
0000
0110
0000
0100
0000
1000
0000
0010
0000
1010
0000
0010
0100
,
0001
0100
0110
0100
0001
0010
0011
0001
,
1001
0000
0000
0000
1010
0000
0000
0000
0110
0000
0100
0001
0010
0000
0001
0000
,
0200
0000
0000
0310
0020
0000
0000
1030
,
0020
0000
1030
0200
0000
0301
0100
1000
,
0020
0000
0000
0130
0200
0000
0000
0301
,
0200
0000
0310
0200
0000
1300
0100
0001
,
0020
0000
0000
0130
0200
0000
0000
0310
,
0200
0000
1300
0020
0000
0031
0010
2000
,
0000
3002
0000
0013
0100
0200
0000
1300
,
0200
0000
0000
0000
1300
0000
2000
0000
0000
0000
3010
0000
0010
0000
0010
0100
,
0002
1003
1001
0001
0010
0100
0110
0010
,
0001
0000
1000
0000
1001
0000
0001
0000
0100
0000
0010
0000
1010
0000
0010
0100
,
0001
0010
0011
0010
0100
1000
1100
1000
,
0001
0000
0100
0000
0110
0000
0010
0000
1000
0000
0100
0000
1100
0000
0100
0010
,
0001
1000
1001
0001
0100
0010
1010
1000
,
0001
0000
0010
0000
0110
0000
0010
0000
0001
0000
0100
0000
0101
0000
0100
0010
,
1000
0010
0110
0010
1000
0100
1100
1000
,
1001
0000
0000
0000
0011
0000
0000
0000
0110
0000
0100
1000
0001
0000
1000
0000
,
0020
0000
0000
0130
0200
0000
0000
0301
,
0200
0000
0301
0020
0000
1030
0010
0001
,
0200
0000
0000
0310
0020
0000
0000
1030
,
0020
0000
0130
0020
0000
0031
0010
1000
,
0200
0000
0000
0310
0020
0000
0000
0130
,
0020
0000
0031
0200
0000
1300
0100
0002
,
0000
2003
0000
3100
0010
0020
0000
0031
,
0020
0000
0000
0000
0031
0000
0002
0000
0000
0000
0103
0000
0100
0000
0100
0010
,
2000
0000
3001
0010
0100
0000
0010
0001
0010
0000
0001
1000
0010
0000
1000
0001
,
1000
0000
0001
0100
0010
0000
0100
0001
0100
0000
0001
1000
0100
0000
0100
0010
,
0001
0000
1000
0010
0100
0000
0001
1000
0001
0000
1000
0100
0010
0000
0100
0010
,
0100
0000
0010
0001
0100
0000
0001
1000
0001
0000
1000
0010
0100
0000
0100
0010
,
1000
0000
0010
0100
0001
0000
1000
0100
1000
0000
0010
0100
0001
0000
1000
0100
,
1000
0000
0001
0100
0010
0000
1000
0010
1000
0000
0001
0010
0100
0000
0100
1000
,
0001
0000
1000
0010
0100
0000
0001
1000
0001
0000
1000
0100
0010
0000
0100
1000
,
0010
0000
0000
0000
1001
0000
0000
0000
0101
0000
0100
0001
1000
0000
0100
0010
,
0001
0000
0000
1000
0010
0000
0000
1000
,
0100
0000
0000
0000
0000
0000
0010
0000
0001
0000
1000
0010
0100
0000
0001
0000
,
0010
0000
0000
0001
0100
0000
0000
0010
,
1000
0000
0001
0010
0000
0100
1000
0000
0001
0100
0010
1000
0001
1000
0010
1000
,
0100
0000
0010
0100
0010
0000
0010
0000
0010
0000
0002
0000
0003
0000
200M
0000
,
0000
0000
3020
0000
0130
0000
0100
0000
0100
0000
0001
0100
0010
0000
1000
0000
,
0200
0000
0000
0320
0000
0031
1000
1000
,
1000
0000
0001
1000
0001
0000
0020
0000
0000
0000
0031
0000
0200
0000
0000
0000
,
0301
0000
0001
1000
0001
0000
0001
0000
0001
0000
0020
0000
0030
0000
02M0
0000
,
0000
0000
1300
0000
0001
0000
0001
0000
0001
0000
0001
1000
0100
0000
0020
0000
,
0032
0000
0000
0000
0000
0000
0203
0000
0000
0000
0301
0000
0010
0000
0010
0001
,
0010
0000
0010
0001
0010
0000
0200
0000
1300
0000
0010
0100
0001
0000
0100
0010
,
1000
0000
1000
0001
1000
0000
1000
0000
1000
0000
0020
0000
0030
0000
02M0
0000
,
0000
0000
0301
0000
0010
0000
0010
0000
0010
0000
0010
0001
0100
0000
0001
0000
,
1000
0000
1000
0010
1000
0000
1000
0000
1000
0000
0200
0000
0300
0000
0M20
0000
,
0000
0000
0031
0000
0010
0000
0010
0000
0010
0000
0100
0010
0001
0000
0010
0100
,
1000
0000
1000
0001
1000
0000
1000
0000
1000
0000
0200
0000
0300
0000
0M20
0000
,
0031
0000
0100
0001
0100
0000
0010
0100
0001
0000
0100
0010
1000
0001
1000
0001
,
0010
0000
0100
0000
0010
0000
0001
1000
0001
1000
0001
0000
0010
0000
0100
0000
,
1000
0000
0001
0000
0100
0000
0010
1000
0010
1000
0010
0000
0100
0000
0001
0010
,
0100
0000
1000
0000
0010
0000
0100
0001
0100
0001
0100
0000
0010
0000
1000
0000
,
0001
0000
1000
0001
1000
0000
1000
0100
1000
0100
1000
0000
0010
0100
0010
0100
,
0001
0000
1000
0000
0001
0000
0010
0100
0010
0100
0010
0000
0001
0000
1000
0000
,
0010
0000
0100
0000
0001
0000
1000
0100
1000
0100
1000
0000
0001
0000
0100
0010
,
1000
0000
0001
0000
1000
0000
0001
0100
0001
0100
0001
0000
1000
0000
0001
0000
,
0010
0000
0100
0000
0010
0000
0001
1000
0000
0001
1000
0001
0000
1000
0100
1000
,
0001
0000
0001
1000
0001
0000
0001
0000
0001
0000
0200
0000
0300
0000
0M20
0000
,
0000
0000
0000
0000
1030
0000
0000
1000
0000
0100
1000
0000
0100
0000
0100
0010
,
0001
0000
0001
0010
0001
0000
0001
0010
0001
0000
0200
0000
0300
0000
0M20
0000
,
1030
0000
0100
0000
0010
0000
0001
0010
0000
0010
0001
0000
0001
0010
0001
1000
,
0010
0000
0010
1000
0010
0000
0010
0000
0010
0000
2000
0000
3000
0000
0100
0000
,
0110
0000
0000
0000
1001
0000
0000
0000
0101
0000
0001
1000
0001
1000
0001
0000
,
1000
0000
0000
0001
0100
0000
0000
0001
,
0010
0000
0000
0000
0000
0000
0100
0000
1000
0000
0001
0100
0010
0000
1000
0000
,
0100
0000
0000
1000
0010
0000
0000
0100
,
0010
0000
1000
0001
1000
0000
0001
0000
1000
0000
0100
0010
0001
0000
0100
0000
,
0010
0000
0000
1000
0100
0000
0000
1000
,
0010
0000
0000
0000
0000
0000
0100
0000
0001
0000
0010
0100
1000
0000
0010
0000
,
0100
0000
0000
0001
0010
0000
0000
0001
,
0100
0000
0000
0000
;
