#TITLE:The Island;
#SUBTITLE:Pt. 1 (Dawn);
#ARTIST:Pendulum;
#TITLETRANSLIT:;
#SUBTITLETRANSLIT:;
#ARTISTTRANSLIT:;
#GENRE:;
#CREDIT:;
#BANNER:theislandpt1bn.png;
#BACKGROUND:theislandpt1bg.png;
#LYRICSPATH:;
#CDTITLE:;
#MUSIC:theislandpt1.ogg;
#OFFSET:0.009;
#SAMPLESTART:160.000;
#SAMPLELENGTH:15.235;
#SELECTABLE:YES;
#BPMS:0.000=126.000,96.000=63.000,104.000=126.000;
#STOPS:;
#BGCHANGES:;
#KEYSOUNDS:;

//---------------dance-single - I. Pyles----------------
#NOTES:
     dance-single:
     I. Pyles:
     Beginner:
     1:
     0.017,0.024,0.000,0.000,0.000,24.000,0.000,0.000,0.000,0.000,0.000,0.017,0.024,0.000,0.000,0.000,24.000,0.000,0.000,0.000,0.000,0.000: // measure 1
0000
0000
0000
0000
,  // measure 2
0000
0000
0000
0000
,  // measure 3
0000
0000
0000
0000
,  // measure 4
0000
0000
0000
0000
,  // measure 5
0001
0000
0000
0000
,  // measure 6
0000
0000
0000
0000
,  // measure 7
0000
0000
0000
0000
,  // measure 8
0000
0000
0000
0000
,  // measure 9
1000
0000
0000
0000
,  // measure 10
0000
0000
0000
0000
,  // measure 11
0000
0000
0000
0000
,  // measure 12
0000
0000
0000
0000
,  // measure 13
0100
0000
0000
0000
,  // measure 14
0000
0000
0000
0000
,  // measure 15
0000
0000
0000
0000
,  // measure 16
0000
0000
0000
0000
,  // measure 17
1000
0000
0000
0000
,  // measure 18
0000
0000
0000
0000
,  // measure 19
0000
0000
0000
0000
,  // measure 20
0000
0000
0000
0000
,  // measure 21
0100
0000
0000
0000
,  // measure 22
0000
0000
0000
0000
,  // measure 23
0000
0000
0000
0000
,  // measure 24
0000
0000
0000
0000
,  // measure 25
0100
0000
0000
0000
,  // measure 26
0000
0000
0000
0000
,  // measure 27
0100
0000
0000
0000
,  // measure 28
0000
0000
0000
0000
,  // measure 29
0000
0000
0000
0000
,  // measure 30
0000
0000
0000
0000
,  // measure 31
1000
0000
0000
0000
,  // measure 32
0000
0000
0000
0000
,  // measure 33
0000
0000
0000
0000
,  // measure 34
0000
0000
0000
0000
,  // measure 35
0100
0000
0000
0000
,  // measure 36
0000
0000
0000
0000
,  // measure 37
0000
0000
0000
0000
,  // measure 38
0000
0000
0000
0000
,  // measure 39
0010
0000
0000
0000
,  // measure 40
0000
0000
0000
0000
,  // measure 41
0000
0000
0000
0000
,  // measure 42
0000
0000
0000
0000
,  // measure 43
0100
0000
0000
0000
,  // measure 44
0000
0000
0000
0000
,  // measure 45
0000
0000
0000
0000
,  // measure 46
0000
0000
0000
0000
,  // measure 47
0100
0000
0000
0000
,  // measure 48
0000
0000
0000
0000
,  // measure 49
0000
0000
0000
0000
,  // measure 50
0000
0000
0000
0000
,  // measure 51
0100
0000
0000
0000
,  // measure 52
0000
0000
0000
0000
,  // measure 53
0000
0000
0000
0000
,  // measure 54
0000
0000
0000
0000
,  // measure 55
1000
0000
0000
0000
,  // measure 56
0000
0000
0000
0000
,  // measure 57
0000
0000
0000
0000
,  // measure 58
0000
0000
0000
0000
,  // measure 59
0010
0000
0000
0000
,  // measure 60
0000
0000
0000
0000
,  // measure 61
0000
0000
0000
0000
,  // measure 62
0000
0000
0000
0000
,  // measure 63
1000
0000
0000
0000
,  // measure 64
0000
0000
0000
0000
,  // measure 65
0000
0000
0000
0000
,  // measure 66
0000
0000
0000
0000
,  // measure 67
1000
0000
0000
0000
,  // measure 68
0000
0000
0000
0000
,  // measure 69
0000
0000
0000
0000
,  // measure 70
0000
0000
0000
0000
,  // measure 71
0001
0000
0000
0000
,  // measure 72
0000
0000
0000
0000
,  // measure 73
0000
0000
0000
0000
,  // measure 74
0000
0000
0000
0000
,  // measure 75
1000
0000
0000
0000
,  // measure 76
0000
0000
0000
0000
,  // measure 77
0000
0000
0000
0000
,  // measure 78
0000
0000
0000
0000
,  // measure 79
0100
0000
0000
0000
,  // measure 80
0000
0000
0000
0000
,  // measure 81
0000
0000
0000
0000
,  // measure 82
0000
0000
0000
0000
,  // measure 83
0100
0000
0000
0000
,  // measure 84
0000
0000
0000
0000
,  // measure 85
0000
0000
0000
0000
,  // measure 86
0000
0000
0000
0000
,  // measure 87
1000
0000
0000
0000
,  // measure 88
0000
0000
0000
0000
,  // measure 89
0000
0000
0000
0000
,  // measure 90
0000
0000
0000
0000
,  // measure 91
0010
0000
0000
0000
,  // measure 92
0000
0000
0000
0000
,  // measure 93
0000
0000
0000
0000
,  // measure 94
0000
0000
0000
0000
,  // measure 95
0100
0000
0000
0000
;

//---------------dance-single - I. Pyles----------------
#NOTES:
     dance-single:
     I. Pyles:
     Easy:
     3:
     0.209,0.309,0.051,0.020,0.000,275.000,10.000,4.000,0.000,0.000,0.000,0.209,0.309,0.051,0.020,0.000,275.000,10.000,4.000,0.000,0.000,0.000:
0000
0000
0000
0000
,
0000
0000
0000
0000
,
0000
0000
0000
0000
,
0000
0000
0000
0000
,
1001
0000
0001
0000
,
0100
0000
0010
0000
,
1000
0000
0001
0000
,
0100
0000
0010
0000
,
1001
0000
0001
0000
,
0100
0000
0010
0000
,
1000
0000
0001
0000
,
0100
0000
0010
0000
,
1001
0000
0100
0100
,
0100
0100
0100
0100
,
0100
0100
0100
0100
,
0100
0100
0100
0100
,
1001
0000
1000
0010
,
0100
0000
0001
0010
,
0100
0000
1000
0010
,
0100
0000
0001
0010
,
1001
0000
1001
0000
,
1001
0000
1001
0000
,
1000
0001
1000
0001
,
0100
0010
0100
0010
,
0100
0000
0001
0010
0100
0000
0010
0100
,
1000
0000
0001
1000
0001
0000
1000
0001
,
0100
0000
0001
0010
,
0100
0000
1000
0010
,
0100
0000
0001
1000
,
0001
0000
1000
0001
,
0100
0000
0001
0010
,
0100
0000
1000
0010
,
0100
0000
0001
1000
,
0001
0000
1000
0001
,
0100
0000
0001
0010
,
0100
0000
1000
0010
,
0100
0000
0001
1000
,
0001
0000
1000
0001
,
0010
0000
0100
0100
,
0100
0000
0010
0010
,
0010
0000
0001
0001
,
0001
0000
0100
0010
,
1000
0000
0100
0100
,
0100
0000
0010
0010
,
0010
0000
0001
0001
,
1000
0001
0100
0001
,
1000
0001
0000
1000
,
0100
1000
0000
0001
,
0010
0001
0000
1000
,
0010
1000
0000
0001
,
1000
0001
0000
0001
,
0100
0001
0000
1000
,
0100
1000
0000
0001
,
0100
0001
0000
1000
,
0001
1000
0000
0010
,
1000
0010
0000
0100
,
0010
0100
0000
0001
,
1000
0001
0000
0001
,
0100
0010
0000
0010
,
0100
0001
0000
1000
,
0100
0010
0000
0010
,
0100
1000
0000
0001
,
1000
1000
0000
0001
,
0100
0100
0000
0010
,
1000
1000
0000
0001
,
0010
0010
0000
0001
,
1000
1000
0000
0010
,
0100
0100
0000
0010
,
1000
1000
0000
0001
,
0010
0010
0000
0100
,
1000
1000
0000
0001
,
1000
1000
0000
0010
,
0100
0100
0000
0001
,
0010
0010
0000
0100
,
0010
0010
0000
0001
,
1000
1000
0000
0010
,
0100
0100
0000
0001
,
1000
0000
0000
0000
1000
0000
0000
0000
2002
3003
0000
0000
2002
3003
0000
0000
,
0100
0000
0001
0010
,
0100
0000
1000
0010
,
0100
0000
0001
1000
,
0001
0000
1000
0001
,
0100
0000
0001
0010
,
0100
0000
1000
0010
,
0100
0000
0001
1000
,
0001
0000
1000
0001
,
0010
0000
0100
0100
,
0100
0000
0010
0010
,
0010
0000
0001
0001
,
0001
0000
0100
0010
,
1000
0000
0100
0100
,
0100
0000
0010
0010
,
0010
0000
0001
0001
,
1000
0001
0100
0001
,
1000
0000
0000
0000
;

//---------------dance-single - I. Pyles----------------
#NOTES:
     dance-single:
     I. Pyles:
     Medium:
     7:
     0.567,1.000,0.142,1.000,0.056,504.000,28.000,252.000,0.000,10.000,2.000,0.567,1.000,0.142,1.000,0.056,504.000,28.000,252.000,0.000,10.000,2.000:
0000
0000
0000
0000
,
0000
0000
0000
0000
,
0000
0000
0000
0000
,
0000
0000
0000
0000
,
2100
0002
3000
0020
0003
0000
0230
0000
,
2300
0002
3000
0203
0320
0000
2030
0000
,
3002
0023
0000
0230
0000
0000
2300
0000
,
3002
0203
0000
0320
2030
0000
3200
0000
,
0312
2000
0003
0020
3000
0000
0230
0000
,
0302
2003
0000
3200
0320
0000
0032
0000
,
0203
0320
0000
2030
0000
0000
3002
0000
,
2003
3200
0000
0320
0032
0000
0203
0000
,
1302
0000
0000
0000
0000
0000
0000
0000
0000
0000
0000
0000
0000
0000
0000
0000
0000
0000
0000
0000
0000
0000
0000
0000
0003
0000
0000
0000
0000
0000
0000
0000
0000
0000
0000
0000
0000
0000
0000
0000
0000
0000
0000
0000
0000
0000
0000
0000
0000
0000
0000
0000
0000
0000
0000
0000
0000
0000
0000
0000
0000
0000
0000
0000
0000
0000
0000
0000
0000
0000
0000
0000
0002
0003
0000
0000
0000
0000
0000
0000
0000
0000
0000
0000
0000
0000
0000
0000
0000
0000
0000
0000
0000
0000
0000
0000
2000
0000
0000
3000
0000
0000
0000
0000
0000
0000
0000
0000
0000
0000
0000
0000
0000
0000
0000
0000
0000
0000
0000
0000
0002
0000
0000
0003
0000
0000
0000
0000
0000
0000
0000
0000
0000
0000
0000
0000
0000
0000
0000
0000
0000
0000
0000
0000
2000
0000
0000
3000
0000
0000
0000
0000
0000
0000
0000
0000
0000
0000
0000
0000
0000
0000
0000
0000
0000
0000
0000
0000
0002
0000
0000
0003
0000
0000
0000
0000
0000
0000
0000
0000
0000
0000
0000
0000
0000
0000
0000
0000
0000
0000
0000
0000
,
2000
0000
3000
0000
0000
0000
0000
0000
0002
0000
0003
0000
0000
0000
0000
0000
2000
0000
3000
0000
0000
0000
0000
0000
0002
0000
0003
0000
0000
0000
0000
0000
2000
0000
0000
3000
0000
0000
0000
0000
0002
0000
0000
0003
0000
0000
0000
0000
2000
0000
0000
3000
0000
0000
0000
0000
0002
0000
0000
0003
0000
0000
0000
0000
,
2000
0000
0000
0000
3000
0000
0000
0000
0002
0000
0000
0000
0003
0000
0000
0000
2000
0000
0000
0000
3000
0000
0000
0000
0002
0000
0000
0000
0003
0000
0000
0000
2000
0000
0000
0000
0000
3000
0000
0000
0002
0000
0000
0000
0000
0003
0000
0000
2000
0000
0000
0000
0000
3000
0000
0000
0002
0000
0000
0000
0000
0003
0000
0000
,
2000
0000
0000
0000
0000
0000
3000
0000
0002
0000
0000
0000
0000
0000
0003
0000
2000
0000
0000
0000
0000
0000
3000
0000
0002
0000
0000
0000
0000
0000
0003
0000
2000
0000
0000
0000
0000
0000
0000
3000
0002
0000
0000
0000
0000
0000
0000
0003
2000
0000
0000
0000
0000
0000
0000
3000
0002
0000
0000
0000
0003
0000
0000
0000
,
2001
3001
0100
0020
2030
3001
2000
0000
,
3002
1000
1003
0200
0320
0031
2000
3001
,
0200
0010
0310
2000
3020
0130
0002
0000
,
2003
0001
3001
0020
0230
1300
0002
0103
,
2002
3103
0010
0001
2002
3103
0010
1000
,
2002
3103
0010
0001
2002
3103
0010
1000
,
2002
3103
2002
3013
2002
3103
2002
3013
,
2002
0000
0000
3003
2002
0000
0000
3003
2002
0000
0000
3003
2002
0000
0000
3003
2002
0000
0000
3003
2002
0000
0000
3003
2002
0000
0000
3003
0001
0000
0000
0000
,
0200
0000
0300
0100
0002
0000
0023
0000
0230
0000
0300
1000
0002
0000
0203
0000
,
0320
0000
0030
0100
0001
0010
0100
2000
0000
0000
3000
0001
0100
0010
2000
0000
,
3200
0000
0300
0100
2000
0000
3020
0000
,
0230
0000
0300
0001
2000
0000
3200
0000
,
0320
0000
0000
0130
1000
0001
0010
0100
,
4000
0004
0000
0000
0000
0000
0000
0000
0000
0000
0000
0000
0000
0000
0000
0000
0000
0000
0000
0000
0000
0000
3003
0000
,
0200
0000
0300
0100
0002
0000
0023
0000
,
0230
0000
0300
1000
0002
0000
0203
0000
,
0320
0000
0000
0130
0001
0010
0100
2000
,
3000
1000
0000
0001
0010
0001
2000
0000
,
3200
0000
0300
0100
2000
0000
3020
0000
,
0230
0000
0300
0001
2000
0000
3200
0000
,
0320
0000
0000
0130
1000
0010
0100
0002
,
0003
0001
0000
1000
0010
1000
0002
0000
,
2003
0000
3000
1000
0200
0000
0310
0000
,
0001
0000
0000
0001
0000
0000
0000
0000
0200
0000
0000
0000
0310
0000
0000
0000
,
1000
0000
0000
1000
0000
0000
0000
0000
0200
0000
0000
0000
0310
0000
0000
0000
,
0001
0000
0000
0001
0000
0000
0000
0000
0001
0000
1000
0000
0100
0000
0010
0000
,
0002
0000
0003
0001
0020
0000
0130
0000
,
1000
0000
0000
1000
0000
0000
0000
0000
0020
0000
0000
0000
0130
0000
0000
0000
,
0001
0000
0000
0001
0000
0000
0000
0000
1000
0000
0000
1000
0000
0000
0000
0000
,
0001
0000
0000
0001
0000
0000
1000
0000
0100
0000
1000
0000
0100
0000
1000
0000
,
0001
0000
0020
0031
1000
0000
0020
1030
,
0001
0000
0020
0031
1000
0000
0020
1030
,
0001
0000
0020
0031
1000
0000
0020
1030
,
0001
0000
0020
0031
0100
0000
0020
0130
,
2001
3000
0002
1003
0001
0000
0200
0310
,
1000
0000
0200
0310
0001
0000
0200
0310
,
1000
0000
0200
0310
0001
0000
0200
0310
,
1000
0000
0200
0310
0001
0000
0200
0301
,
1002
0003
2000
3001
1000
0000
0200
1300
,
0001
0000
0200
0301
1000
0000
0200
1300
,
0001
0000
0200
0301
1000
0000
0200
1300
,
0001
0000
0200
0301
0010
0000
0200
0310
,
1002
0003
2000
3001
1000
0000
0020
0130
,
0001
0000
0020
0130
1000
0000
0020
0130
,
0001
0000
0020
0130
1000
0000
0020
0130
,
0001
0000
0020
0130
1000
0000
0020
1030
,
1001
0000
2000
3001
1000
0000
0020
1030
,
0001
0000
0020
0031
1000
0000
0020
1030
,
0001
0000
0020
0031
1000
0000
0020
1030
,
0001
0000
0020
0031
0100
0000
0020
0130
,
2001
3000
0002
1003
0001
0000
0200
0310
,
1000
0000
0200
0310
0001
0000
0200
0310
,
1000
0000
0200
0310
0001
0000
0200
0310
,
1000
0000
0200
0310
0001
0000
0200
0301
,
1002
0003
2000
3001
1000
0000
0200
1300
,
0001
0000
0200
0301
1000
0000
0200
1300
,
0001
0000
0200
0301
1000
0000
0200
1300
,
0001
0000
0200
0301
0010
0000
0200
0310
,
1002
0003
2000
3001
1000
0000
0020
0130
,
0001
0000
0020
0130
1000
0000
0020
0130
,
0001
0000
0020
0130
1000
0000
0020
0130
,
0001
0000
0000
0000
0020
0000
0130
0000
2002
3003
0000
0000
2002
3003
0000
0000
,
2000
0000
3000
1000
0002
0000
0023
0000
,
0230
0000
0300
1000
0002
0000
0203
0000
,
0320
0000
0000
0130
0001
0010
0100
2000
,
3000
1000
0000
0001
0010
0001
2000
0000
,
3200
0000
0300
0100
2000
0000
3020
0000
,
0230
0000
0300
0001
2000
0000
3200
0000
,
0320
0000
0000
0130
1000
0010
0100
0002
,
0003
0001
0000
1000
0010
1000
0002
0000
,
2003
0000
3000
1000
0200
0000
0310
0000
,
0001
0000
0000
0001
0000
0000
0000
0000
0200
0000
0000
0000
0310
0000
0000
0000
,
1000
0000
0000
1000
0000
0000
0000
0000
0200
0000
0000
0000
0310
0000
0000
0000
,
0001
0000
0000
0001
0000
0000
0000
0000
0001
0000
1000
0000
0100
0000
0010
0000
,
0002
0000
0003
0001
0020
0000
0130
0000
,
1000
0000
0000
1000
0000
0000
0000
0000
0020
0000
0000
0000
0130
0000
0000
0000
,
0001
0000
0000
0001
0000
0000
0000
0000
1000
0000
0000
1000
0000
0000
0000
0000
,
0001
0000
0000
0001
0000
0000
1000
0000
0100
0000
1000
0000
0100
0000
1000
0000
,
0002
0000
0000
0000
,
0000
0000
0000
0000
,
0000
0000
0003
0000
;

//---------------dance-single - I. Pyles----------------
#NOTES:
     dance-single:
     I. Pyles:
     Hard:
     9:
     0.674,1.000,0.142,1.000,0.263,651.000,28.000,253.000,8.000,11.000,2.000,0.674,1.000,0.142,1.000,0.263,651.000,28.000,253.000,8.000,11.000,2.000:
0000
0000
0000
0000
,
0000
0000
0000
0000
,
0000
0000
0000
0000
,
0000
0000
0000
0000
,
2100
0002
3000
0020
0003
0000
0230
0000
,
2300
0002
3000
0203
0320
0000
2030
0000
,
3002
0023
0000
0230
0000
0000
2300
0000
,
3002
0203
0000
0320
2030
0000
3200
0000
,
0312
2000
0003
0020
3000
0000
0230
0000
,
0302
2003
0000
3200
0320
0000
0032
0000
,
0203
0320
0000
2030
0000
0000
3002
0000
,
2003
3200
0000
0320
0032
0000
0203
0000
,
1302
0000
0000
0000
0000
0000
0000
0000
0000
0000
0000
0000
0000
0000
0000
0000
0000
0000
0000
0000
0000
0000
0000
0000
0003
0000
0000
0000
0000
0000
0000
0000
0000
0000
0000
0000
0000
0000
0000
0000
0000
0000
0000
0000
0000
0000
0000
0000
0000
0000
0000
0000
0000
0000
0000
0000
0000
0000
0000
0000
0000
0000
0000
0000
0000
0000
0000
0000
0000
0000
0000
0000
0200
0300
0000
0000
0000
0000
0000
0000
0000
0000
0000
0000
0000
0000
0000
0000
0000
0000
0000
0000
0000
0000
0000
0000
0200
0000
0000
0300
0000
0000
0000
0000
0000
0000
0000
0000
0000
0000
0000
0000
0000
0000
0000
0000
0000
0000
0000
0000
0200
0000
0000
0300
0000
0000
0000
0000
0000
0000
0000
0000
0000
0000
0000
0000
0000
0000
0000
0000
0000
0000
0000
0000
0200
0000
0000
0300
0000
0000
0000
0000
0000
0000
0000
0000
0000
0000
0000
0000
0000
0000
0000
0000
0000
0000
0000
0000
0200
0000
0000
0300
0000
0000
0000
0000
0000
0000
0000
0000
0000
0000
0000
0000
0000
0000
0000
0000
0000
0000
0000
0000
,
0200
0000
0300
0000
0000
0000
0000
0000
0200
0000
0300
0000
0000
0000
0000
0000
0200
0000
0300
0000
0000
0000
0000
0000
0200
0000
0300
0000
0000
0000
0000
0000
0200
0000
0000
0300
0000
0000
0000
0000
0200
0000
0000
0300
0000
0000
0000
0000
0200
0000
0000
0300
0000
0000
0000
0000
0200
0000
0000
0300
0000
0000
0000
0000
,
0200
0000
0000
0000
0300
0000
0000
0000
0200
0000
0000
0000
0300
0000
0000
0000
0200
0000
0000
0000
0300
0000
0000
0000
0200
0000
0000
0000
0300
0000
0000
0000
0200
0000
0000
0000
0000
0300
0000
0000
0200
0000
0000
0000
0000
0300
0000
0000
0200
0000
0000
0000
0000
0300
0000
0000
0200
0000
0000
0000
0000
0300
0000
0000
,
0200
0000
0000
0000
0000
0000
0300
0000
0200
0000
0000
0000
0000
0000
0300
0000
0200
0000
0000
0000
0000
0000
0300
0000
0200
0000
0000
0000
0000
0000
0300
0000
0200
0000
0000
0000
0000
0000
0000
0300
0200
0000
0000
0000
0000
0000
0000
0300
0200
0000
0000
0000
0000
0000
0000
0300
0200
0000
0000
0000
0000
0000
0000
0000
,
2301
0000
3001
0000
0100
0000
0020
0000
2030
0000
3001
0000
2000
0100
3010
0000
,
0002
1000
1003
0200
0320
0031
2000
3001
,
0200
0000
0010
0000
0310
0000
2000
0000
3020
0000
0130
0000
0002
0010
0103
0000
,
2000
0001
3001
0020
0230
1300
0002
0103
,
2002
3103
0010
0001
2002
3103
0010
1000
,
2002
3103
0010
0001
2002
3103
0010
1000
,
2002
3103
2002
3013
2002
3103
2002
3013
,
2002
0000
0000
3003
2002
0000
0000
3003
2002
0000
0000
3003
2002
0000
0000
3003
2002
0000
0000
3003
2002
0000
0000
3003
2002
0000
0000
3003
0001
0000
0000
0000
,
0200
0000
0300
0100
0002
0000
0023
0000
0230
0000
0300
1000
0002
0000
0203
0000
,
0320
0000
0030
0100
0001
0010
0100
2000
0000
0000
3000
0001
0100
0010
2000
0000
,
3200
0000
0300
0100
2000
0000
3020
0000
,
0230
0000
0300
0001
2000
0000
3200
0000
,
0320
0000
0000
0130
1000
0001
0010
0100
,
4000
0004
0000
0000
0000
0000
0000
0000
0000
0000
0000
0000
0000
0000
0000
0000
0000
0000
0000
0000
0000
0000
3003
0000
,
0200
0000
0300
0100
0002
0000
0023
0000
,
0230
0000
0300
1000
0002
0000
0203
0000
,
0320
0000
0000
0130
0001
0010
0100
2000
,
3000
1000
0000
0001
0010
0001
2000
0000
,
3200
0000
0300
0100
2000
0000
3020
0000
,
0230
0000
0300
0001
2000
0000
3200
0000
,
0320
0000
0000
0130
1000
0010
0100
0002
,
0003
0001
0000
1000
0010
1000
0002
0000
,
2003
0000
3000
1000
0200
0000
0310
0000
,
0001
0000
0000
0001
0000
0000
0000
0000
0200
0000
0000
0000
0310
0000
0000
0000
,
1000
0000
0000
1000
0000
0000
0000
0000
0200
0000
0000
0000
0310
0000
0000
0000
,
0001
0000
0000
0001
0000
0000
0000
0000
0001
0000
1000
0000
0100
0000
0010
0000
,
0002
0000
0003
0001
0020
0000
0130
0000
,
1000
0000
0000
1000
0000
0000
0000
0000
0020
0000
0000
0000
0130
0000
0000
0000
,
0001
0000
0000
0001
0000
0000
0000
0000
1000
0000
0000
1000
0000
0000
0000
0000
,
0001
0000
0000
0001
0000
0000
1000
0000
0100
0000
1000
0000
0100
0000
1000
0000
,
0001
0000
0010
0100
0020
0000
0031
0000
1000
0000
0010
0100
0020
0000
1030
0000
,
0001
0000
0010
0100
0020
0000
0031
0000
1000
0000
0010
0100
0020
0000
1030
0000
,
0001
0000
0010
0100
0020
0000
0031
0000
1000
0000
0010
0100
0020
0000
1030
0000
,
0001
0000
0010
0100
0020
0000
0031
0000
0100
0000
0010
1000
0020
0000
0130
0000
,
2001
0000
3001
0010
0200
0000
0310
0000
0001
0000
1000
0010
0200
0000
0310
0000
,
1000
0000
0001
0010
0200
0000
0310
0000
0001
0000
1000
0010
0200
0000
0310
0000
,
1000
0000
0001
0010
0200
0000
0310
0000
0001
0000
1000
0010
0200
0000
0310
0000
,
1000
0000
0001
0010
0200
0000
0310
0000
0001
0000
0100
0010
0200
0000
0301
0000
,
1002
0000
0103
0010
0200
0000
0301
0000
1000
0000
0100
0010
0200
0000
1300
0000
,
0001
0000
0100
0010
0200
0000
0301
0000
1000
0000
0100
0010
0200
0000
1300
0000
,
0001
0000
0100
0010
0200
0000
0301
0000
1000
0000
0100
0010
0200
0000
1300
0000
,
0001
0000
0100
0010
0200
0000
0301
0000
0010
0000
0100
1000
0200
0000
0310
0000
,
1002
0000
1003
0100
0020
0000
0130
0000
1000
0000
0001
0100
0020
0000
0130
0000
,
0001
0000
1000
0100
0020
0000
0130
0000
1000
0000
0001
0100
0020
0000
0130
0000
,
0001
0000
1000
0100
0020
0000
0130
0000
1000
0000
0001
0100
0020
0000
0130
0000
,
0001
0000
1000
0100
0020
0000
0130
0000
1000
0000
0010
0100
0020
0000
1030
0000
,
1002
0000
1003
0000
0002
0000
0013
0000
0100
1000
0100
1000
0002
0000
0013
0100
,
1000
0000
1000
0000
0002
0000
0103
0000
0010
1000
0010
1000
0002
0000
0103
0010
,
1000
0000
1000
0000
0002
0000
0013
0000
0100
1000
0100
1000
0002
0000
0013
0100
,
1000
0000
1000
0000
0002
0000
0103
0000
0010
1000
0010
1000
0002
0000
0013
0000
,
2001
0000
3001
0000
2000
0000
3010
0000
0100
0001
0100
0001
2000
0000
3010
0100
,
0001
0000
0001
0000
2000
0000
3100
0000
0010
0001
0010
0001
2000
0000
3100
0010
,
0001
0000
0001
0000
2000
0000
3010
0000
0100
0001
0100
0001
2000
0000
3010
0100
,
0001
0000
0001
0000
2000
0000
3100
0000
0010
0001
0010
0001
2000
0000
3010
0000
,
1002
0000
1003
0000
0002
0000
0013
0000
0100
1000
0100
1000
0002
0000
0013
0100
,
1000
0000
0100
0010
0002
0000
0103
0000
0010
1000
0010
1000
0002
0000
0103
0010
,
1000
0000
0010
0100
0002
0000
0013
0000
0100
1000
0100
1000
0002
0000
0013
0100
,
1000
0000
0100
0010
0002
0000
0103
0000
0010
1000
0010
1000
0002
0000
0013
0000
,
2001
0000
3001
0000
2000
0000
3010
0000
0100
0001
0100
0001
2000
0000
3010
0100
,
0001
0000
0100
0010
2000
0000
3100
0000
0010
0001
0010
0001
2000
0000
3100
0010
,
0001
0000
0010
0100
2000
0000
3010
0000
0100
0001
0100
0001
2000
0000
3010
0100
,
0001
0000
0100
0010
2000
0000
3100
0000
2002
3003
MMMM
0000
2002
3003
MMMM
0000
,
2000
0000
3000
1000
0002
0000
0023
0000
,
0230
0000
0300
1000
0002
0000
0203
0000
,
0320
0000
0000
0130
0001
0010
0100
2000
,
3000
1000
0000
0001
0010
0001
2000
0000
,
3200
0000
0300
0100
2000
0000
3020
0000
,
0230
0000
0300
0001
2000
0000
3200
0000
,
0320
0000
0000
0130
1000
0010
0100
0002
,
0003
0001
0000
1000
0010
1000
0002
0000
,
2003
0000
3000
1000
0200
0000
0310
0000
,
0001
0000
0000
0001
0000
0000
0000
0000
0200
0000
0000
0000
0310
0000
0000
0000
,
1000
0000
0000
1000
0000
0000
0000
0000
0200
0000
0000
0000
0310
0000
0000
0000
,
0001
0000
0000
0001
0000
0000
0000
0000
0001
0000
1000
0000
0100
0000
0010
0000
,
0002
0000
0003
0001
0020
0000
0130
0000
,
1000
0000
0000
1000
0000
0000
0000
0000
0020
0000
0000
0000
0130
0000
0000
0000
,
0001
0000
0000
0001
0000
0000
0000
0000
1000
0000
0000
1000
0000
0000
0000
0000
,
0001
0000
0000
0001
0000
0000
1000
0000
0100
0000
1000
0000
0100
0000
1000
0000
,
0002
0000
0000
0000
,
0000
0000
0000
0000
,
0000
0000
0003
0000
;

//---------------dance-single - I. Pyles----------------
#NOTES:
     dance-single:
     I. Pyles:
     Challenge:
     11:
     0.935,1.000,0.142,0.992,0.975,1069.000,28.000,196.000,8.000,11.000,0.000,0.935,1.000,0.142,0.992,0.975,1069.000,28.000,196.000,8.000,11.000,0.000:
0000
0000
0000
0000
,
0000
0000
0000
0000
,
0000
0000
0000
0000
,
0000
0000
0000
0000
,
2100
0002
3000
0020
0003
0000
0230
0000
,
2300
0002
3000
0203
0320
0000
2030
0000
,
3002
0023
0000
0230
0000
0000
2300
0000
,
3002
0203
0000
0320
2030
0000
3200
0000
,
0312
2000
0003
0020
3000
0000
0230
0000
,
0302
2003
0000
3200
0320
0000
0032
0000
,
0203
0320
0000
2030
0000
0000
3002
0000
,
2003
3200
0000
0320
0032
0000
0203
0000
,
1302
0000
0000
0000
0000
0000
0000
0000
0000
0000
0000
0000
0000
0000
0000
0000
0000
0000
0000
0000
0000
0000
0000
0000
0003
0000
0000
0000
0000
0000
0000
0000
0000
0000
0000
0000
0000
0000
0000
0000
0000
0000
0000
0000
0000
0000
0000
0000
0000
0000
0000
0000
0000
0000
0000
0000
0000
0000
0000
0000
0000
0000
0000
0000
0000
0000
0000
0000
0000
0000
0000
0000
0200
0300
0000
0000
0000
0000
0000
0000
0000
0000
0000
0000
0000
0000
0000
0000
0000
0000
0000
0000
0000
0000
0000
0000
0200
0000
0000
0300
0000
0000
0000
0000
0000
0000
0000
0000
0000
0000
0000
0000
0000
0000
0000
0000
0000
0000
0000
0000
0200
0000
0000
0300
0000
0000
0000
0000
0000
0000
0000
0000
0000
0000
0000
0000
0000
0000
0000
0000
0000
0000
0000
0000
0200
0000
0000
0300
0000
0000
0000
0000
0000
0000
0000
0000
0000
0000
0000
0000
0000
0000
0000
0000
0000
0000
0000
0000
0200
0000
0000
0300
0000
0000
0000
0000
0000
0000
0000
0000
0000
0000
0000
0000
0000
0000
0000
0000
0000
0000
0000
0000
,
0200
0000
0300
0000
0000
0000
0000
0000
0200
0000
0300
0000
0000
0000
0000
0000
0200
0000
0300
0000
0000
0000
0000
0000
0200
0000
0300
0000
0000
0000
0000
0000
0200
0000
0000
0300
0000
0000
0000
0000
0200
0000
0000
0300
0000
0000
0000
0000
0200
0000
0000
0300
0000
0000
0000
0000
0200
0000
0000
0300
0000
0000
0000
0000
,
0200
0000
0000
0000
0300
0000
0000
0000
0200
0000
0000
0000
0300
0000
0000
0000
0200
0000
0000
0000
0300
0000
0000
0000
0200
0000
0000
0000
0300
0000
0000
0000
0200
0000
0000
0000
0000
0300
0000
0000
0200
0000
0000
0000
0000
0300
0000
0000
0200
0000
0000
0000
0000
0300
0000
0000
0200
0000
0000
0000
0000
0300
0000
0000
,
0200
0000
0000
0000
0000
0000
0300
0000
0200
0000
0000
0000
0000
0000
0300
0000
0200
0000
0000
0000
0000
0000
0300
0000
0200
0000
0000
0000
0000
0000
0300
0000
0200
0000
0000
0000
0000
0000
0000
0300
0200
0000
0000
0000
0000
0000
0000
0300
0200
0000
0000
0000
0000
0000
0000
0300
0200
0000
0000
0000
0000
0000
0000
0000
,
2301
0000
3001
0000
0100
0000
0020
0000
2030
0000
3001
0000
2000
0100
3010
0000
,
0002
1000
1003
0200
0320
0031
2000
3001
,
0200
0000
0010
0000
0310
0000
2000
0000
3020
0000
0130
0000
0002
0010
0103
0000
,
2000
0001
3001
0020
0230
1300
0002
0103
,
2002
3103
0010
0001
2002
3103
0010
1000
,
2002
3103
0010
0001
2002
3103
0010
1000
,
2002
3103
2002
3013
2002
3103
2002
3013
,
2002
0000
0000
3003
2002
0000
0000
3003
2002
0000
0000
3003
2002
0000
0000
3003
2002
0000
0000
3003
2002
0000
0000
3003
2002
0000
0000
3003
0001
0000
0000
0000
,
0200
0000
0300
0100
0002
0000
0023
0000
0230
0000
0300
1000
0002
0000
0203
0000
,
0320
0000
0030
0100
0001
0010
0100
2000
0000
0000
3000
0001
0100
0010
2000
0000
,
3001
0010
0100
0010
0100
1000
0001
1000
0010
1000
0001
1000
0100
0010
0100
0010
,
0001
1000
0001
1000
0001
1000
0010
0100
0001
0010
0001
0010
0100
1000
0100
1000
,
0001
0100
0001
0100
0001
0100
0010
1000
0001
0010
0100
1000
0010
0100
0001
1000
,
0010
0100
0001
1000
0010
0100
0001
0100
0010
1000
0001
0100
0010
1000
0001
0100
0001
1000
0010
1000
0001
0010
0100
1000
,
0001
1000
0100
1000
0100
0010
0001
1000
0010
0100
0001
1000
0100
1000
0001
1000
,
0010
0100
0010
0100
0010
0100
0001
1000
0010
1000
0100
0010
0001
1000
0010
1000
,
0100
0010
0100
0010
0100
0010
0001
1000
0010
1000
0100
1000
0010
1000
0001
0100
,
0010
0100
0001
0010
0100
0010
0001
1000
0100
1000
0010
1000
0100
0010
0100
1000
,
0001
1000
0010
1000
0010
0100
0001
1000
0100
0010
0001
1000
0010
1000
0001
1000
,
0100
0010
0100
0010
0100
0010
0001
1000
0100
1000
0010
0100
0001
1000
0100
1000
,
0010
0100
0010
0100
0010
0100
0001
1000
0100
1000
0010
1000
0100
1000
0001
0010
,
0100
0010
0001
0100
0010
0100
0001
1000
0010
1000
0100
1000
0010
0100
0010
1000
,
0001
0100
0010
0100
0010
1000
0001
0100
0010
1000
0001
0010
0100
1000
0001
0100
,
0010
1000
0001
0010
0100
1000
0100
1000
0001
0100
0010
1000
0100
0010
0001
1000
,
0010
1000
0001
0010
0100
1000
0001
0100
0010
1000
0001
0010
0100
1000
0001
0100
,
0010
1000
0001
0010
0100
1000
0100
1000
0001
0100
0010
1000
0100
1000
0010
1000
,
0001
0010
0100
0010
0100
1000
0001
0010
0100
1000
0001
0100
0010
1000
0001
0010
,
0100
1000
0001
0100
0010
1000
0010
1000
0001
0010
0100
1000
0010
0100
0001
1000
,
0100
1000
0001
0100
0010
1000
0001
0010
0100
1000
0001
0100
0010
1000
0001
0010
,
0100
1000
0001
0100
0010
1000
0100
1000
0001
1000
0100
1000
0001
1000
0100
1000
,
0001
0000
0010
0100
0020
0000
0031
0000
1000
0000
0010
0100
0020
0000
1030
0000
,
0001
0000
0010
0100
0020
0000
0031
0000
1000
0000
0010
0100
0020
0000
1030
0000
,
0001
0000
0010
0100
0020
0000
0031
0000
1000
0000
0010
0100
0020
0000
1030
0000
,
0001
0000
0010
0100
0020
0000
0031
0000
0100
0000
0010
1000
0020
0000
0130
0000
,
2001
0000
3001
0010
0200
0000
0310
0000
0001
0000
1000
0010
0200
0000
0310
0000
,
1000
0000
0001
0010
0200
0000
0310
0000
0001
0000
1000
0010
0200
0000
0310
0000
,
1000
0000
0001
0010
0200
0000
0310
0000
0001
0000
1000
0010
0200
0000
0310
0000
,
1000
0000
0001
0010
0200
0000
0310
0000
0001
0000
0100
0010
0200
0000
0301
0000
,
1002
0000
0103
0010
0200
0000
0301
0000
1000
0000
0100
0010
0200
0000
1300
0000
,
0001
0000
0100
0010
0200
0000
0301
0000
1000
0000
0100
0010
0200
0000
1300
0000
,
0001
0000
0100
0010
0200
0000
0301
0000
1000
0000
0100
0010
0200
0000
1300
0000
,
0001
0000
0100
0010
0200
0000
0301
0000
0010
0000
0100
1000
0200
0000
0310
0000
,
1002
0000
1003
0100
0020
0000
0130
0000
1000
0000
0001
0100
0020
0000
0130
0000
,
0001
0000
1000
0100
0020
0000
0130
0000
1000
0000
0001
0100
0020
0000
0130
0000
,
0001
0000
1000
0100
0020
0000
0130
0000
1000
0000
0001
0100
0020
0000
0130
0000
,
0001
0000
1000
0100
0020
0000
0130
0000
1000
0000
0010
0100
0020
0000
1030
0000
,
1002
0000
1003
0000
0002
0000
0013
0000
0100
1000
0100
1000
0002
0000
0013
0100
,
1000
0000
1000
0000
0002
0000
0103
0000
0010
1000
0010
1000
0002
0000
0103
0010
,
1000
0000
1000
0000
0002
0000
0013
0000
0100
1000
0100
1000
0002
0000
0013
0100
,
1000
0000
1000
0000
0002
0000
0103
0000
0010
1000
0010
1000
0002
0000
0013
0000
,
2001
0000
3001
0000
2000
0000
3010
0000
0100
0001
0100
0001
2000
0000
3010
0100
,
0001
0000
0001
0000
2000
0000
3100
0000
0010
0001
0010
0001
2000
0000
3100
0010
,
0001
0000
0001
0000
2000
0000
3010
0000
0100
0001
0100
0001
2000
0000
3010
0100
,
0001
0000
0001
0000
2000
0000
3100
0000
0010
0001
0010
0001
2000
0000
3010
0000
,
1002
0000
1003
0000
0002
0000
0013
0000
0100
1000
0100
1000
0002
0000
0013
0100
,
1000
0000
0100
0010
0002
0000
0103
0000
0010
1000
0010
1000
0002
0000
0103
0010
,
1000
0000
0010
0100
0002
0000
0013
0000
0100
1000
0100
1000
0002
0000
0013
0100
,
1000
0000
0100
0010
0002
0000
0103
0000
0010
1000
0010
1000
0002
0000
0013
0000
,
2001
0000
3001
0000
2000
0000
3010
0000
0100
0001
0100
0001
2000
0000
3010
0100
,
0001
0000
0100
0010
2000
0000
3100
0000
0010
0001
0010
0001
2000
0000
3100
0010
,
0001
0000
0010
0100
2000
0000
3010
0000
0100
0001
0100
0001
2000
0000
3010
0100
,
0001
0000
0100
0010
2000
0000
3100
0000
2002
3003
MMMM
0000
2002
3003
MMMM
0000
,
1000
0001
0010
0001
0010
0100
1000
0001
0100
0010
1000
0001
0010
0001
1000
0001
,
0100
0010
0100
0010
0100
0010
1000
0001
0100
0001
0010
0100
1000
0001
0100
0001
,
0010
0100
0010
0100
0010
0100
1000
0001
0100
0001
0010
0001
0100
0001
1000
0010
,
0100
0010
1000
0100
0010
0100
1000
0001
0010
0001
0100
0001
0010
0100
0010
0001
,
1000
0001
0100
0001
0100
0010
1000
0001
0010
0100
1000
0001
0100
0001
1000
0001
,
0010
0100
0010
0100
0010
0100
1000
0001
0010
0001
0100
0010
1000
0001
0010
0001
,
0100
0010
0100
0010
0100
0010
1000
0001
0010
0001
0100
0001
0010
0001
1000
0100
,
0010
0100
1000
0010
0100
0010
1000
0001
0100
0001
0010
0001
0100
0010
0100
0001
,
1000
0010
0100
0010
0100
0001
1000
0010
0100
0001
1000
0100
0010
0001
1000
0010
,
0100
0001
1000
0100
0010
0001
0010
0001
1000
0010
0100
0001
0010
0100
1000
0001
,
0100
0001
1000
0100
0010
0001
1000
0010
0100
0001
1000
0100
0010
0001
1000
0010
,
0100
0001
1000
0100
0010
0001
0010
0001
1000
0010
0100
0001
0010
0001
0100
0001
,
1000
0100
0010
0100
0010
0001
1000
0100
0010
0001
1000
0010
0100
0001
1000
0100
,
0010
0001
1000
0010
0100
0001
0100
0001
1000
0100
0010
0001
0100
0010
1000
0001
,
0010
0001
1000
0010
0100
0001
1000
0100
0010
0001
1000
0010
0100
0001
1000
0100
,
0010
0001
1000
0010
0100
0001
0010
0001
1000
0001
0010
0001
1000
0001
0010
0001
,
2000
0000
0000
0000
,
0000
0000
0000
0000
,
0000
0000
3000
0000
;
