#TITLE:Tanglang;
#SUBTITLE:;
#ARTIST:Hifana;
#TITLETRANSLIT:;
#SUBTITLETRANSLIT:;
#ARTISTTRANSLIT:;
#GENRE:EASTERN CRUNK;
#CREDIT:R. Mendez;
#BANNER:Tanglang-bn.png;
#BACKGROUND:Tanglang-bg.png;
#LYRICSPATH:;
#CDTITLE:zimlordCD.png;
#MUSIC:Tanglang.ogg;
#OFFSET:0.609;
#SAMPLESTART:86.680;
#SAMPLELENGTH:12.000;
#SELECTABLE:YES;
#DISPLAYBPM:100.000;
#BPMS:0.000=100.000,5.500=50.000,6.500=100.000,13.000=300.000,13.750=33.333,14.000=100.000,45.250=75.000,45.625=150.000,46.000=100.000,76.500=300.000,76.688=33.333,76.750=300.000,76.938=33.333,77.000=100.000,85.500=75.000,85.750=150.000,86.000=100.000,86.250=150.000,86.500=75.000,86.750=100.000,87.750=400.000,88.250=100.000,89.750=200.000,90.250=100.000,96.000=150.000,96.125=75.000,96.250=150.000,96.375=75.000,96.500=150.000,96.625=75.000,96.750=100.000,99.250=150.000,99.375=75.000,99.500=150.000,99.625=75.000,99.750=150.000,99.875=75.000,100.000=100.000,100.500=75.000,100.750=150.000,101.000=100.000,102.250=75.000,102.500=150.000,102.750=100.000,104.500=75.000,104.625=150.000,104.750=75.000,104.875=150.000,105.000=100.000,106.000=75.000,106.167=150.000,106.333=75.000,106.500=150.000,106.667=75.000,106.833=150.000,107.000=100.000,107.500=75.000,107.625=150.000,107.750=75.000,107.875=150.000,108.000=75.000,108.167=150.000,108.333=75.000,108.500=150.000,108.667=100.000,132.000=75.000,132.083=150.000,132.167=75.000,132.250=150.000,132.333=75.000,132.417=150.000,132.500=75.000,132.583=150.000,132.667=75.000,132.750=150.000,132.833=75.000,132.917=150.000,133.000=200.000,133.125=100.000,133.250=200.000,133.375=100.000,133.500=200.000,133.625=100.000,133.750=200.000,133.875=100.000,134.000=200.000,135.000=400.000,137.000=800.000,141.000=100.000,141.500=100.000,144.000=100.000,145.000=300.000,145.750=33.333,146.000=100.000,209.000=25.000;
#STOPS:5.500=1.200
,9.000=0.300
,87.750=0.225
,89.750=0.150
,133.000=0.037
,133.250=0.038
,133.500=0.037
,133.750=0.038
,134.000=0.050
,134.167=0.050
,134.333=0.050
,134.500=0.050
,134.667=0.050
,134.833=0.050
,135.000=0.019
,135.125=0.018
,135.250=0.019
,135.375=0.019
,135.500=0.019
,135.625=0.018
,135.750=0.019
,135.875=0.019
,136.000=0.019
,136.125=0.018
,136.250=0.019
,136.375=0.019
,136.500=0.019
,136.625=0.018
,136.750=0.019
,136.875=0.019
,137.000=0.019
,137.250=0.018
,137.500=0.019
,137.750=0.019
,138.000=0.019
,138.250=0.018
,138.500=0.019
,138.750=0.019
,139.000=0.019
,139.250=0.018
,139.500=0.019
,139.750=0.019
,140.000=0.019
,140.250=0.018
,140.500=0.019
,140.750=0.019
;
#TIMESIGNATURES:0.000=4=4
;
#BGCHANGES:;
#KEYSOUNDS:;

//---------------dance-single - zimlord----------------
#NOTES:
     dance-single:
     zimlord:
     Challenge:
     13:
     0.962,1.000,0.366,0.069,1.000,827.000,48.000,9.000,103.000,0.000,6.000,0.962,1.000,0.366,0.069,1.000,827.000,48.000,9.000,103.000,0.000,6.000: // measure 1
0000
0000
0000
0000
0000
0000
0000
0000
M000
0000
0M00
0000
00M0
0000
0000
0000
00M0
0000
0000
0000
000M
0000
M000
0000
000M
0000
M000
0M00
00M0
0000
00M0
0000
,  // measure 2
000M
M000
000M
0M00
0000
0000
MMMM
0000
0000
0000
M000
0000
M000
0000
000M
M000
,  // measure 3
000M
0000
00M0
0M00
M000
0000
M000
0000
000M
0000
0000
0000
0MM0
0000
0000
0000
MMMM
0000
0000
0000
0000
0000
M000
0000
000M
0000
0000
0000
0M00
0000
00M0
0000
,  // measure 4
0M00
0000
00M0
0000
0M00
0000
0000
0000
MMMM
0000
0000
0000
0000
0000
0MM0
0000
1001
0000
0000
0000
1000
0000
0000
0000
0101
0000
0000
0000
1000
0000
0001
0100
,  // measure 5
0010
0010
1000
0001
1000
0200
0000
0000
0310
0000
0001
0000
1100
0000
0000
1000
,  // measure 6
0001
0000
0100
0000
0001
1000
0001
1000
0010
1000
0010
1000
0001
0010
0100
0000
1000
0000
0000
0000
0001
0000
0000
0000
1001
0000
0000
0000
1000
0000
0001
0010
,  // measure 7
0100
0000
0100
0000
1000
0000
0001
0000
1000
0000
0020
0000
0000
0000
0000
0130
0001
1000
0001
1000
0100
0000
0010
0001
0010
0001
1000
0000
0001
0000
0100
0000
,  // measure 8
0010
1000
0010
1000
0001
1000
0001
1000
0010
0100
0001
0100
0010
1000
0001
1000
0100
0000
0000
0000
1000
0000
0000
0000
1100
0000
0000
0000
0100
0000
1000
0100
,  // measure 9
0010
0010
0001
1000
0001
0400
0000
0000
0301
0000
0100
0000
0101
0000
0000
0001
,  // measure 10
1000
0000
0001
0000
1000
0001
1000
0001
0100
0001
0100
0001
1000
0100
0010
0000
0001
0000
0000
0000
1000
0000
0000
0000
0011
0000
0000
0000
1000
0000
0001
1000
,  // measure 11
0010
0000
0010
0000
1000
0000
0001
0000
1000
0000
0200
0000
0000
0000
0310
0001
1000
0000
0001
0000
0100
0000
0001
0000
1000
0000
0100
0000
M01M
0000
0001
0000
,  // measure 12
0100
0001
0000
0000
1000
0001
1000
0001
1000
0001
0000
0000
0000
0000
0000
0000
1MM1
0000
0000
0000
0001
0000
0000
0000
1010
0000
0000
0000
0001
0000
1000
0100
,  // measure 13
0010
0001
0010
0001
1000
0001
1000
0001
0100
0010
0100
0010
1000
0001
0100
0001
1000
0000
0000
0000
0001
0000
0000
0000
1001
0000
0000
0000
1000
0000
0001
0010
,  // measure 14
0100
1000
0100
1000
0001
1000
0001
1000
0010
0100
0010
0100
0001
1000
0010
1000
0001
0000
0000
0000
1000
0000
0000
0000
0101
0000
0000
0000
1000
0000
0001
0100
,  // measure 15
0010
1000
0010
1000
0001
1000
0001
1000
0010
0100
0010
0100
0001
1000
0100
1000
0001
0010
0001
0010
0100
1000
0100
1000
0001
0100
0001
0100
0010
1000
0010
1000
,  // measure 16
0001
0010
0100
1000
0001
0010
0001
0010
0001
1000
0001
1000
0001
0100
0010
1000
0001
0000
0000
0000
0100
0000
0000
0000
0110
0000
0000
0000
0010
0000
1000
0100
,  // measure 17
0010
0001
0010
0001
0100
0001
0100
0001
1000
0100
1000
0100
0010
0001
1000
0001
0010
0000
0000
0000
0100
0000
0000
0000
1001
0000
0000
0000
1000
0000
0001
0100
,  // measure 18
0010
1000
0010
1000
0001
0100
0001
0100
0010
1000
0010
1000
0001
0100
0010
0100
0001
0000
0000
0000
0010
0000
0000
0000
1100
0000
0000
0000
1000
0000
0001
0010
,  // measure 19
0100
1000
0100
1000
0001
1000
0001
1000
0010
0100
0010
0100
0001
1000
0010
1000
0001
0010
0100
1000
0001
0000
0000
0000
1001
0000
0000
0000
1000
0000
0000
0000
,  // measure 20
0001
1000
0M01
10M0
0M02
0000
0013
0100
1000
0001
0000
1000
1100
0000
0100
1000
,  // measure 21
0001
0000
0000
0100
0101
0000
0001
0000
1000
0100
0000
0010
0110
0000
0100
1000
,  // measure 22
0010
0000
0100
0001
0040
0000
0000
0000
0031
1000
0000
0001
0011
0000
0010
0100
,  // measure 23
0000
1000
0001
0100
0101
0000
0001
1000
0000
0001
0000
1000
20M2
00M0
00M0
00M0
,  // measure 24
00M0
0000
0000
00M0
0000
0000
30M3
0000
0000
0001
0000
0000
0101
0000
0000
0000
0000
0000
0100
0000
0000
0000
0001
0000
1000
0000
0000
0100
0000
0000
0000
0000
0000
1000
0000
0000
1010
0000
0000
0000
0000
0000
0010
0000
0000
0100
0000
0000
,  // measure 25
0001
0000
0000
0100
0000
0000
0001
0000
0000
1000
0000
0000
1001
0000
0000
0000
0000
M000
0M00
00M0
000M
0000
0000
0000
1000
0000
0000
0000
0000
0000
0001
0000
0000
1000
0000
0000
1100
0000
0000
0100
0000
0000
0010
0000
0000
0001
0000
0000
,  // measure 26
0400
0000
0000
0300
1001
0000
0001
0000
0100
0001
0000
0010
0011
0000
0001
0100
,  // measure 27
0010
0000
0000
0000
0000
0000
1000
0000
0000
0000
0000
0000
0010
0000
0000
0000
0000
0000
0000
0000
0000
0000
0000
0000
1000
0000
0000
0000
0000
0000
0000
0000
0000
0000
0000
0000
0001
0000
0000
0000
0000
0000
0000
0000
0000
0000
0000
0000
1001
0000
0000
0000
0000
0000
0000
0000
0000
0000
0000
0000
0000
0000
0000
0000
0000
0000
0000
0000
0000
0000
0000
0000
0000
0000
0000
0000
0000
0000
0000
0000
0000
0000
0000
0000
1000
0000
0000
0000
0000
0000
0000
0000
0000
0000
0000
0000
1100
0000
0000
0000
0000
0000
0000
0000
0000
0000
0000
0000
0000
0000
0000
0000
0100
0000
0000
0000
0000
0000
0000
0000
0000
0000
0000
0000
0000
0000
0000
0000
0010
0000
0000
0000
0000
0000
0000
0000
0000
0000
0000
0000
0000
0000
0000
0000
MM11
0000
0000
0000
0000
0000
0000
0000
0000
0000
0000
0000
0000
0000
0000
0000
0000
0000
0000
0000
0000
0000
0000
0000
0001
0000
0000
0000
0000
0000
0000
0000
0000
0000
0000
0000
0100
0000
0000
0000
0000
0000
0000
0000
0000
0000
0000
0000
,  // measure 28
1010
0000
0000
0000
0010
0000
0000
0000
0100
0000
0000
0000
0101
0000
0000
0000
0000
0000
MMM1
0000
0000
0000
0000
0000
1000
0000
0000
0001
0000
0000
0000
0000
0000
1000
0000
0000
1100
0000
0000
0000
0000
0000
0100
0000
0000
1000
0000
0000
,  // measure 29
0001
0000
0100
0000
0001
0000
1000
0000
0100
0000
1000
0000
0004
0000
0000
0000
0000
0000
0000
0000
0000
0000
0000
0000
1003
0000
0000
0100
0000
0000
0000
0000
0000
0010
0000
0000
0011
0000
0000
0000
0000
0000
0001
0000
0000
1000
0000
0000
,  // measure 30
0001
0000
0010
0000
0001
0000
1000
0000
0010
0000
1000
0000
0001
0000
0010
0000
0100
0000
1000
0000
0010
0000
1000
0000
0001
0000
0000
0000
0000
0000
1000
0000
0000
0001
0000
0000
0101
0000
0000
0100
0000
0000
0000
0000
0000
0001
0000
0000
,  // measure 31
1000
0000
1000
0100
0040
0000
0000
0000
0031
0000
0100
0001
1001
1000
0100
0010
,  // measure 32
0001
0000
0100
0000
0010
1000
0001
0000
1000
0000
0000
0000
0001
0000
0010
0000
0100
0000
1000
0000
0000
0000
0001
0000
1001
0000
0000
0000
1000
0000
0001
0000
,  // measure 33
1000
0000
0100
0000
1000
0000
0001
0000
0100
0000
0001
0000
1000
0000
0000
0000
0000
0000
0001
0000
0000
0100
0000
0000
0010
0000
1000
0000
0100
0000
0010
0000
0001
0000
0100
0000
0010
0000
1000
0000
0010
0000
0100
0000
0001
0000
0010
0000
,  // measure 34
0100
0000
1000
0000
0100
0000
1000
0000
0100
0000
1000
0000
00M4
0000
0000
0M00
0000
0000
M000
0000
0000
0M00
0000
0000
00M0
0000
0000
0M00
0000
0000
M000
0000
0000
0M00
0000
0000
00M0
0000
0000
0000
0000
0000
0M00
0000
0000
0000
0000
0000
,  // measure 35
M000
0M00
00M0
0M00
M000
0M00
00M0
0M00
,  // measure 36
M000
0000
0M00
0000
00M3
0000
1000
0000
0001
1000
0000
1000
0100
0000
0010
0001
,  // measure 37
1000
0000
0001
0100
0010
0000
1000
0100
M01M
0000
0000
0000
0000
0000
0000
0000
1MM1
0000
0000
0000
0001
0000
0000
0000
1010
0000
0000
0000
0001
0000
1000
0100
,  // measure 38
0010
0000
0010
0000
0001
0000
0100
0000
0001
1000
0001
1000
0010
1000
0010
1000
0001
0000
0000
0000
1000
0000
0000
0000
0011
0000
0000
0000
0000
0000
1000
0000
,  // measure 39
0001
0000
0010
0000
0100
1000
0100
1000
0001
1000
0001
1000
0010
0100
0001
0000
1000
0000
0000
0000
0010
0000
0000
0000
0101
0000
0000
0000
1000
0000
0001
0010
,  // measure 40
0100
0000
0100
0000
0010
0000
0001
0000
1000
0000
0001
0000
0000
0000
0000
0100
0001
1000
0001
1000
0010
0000
1000
0100
1000
0100
0010
0000
0001
0000
1000
0000
,  // measure 41
0010
0100
0010
0100
0001
0100
0001
0100
0010
1000
0010
1000
0001
0010
0100
1000
0001
0000
0000
0000
1000
0000
0000
0000
1001
0000
0000
0000
0001
0000
0010
0100
,  // measure 42
1000
0000
1000
0000
0001
0000
1000
0000
0001
0010
0001
0010
0100
0010
0100
0010
0001
0000
0000
0000
1000
0000
0000
0000
0011
0000
0000
0000
0000
0000
1000
0000
,  // measure 43
0001
0000
0100
0000
0001
1000
0001
1000
0010
1000
0010
1000
0001
0100
0010
0000
1000
0000
0000
0000
0001
0000
0000
0000
0011
0000
0000
0000
0010
0000
0100
1000
,  // measure 44
0001
0001
1000
0010
1000
010M
0000
000M
0010
0100
2000
0000
0001
0000
0000
0000
,  // measure 45
0000
0000
0000
0000
0002
0000
0000
0000
0000
0000
0000
0000
3003
0000
0000
0000
1MM1
0000
0000
0000
0001
0000
0000
0000
1010
0000
0000
0000
0001
0000
0010
0100
,  // measure 46
1000
0001
1000
0001
0100
0001
0100
0001
1000
0100
1000
0100
0010
0001
0010
0001
1000
0000
0000
0000
0010
0000
0000
0000
0110
0000
0000
0000
0100
0000
0001
1000
,  // measure 47
0010
0100
0010
0100
0001
0100
0001
0100
0010
1000
0010
1000
0001
0010
0100
1000
0001
0000
0000
0000
0010
0000
0000
0000
1100
0000
0000
0000
0001
0000
1000
0100
,  // measure 48
0010
0001
0010
0001
0100
0001
0100
0001
1000
0100
1000
0100
0010
0001
0010
0100
1000
0001
1000
0001
0100
0010
0100
0010
1000
0001
0100
0010
1000
0001
0100
0010
,  // measure 49
1000
0100
0010
0001
1000
0100
0010
0001
1000
0001
1000
0001
0100
0001
0100
0001
1000
0010
1000
0010
1000
0100
1000
0100
0010
0001
0010
0001
1000
0100
0010
0001
,  // measure 50
1000
0100
1000
0100
0010
0100
0010
0100
1000
0001
1000
0001
0100
0001
0100
0001
1000
0100
0010
0100
1000
0100
0010
0100
1000
0001
1000
0001
0100
0001
0100
0001
,  // measure 51
1000
0100
0010
0001
1000
0100
0010
0001
0100
0010
0100
0010
0100
0001
0100
0001
1000
0010
1000
0010
0100
0001
0100
0001
1000
0001
1000
0001
1000
0100
1000
0100
,  // measure 52
0010
0001
1000
0100
0010
0001
1000
0100
0010
0001
0010
0001
1000
0100
1000
0100
0010
0000
0000
0000
0001
0000
1000
0000
0000
0000
0001
0000
0100
0000
0000
0000
,  // measure 53
0001
0010
0100
1000
0002
0000
0000
0000
MMM3
0000
0000
0000
0000
0000
0000
0000
0000
0000
0000
0000
0000
0000
0000
0000
0000
0000
0000
0000
0000
0000
0000
0000
;

//---------------dance-double - P. Shanklin----------------
#NOTES:
     dance-double:
     P. Shanklin:
     Challenge:
     13:
     0.927,1.000,0.281,0.153,1.000:
00000000
00000000
00000000
00000000
00000000
00000000
00000000
00000000
0000000M
00000000
00000M00
00000000
000M0000
00000000
00000000
00000000
000M0000
00000000
00000000
00000000
0000M000
00000000
0000M000
00000000
000M0000
00000000
M0000000
0M000000
00M00000
00000000
00M00000
00000000
,
000M0000
0000M000
00000M00
000000M0
00000000
00000000
MMMMMMMM
00000000
00000000
00000000
0000M000
00000000
0000M000
00000000
00000M00
00000M00
,
0000000M
00000000
000000M0
00000M00
0000M000
00000000
00M00000
00000000
0M000000
00000000
00000000
00000000
0MM00000
00000000
00000000
00000000
000MM000
00000000
00000000
00000000
00000000
00000000
0000000M
00000000
M0000000
00000000
00000000
00000000
0M000000
00000000
000000M0
00000000
,
00M00000
00000000
00000M00
00000000
0M000000
00000000
00000000
00000000
00022000
00000000
00000000
00000000
00000000
00000000
MMM33MMM
00000000
00001000
00000000
00000000
00000000
00001000
00000000
00000000
00000000
00011000
00000000
00000000
00000000
00100000
00000000
00010000
01000000
,
00100000
10000000
00100000
10000000
00010000
00200000
00000000
00000000
00301000
00000000
00001000
00000000
00010100
00000000
00000000
00010000
,
00000010
00000000
00000100
00000000
00000010
00000100
00000010
00000100
00000001
00001000
00000001
00001000
00000100
00001000
00000100
00000000
00010000
00000000
00000000
00000000
00010000
00000000
00000000
00000000
00011000
00000000
00000000
00000000
00100000
00000000
00010000
10000000
,
00010000
00000000
00100000
00000000
01000000
00000000
10000000
00000000
00100000
00000000
02000000
00000000
00000000
00000000
00000000
03010000
01000000
00010000
01000000
00010000
01000000
00000000
00001000
01000000
00001000
01000000
00001000
00000000
00010000
00000000
00000010
00000000
,
00001000
00000001
00001000
00000000
00000100
00000010
00000100
00000000
00000010
00000001
00000010
00000000
00000001
00001000
00000001
00001000
00000010
00000000
00000000
00000000
00000010
00000000
00000000
00000000
00011000
00000000
00000000
00000000
00100000
00000000
01000000
10000000
,
00010000
01000000
00100000
10000000
00010000
04000000
000M0000
00000000
03100000
00000000
00100000
00000000
00011000
00000000
00000000
00010000
,
00000010
00000000
00001000
00000000
00000100
00001000
00000100
00001000
00000001
00000100
00000001
00000100
00000010
00000100
00000010
00000000
00001000
00000000
00000000
00000000
00001000
00000000
00000000
00000000
00011000
00000000
00000000
00000000
10000000
00000000
00010000
01000000
,
00010000
00000000
00100000
00000000
00010000
00000000
10000000
00000000
00100000
00000000
02000000
00000000
00000000
00000000
03001000
00010000
00001000
00000000
00100000
00000000
00010000
00000000
00100000
00000000
01000000
00000000
10000000
00000000
1MM10000
00000000
00000000
00000000
,
00010000
01000000
00000000
00000000
00001000
00010000
00000000
00000000
00000010
00001000
M0000000
0M000000
00M00000
000M0000
0000M000
00000M00
000000M1
00000000
00000000
00000000
00000010
00000000
00000000
00000000
00001100
00000000
00000000
00000000
00000001
00000000
00000010
00000001
,
00001000
00000010
00000100
00000000
00000001
00001000
00000100
00000000
00010000
00001000
00010000
00000000
00001000
01000000
00010000
01000000
00010000
00000000
00000000
00000000
10000000
00000000
00000000
00000000
11000000
00000000
00000000
00000000
10000000
00000000
00010000
01000000
,
00100000
01000000
00100000
00000000
10000000
00010000
10000000
00000000
00010000
00100000
00001000
00000000
00010000
00000010
00010000
00000010
00001000
00000000
00000000
00000000
00000001
00000000
00000000
00000000
00000011
00000000
00000000
00000000
00010000
00000000
00000010
00010000
,
00001000
00010000
00001000
00000000
00100000
01000000
00100000
00000000
01000000
10000000
00010000
00000000
01000000
00100000
01000000
00000000
00010000
00100000
00001000
00000000
00010000
00000010
00001000
00000000
00000001
00000010
00000100
00000000
00010000
00001000
00100000
00000000
,
00010000
01000000
00100000
00000000
10000000
01000000
00100000
00000000
00010000
01000000
00100000
00000000
01000000
00001000
00010000
00000010
00001000
00000000
00000000
00000000
00000001
00000000
00000000
00000000
00000011
00000000
00000000
00000000
00001000
00000000
00000010
00001000
,
00000001
00001000
00000010
00000000
00010000
00001000
01000000
00000000
00010000
10000000
00100000
00000000
10000000
00100000
10000000
00010000
01000000
00000000
00000000
00000000
00001000
00000000
00000000
00000000
00011000
00000000
00000000
00000000
00100000
00000000
00010000
10000000
,
01000000
10000000
00010000
00000000
00100000
00001000
00100000
00000000
00000010
00010000
00000010
00000000
00001000
00000100
00001000
00000001
00000100
00000000
00000000
00000000
00000010
00000000
00000000
00000000
00011000
00000000
00000000
00000000
00001000
00000000
00100000
00010000
,
10000000
00010000
00100000
00000000
00001000
00010000
00000100
00000000
00001000
00000001
00001000
00000000
00000010
00000100
00000001
00000000
00001000
00000100
00000010
00000001
00001000
00000000
00000000
00000000
00001010
00000000
00000000
00000000
00000010
00000000
00000000
00000000
,
00010000
00001000
M0M10M0M
0M0010M0
M0M20M0M
00000000
00000000
00000000
00030010
00001000
00000000
00001000
00000002
00000000
00000013
00000001
,
00001000
00000010
00000000
00010000
00002000
00000000
00003000
00000000
10000000
01000000
00000000
10000000
00002000
00000000
00013000
00001000
,
00100000
00000000
01000000
10000000
00400000
00000000
M0000000
00000000
01300000
00001000
00000000
00001000
00020000
00000000
00030100
00001000
,
00000000
00000001
00000100
00000010
00002000
00000000
00003010
00010000
00000000
00001000
00000000
00100000
0M202M00
0M000M00
0M000M00
0M000M00
,
0M000M00
00000000
0M000M00
00003000
0M000M00
00000000
00310000
00000000
00110000
00000000
00000000
00000000
10000000
00000000
00000000
00000000
00100000
00000000
01000000
00000000
00000000
00000000
00001000
00000000
00020000
00000000
00000000
00000000
00031000
00000000
00010000
00000000
,
00000100
00000000
00000000
00000010
00000000
00000000
00000001
00000000
00000000
00000100
00000000
00000000
00000101
00000000
00000000
00000000
00000000
M0000000
0M000000
00M00000
000M0000
0000M000
00000M00
000000M0
00000001
00000000
00000000
00000000
00000000
00000000
00010000
00000000
00000000
00001000
00000000
00000000
00011000
00000000
00000000
00010000
00000000
00000000
00000100
00000000
00000000
00001000
00000000
00000000
,
00000040
00000000
0000M000
00000030
00000110
00000000
00000100
00000000
00000001
00000010
00000000
00000100
00020000
00000000
00031000
01000000
,
00010000
00000000
00000000
00000000
00000000
00000000
01000000
00000000
00000000
00000000
00000000
00000000
00100000
00000000
00000000
00000000
00000000
00000000
00000000
00000000
00000000
00000000
00000000
00000000
10000000
00000000
00000000
00000000
00000000
00000000
00000000
00000000
00000000
00000000
00000000
00000000
00010000
00000000
00000000
00000000
00000000
00000000
00000000
00000000
00000000
00000000
00000000
00000000
10010000
00000000
00000000
00000000
00000000
00000000
00000000
00000000
00000000
00000000
00000000
00000000
00000000
00000000
00000000
00000000
00000000
00000000
00000000
00000000
00000000
00000000
00000000
00000000
00000000
00000000
00000000
00000000
00000000
00000000
00000000
00000000
00000000
00000000
00000000
00000000
10000000
00000000
00000000
00000000
00000000
00000000
00000000
00000000
00000000
00000000
00000000
00000000
00001000
00000000
00000000
00000000
00000000
00000000
00000000
00000000
00000000
00000000
00000000
00000000
00000000
00000000
00000000
00000000
00010000
00000000
00000000
00000000
00000000
00000000
00000000
00000000
00000000
00000000
00000000
00000000
00000000
00000000
00000000
00000000
00000001
00000000
00000000
00000000
00000000
00000000
00000000
00000000
00000000
00000000
00000000
00000000
00000000
00000000
00000000
00000000
00001MM1
00000000
00000000
00000000
00000000
00000000
00000000
00000000
00000000
00000000
00000000
00000000
00000000
00000000
00000000
00000000
00000000
00000000
00000000
00000000
00000000
00000000
00000000
00000000
00001000
00000000
00000000
00000000
00000000
00000000
00000000
00000000
00000000
00000000
00000000
00000000
00000001
00000000
00000000
00000000
00000000
00000000
00000000
00000000
00000000
00000000
00000000
00000000
,
00010000
00000000
00000000
00000000
00001000
00000000
00000000
00000000
10000000
00000000
00000000
00000000
10010000
00000000
00000000
00000000
00000000
00000000
MMM10000
00000000
00000000
00000000
00000000
00000000
10000000
00000000
00000000
00100000
00000000
00000000
00000000
00000000
00000000
01000000
00000000
00000000
00010000
00000000
00000000
00000000
00000000
00000000
00100000
00000000
00000000
00001000
00000000
00000000
,
00010000
00000000
00001000
00000000
00100000
00000000
00010000
00000000
00100000
00000000
00001000
00000000
00040000
00000000
00000000
00000000
00000000
00000000
0000M000
00000000
00000000
00000000
00000000
00000000
00030010
00000000
00000000
00001000
00000000
00000000
00000000
00000000
00000000
00000010
00000000
00000000
00000100
00000000
00000000
00000000
00000000
00000000
00000010
00000000
00000000
00010000
00000000
00000000
,
00001000
00000000
00010000
00000000
00000100
00000000
00001000
00000000
00000100
00000000
00010000
00000000
00001000
00000000
00100000
00000000
00010000
00000000
00100000
00000000
00001000
00000000
00010000
00000000
00000010
00000000
00000000
00000000
00000000
00000000
00001000
00000000
00000000
00000001
00000000
00000000
00000010
00000000
00000000
00000100
00000000
00000000
00000000
00000000
00000000
00001000
00000000
00000000
,
00000010
00000000
00000100
00000001
00004000
00000000
0000000M
00000000
00003100
00000000
00010000
00001000
00011000
00001000
00100000
00010000
,
01000000
00000000
00010000
00000000
00100000
00010000
10000000
00000000
00100000
00000000
00000000
00000000
01000000
00000000
00001000
00000000
00010000
00000000
00000010
00000000
00000000
00000000
00001000
00000000
00000100
00000000
00000000
00000000
00010000
00000000
00001000
00000000
,
01000000
00000000
00010000
00000000
01000000
00000000
00001000
00000000
00010000
00000000
00000010
00000000
00001000
00000000
00000000
00000000
00000000
00000000
00000001
00000000
00000000
00001000
00000000
00000000
00000010
00000000
00010000
00000000
00001000
00000000
01000000
00000000
00010000
00000000
01000000
00000000
00001000
00000000
00010000
00000000
00000100
00000000
00001000
00000000
00000100
00000000
00010000
00000000
,
00001000
00000000
00100000
00000000
00010000
00000000
00100000
00000000
00001000
00000000
00010000
00000000
M0004000
00000000
00000000
0M000000
00000000
00000000
00M00000
00000000
00000000
000M0000
00000000
00000000
00000M00
00000000
00000000
000000M0
00000000
00000000
0000000M
00000000
00000000
000000M0
00000000
00000000
00000M00
00000000
00000000
00000000
000M0000
00000000
00000000
00000000
00M00000
00000000
00000000
00000000
,
0M000000
00000000
00000000
00000000
M0000000
00000000
00000000
00000000
0M000000
00000000
00000000
00000000
00M00000
00000000
00000000
000M0000
00000000
00000000
00000M00
00000000
00000000
000000M0
00000000
00000000
0000000M
00000000
00000000
000000M0
00000000
00000000
00000M00
00000000
00000000
000M0000
00000000
00000000
00M00000
00000000
00000000
0M000000
00000000
00000000
M0000000
00000000
00000000
0M000000
00000000
00000000
,
00M00000
000M0000
00000M00
000000M0
0000300M
00000000
00011000
00000000
00001010
00000000
00000000
00001000
00000001
00000000
00001000
00000100
,
00010000
00000000
00000000
00010000
00001000
00000000
00000000
00001000
MM2M0000
00000000
00000000
00000000
00000000
00000000
00300000
00000000
00010000
00000000
00000000
00000000
01000000
00000000
00000000
00000000
10100000
00000000
00000000
00000000
10000000
00000000
00010000
01000000
,
00010000
00000000
00100000
00000000
01000000
00000000
10000000
00000000
00010000
10000000
00010000
10000000
00010000
01000000
00010000
01000000
00001000
00000000
00000000
00000000
00010000
00000000
00000000
00000000
00010100
00000000
00000000
00000000
00000000
00000000
00010000
00000000
,
00000010
00000000
00001000
00000000
00000100
00001000
00000100
00001000
00000001
00000100
00000001
00000100
00000010
00001000
00000010
00000000
00010000
00000000
00000000
00000000
00001000
00000000
00000000
00000000
00101000
00000000
00000000
00000000
00001000
00000000
01000000
00100000
,
01000000
00000000
00010000
00000000
10000000
00000000
01000000
00000000
00100000
00000000
00001000
00000000
00000000
00000000
00000000
00001000
00010000
00000100
00010000
00000100
00001000
00000000
00000100
00001000
00000001
00000100
00000001
00000000
00000010
00000000
00000100
00000000
,
00010000
00001000
00010000
00000000
00001000
01000000
00010000
00000000
01000000
00100000
10000000
00000000
00010000
00100000
01000000
00100000
00010000
00000000
00000000
00000000
10000000
00000000
00000000
00000000
00011000
00000000
00000000
00000000
00000010
00000000
00001000
00000001
,
00001000
00000000
00000100
00000000
00001000
00000000
00000010
00000000
00000100
00000001
00000100
00000001
00000010
00000100
00000010
00000100
00001000
00000000
00000000
00000000
00000010
00000000
00000000
00000000
00011000
00000000
00000000
00000000
00000000
00000000
10000000
00000000
,
00010000
00000000
01000000
00000000
00100000
01000000
00100000
01000000
00010000
01000000
00010000
01000000
00001000
00010000
00000100
00000000
00001000
00000000
00000000
00000000
00000010
00000000
00000000
00000000
00001001
00000000
00000000
00000000
00000001
00000000
00000100
00000010
,
00000100
00000010
00001000
00000100
00010000
00001M00
00000000
000M0000
00100000
00100000
00020000
00000000
01000000
00000000
10000000
00000000
,
00100000
00000000
00000000
00000000
02000000
00000000
00000000
00000000
00000000
00000000
00000000
00000000
03030000
00000000
00000000
00000000
00MM1MM0
00000000
00000000
00000000
00010000
00000000
00000000
00000000
00001010
00000000
00000000
00000000
00001000
00000000
00000100
00000010
,
00000001
00001000
00000001
00000000
00000100
00000010
00001000
00000000
00000100
00010000
00000100
00000000
00010000
00001000
00100000
00010000
10000000
00000000
00000000
00000000
00100000
00000000
00000000
00000000
10010000
00000000
00000000
00000000
10000000
00000000
00010000
01000000
,
00100000
01000000
00100000
00000000
10000000
00010000
00100000
00000000
00001000
00010000
00001000
00000000
00010000
00000010
00001000
00000010
00000100
00000000
00000000
00000000
00000001
00000000
00000000
00000000
00001001
00000000
00000000
00000000
00010000
00000000
00001000
00010000
,
00001000
00100000
00010000
00000000
10000000
00100000
10000000
00000000
00100000
01000000
00010000
00000000
00100000
00001000
00010000
00000000
00001000
00010000
00000100
00000000
00001000
00000001
00001000
00000000
00000010
00000100
00000001
00000000
00000100
00000001
00000010
00000000
,
00000100
00001000
00000001
00000000
00000100
00000010
00001000
00000000
00000010
00010000
00001000
00000000
00100000
00010000
10000000
00000000
01000000
10000000
00100000
00000000
01000000
00001000
00010000
00000000
00001000
00100000
00010000
00000000
10000000
00100000
01000000
00000000
,
00010000
00100000
00001000
00000000
00100000
00001000
00010000
00000000
00000010
00001000
00000001
00000000
00000100
00000001
00000010
00000000
00000001
00000010
00000100
00001000
00000100
00010000
00001000
00000000
00100000
00010000
01000000
00100000
01000000
00010000
10000000
00000000
,
01000000
00100000
00010000
00100000
01000000
10000000
00010000
00000000
01000000
00001000
00010000
00001000
00010000
00000010
00001000
00000000
00000100
00001000
00000001
00000100
00000010
00001000
00000010
00000000
00010000
00001000
01000000
00010000
00100000
00001000
00010000
00000000
,
00000100
00000010
00000100
00001000
00000100
00010000
00001000
00000000
01000000
00100000
10000000
00010000
00100000
00010000
01000000
00000000
00001000
00000000
00000000
00000000
00010000
00000000
00000010
00000000
00000000
00000000
00001000
00000000
00000001
00000000
00000000
00000000
,
00000010
00000100
00001000
00000100
00020000
00000000
00000000
00000000
MMM3MMMM
00000000
00000000
00000000
00000000
00000000
00000000
00000000
00000000
00000000
00000000
00000000
00000000
00000000
00000000
00000000
00000000
00000000
00000000
00000000
00000000
00000000
00000000
00000000
;

//---------------dance-single - P. Shanklin----------------
#NOTES:
     dance-single:
     P. Shanklin:
     Hard:
     10:
     0.777,0.776,0.225,0.080,1.000:
0000
0000
0000
0000
,
0000
0000
0000
MMMM
000M
00M0
0000
0000
,
0000
MMMM
0000
0000
,
0000
0000
0000
0000
M00M
0MM0
M00M
0MM0
1000
0000
1000
0000
1001
0000
0001
0100
,
0010
0100
0001
1000
0001
0100
0000
0000
0001
0000
0001
0000
0011
0000
0000
0010
,
0100
0000
0010
0000
0001
0000
0010
0000
0100
1000
0100
0000
1000
0100
1000
0000
0001
0000
0000
0000
0001
0000
0000
0000
0101
0000
0000
0000
0100
0000
0010
0000
,
0100
0000
0001
0000
0010
0000
0100
0000
1000
0000
0001
0000
0000
0000
0000
1000
0001
1000
0001
1000
0001
0000
0100
0001
0100
0001
0100
0000
0001
0000
0010
0000
,
0001
0010
0001
0000
1000
0000
0010
0000
0100
0010
0100
0000
0010
0000
0010
0000
0100
0000
0000
0000
0100
0000
0000
0000
1001
0000
0000
0000
1000
0000
0100
0000
,
1000
0010
1000
0001
0010
0400
0000
0300
1000
0000
1000
0000
0101
0000
0000
0001
,
0100
0000
0001
0000
0010
0000
0001
0000
0100
0001
0100
0000
0001
1000
0001
0000
1000
0000
0000
0000
1000
0000
0000
0000
1100
0000
0000
0000
0100
0000
0010
0000
,
0001
1000
0010
0100
0001
0010
0000
0010
0100
1000
0100
1000
0100
0010
0100
0010
,
0001
1000
0000
0000
0001
1000
0000
0000
0001
1000
00M0
0000
0000
00M0
0000
0000
0100
0000
0000
0000
0100
0000
0000
0000
1001
0000
0000
0000
1000
0000
0010
0000
,
0100
0001
0100
0010
1000
0010
0100
0001
0010
0000
0010
0000
0110
0000
0010
0001
,
1000
0100
0010
0001
1000
0010
0100
0001
1000
0000
1000
0000
1001
0000
0001
0100
,
0001
0000
0010
0000
0001
0000
1000
0000
0001
0000
0100
0000
0001
0000
1000
0000
0100
0010
0100
0000
0010
0000
0001
0000
0010
0001
0010
0000
0001
0000
1000
0000
,
0010
1000
0010
0000
1000
0010
1000
0000
0001
0100
0001
0000
0100
0001
0100
0000
0010
0000
0000
0000
0010
0000
0000
0000
1010
0000
0000
0000
1000
0000
0100
0000
,
1000
0100
0010
0100
1000
0010
1000
0100
0010
0000
0010
0000
0011
0000
0001
0100
,
0010
0100
0010
1000
0001
0010
0100
1000
0001
0000
0001
0000
1010
0000
1000
0010
,
0100
0000
0001
0000
0010
0000
0100
0000
1000
0000
0010
0000
0100
0000
0001
0000
0010
0001
0010
0001
0010
0000
0000
0000
1001
0000
0000
0000
0010
0000
0000
0000
,
0100
0001
0100
001M
200M
0000
0000
0000
3001
0010
0000
0010
1000
0000
0010
0001
,
0100
0000
0100
0010
2000
0000
3001
0000
1000
0010
0000
0010
0001
0000
0010
0100
,
0001
0000
0010
0100
4000
0000
0000
30M0
0001
0100
00M0
0100
1000
0000
0100
0001
,
M0M0
0001
0100
0001
0010
0000
0100
1000
00MM
1000
0100
1000
1002
0000
0000
0000
,
0103
0000
0000
0000
1001
0000
0000
0000
1000
0100
0000
0100
0001
0000
0100
0010
,
M001
M100
M001
M100
0010
0000
0000
0000
0100
0000
0010
1000
010M
100M
001M
100M
,
0100
0000
1000
00M0
0001
0000
0100
0000
0010
1000
0M00
0010
0001
0000
0010
1000
,
0001
0000
0000
0000
0000
0000
1000
0000
0000
0000
0000
0000
0001
0000
0000
0000
0000
0000
0000
0000
0000
0000
0000
0000
0010
0000
0000
0000
0000
0000
0000
0000
0000
0000
0000
0000
0100
0000
0000
0000
0000
0000
0000
0000
0000
0000
0000
0000
1000
0000
0000
0000
0000
0000
0000
0000
0000
0000
0000
0000
0000
0000
0000
0000
0000
0000
0000
0000
0000
0000
0000
0000
0000
0000
0000
0000
0000
0000
0000
0000
0000
0000
0000
0000
1000
0000
0000
0000
0000
0000
0000
0000
0000
0000
0000
0000
00M1
0000
0000
0000
0000
0000
0000
0000
0000
0000
0000
0000
0000
0000
0000
0000
01M0
0000
0000
0000
0000
0000
0000
0000
0000
0000
0000
0000
0000
0000
0000
0000
00M1
0000
0000
0000
0000
0000
0000
0000
0000
0000
0000
0000
0000
0000
0000
0000
0101
0000
0000
0000
0000
0000
0000
0000
0000
0000
0000
0000
0000
0000
0000
0000
0000
0000
0000
0000
0000
0000
0000
0000
0100
0000
0000
0000
0000
0000
0000
0000
0000
0000
0000
0000
0001
0000
0000
0000
0000
0000
0000
0000
0000
0000
0000
0000
,
10M0
0000
0000
0000
01M0
0000
0000
0000
10M0
0000
0000
0000
1100
0000
0000
0000
0000
0000
MMMM
0000
0000
0000
0000
0000
0001
0000
0000
0100
0000
0000
0000
0000
0000
1000
0000
0000
0100
0000
0000
0000
0000
0000
0010
0000
0000
1000
0000
0000
,
0001
0000
0010
0000
0100
0000
1000
0000
0100
0000
0010
0000
0004
0000
0000
0000
0000
0000
0000
0000
0000
0003
0000
0000
1000
0000
0000
0010
0000
0000
0000
0000
0000
0001
0000
0000
0010
0000
0000
0000
0000
0000
1000
0000
0000
0010
0000
0000
,
0100
0000
0001
0000
1000
0000
0100
0000
0010
0000
0001
0000
1000
0000
0001
0000
0010
0000
0100
0000
1000
0000
0001
0000
0100
0000
0000
0000
0000
0000
0001
0000
0000
0010
0000
0000
0001
0000
0000
1000
0000
0000
0000
0000
0000
0100
0000
0000
,
1000
0000
0010
0100
0040
0000
0000
0030
1000
0000
0001
0000
0011
0000
1000
0000
,
0010
0000
0100
0000
1001
0000
0001
0000
1000
0100
0000
0001
0100
0000
1000
0010
,
0100
0000
0001
0000
0100
0000
0010
0000
1000
0000
0010
0000
0100
0000
0000
0000
0000
0000
0001
0000
0000
0010
0000
0000
0001
0000
1000
0000
0010
0000
1000
0000
0001
0000
0010
0000
0001
0000
1000
0000
0010
0000
1000
0000
0001
0000
0100
0000
,
0001
1000
0100
0010
0001
1000
0M02
0000
0000
00M0
0000
0000
0M00
0000
0000
00M0
0000
0000
0M00
0000
0000
00M0
0000
0000
,
0M00
00M0
0M00
00M0
0M00
00M0
0M00
00M0
,
0M00
0000
00M0
0000
0M03
0000
2000
0000
3002
0000
0003
0010
0001
0000
1000
0100
,
1000
0000
0001
1000
0001
0000
1000
0001
2MM0
0000
0000
0000
0MM0
0000
0000
0000
3001
0000
0000
0000
0001
0000
0000
0000
0101
0000
0000
0000
0100
0000
0010
0000
,
1000
0001
0010
0001
0010
0100
1000
0100
0010
0000
0010
0000
1001
0000
0001
1000
,
0010
0100
0010
1000
0001
0100
0001
0010
0100
0000
0100
0000
1010
0000
1000
0001
,
0100
0000
0001
0000
0100
0000
0001
0000
0010
0000
0100
0000
0000
0000
0000
1000
0100
1000
0100
1000
0100
0000
1000
0001
1000
0001
1000
0000
0001
0000
1000
0000
,
0010
0100
0010
0000
0100
0010
0100
0000
0001
1000
0001
0000
1000
0001
1000
0000
0100
0000
0000
0000
0100
0000
0000
0000
0110
0000
0000
0000
0010
0000
0100
0000
,
1000
0010
0100
0010
0100
0001
0010
0100
1000
0000
1000
0000
1001
0000
1000
0100
,
0010
0100
0010
0001
1000
0010
0100
0001
0010
0000
0010
0000
1100
0000
0100
1000
,
0010
1000
0100
1000
0001
0100
0000
0000
0100
0001
0020
0000
0100
0000
0001
0000
,
0100
0000
0032
0000
1000
0000
0100
0000
1003
0000
1000
0000
1100
0000
0100
1000
,
0010
0000
0100
0000
0001
0000
1000
0000
0100
1000
0100
0000
1000
0100
1000
0000
0010
0000
0000
0000
0010
0000
0000
0000
1001
0000
0000
0000
0001
0000
0010
0000
,
0100
0000
1000
0000
0001
0000
0010
0000
0100
0010
0100
0000
0010
0001
0010
0000
0001
0000
0000
0000
0001
0000
0000
0000
1010
0000
0000
0000
1000
0000
0010
0000
,
0100
0000
0001
0000
0010
0000
0100
0000
0010
0000
0001
0000
0010
0000
0100
0000
1000
0001
1000
0000
0010
0000
0100
0000
0010
0000
1000
0000
0010
0000
0100
0000
,
0001
0100
0001
0000
1000
0000
0001
0000
0010
0000
0001
0000
1000
0000
0100
0000
0010
0001
0010
0000
0100
0000
1000
0000
0010
0000
0100
0000
0001
0000
0010
0000
,
0001
1000
0001
0000
1000
0000
0010
0000
0100
0000
0001
0000
1000
0000
0100
0000
0010
0100
0010
0000
0100
0000
1000
0000
0001
0100
0001
0000
0100
0000
0010
0000
,
1000
0010
1000
0000
0001
0000
0010
0000
0001
0010
0001
0000
1000
0000
0100
0000
0010
0100
0010
0000
0100
0000
1000
0000
0100
1000
0100
0000
1000
0000
0001
0000
,
0100
0001
0100
0000
0001
0000
0010
0000
0001
1000
0001
0000
0100
0000
0001
0000
1000
0000
0000
0000
1000
0000
0100
0000
0000
0000
0100
0000
0010
0000
0000
0000
,
0001
1000
0001
1000
0002
0000
0000
0000
MMM3
0000
0000
0000
0000
0000
0000
0000
0000
0000
0000
0000
0000
0000
0000
0000
0000
0000
0000
0000
0000
0000
0000
0000
;

//---------------dance-single - P. Shanklin----------------
#NOTES:
     dance-single:
     P. Shanklin:
     Medium:
     8:
     0.628,0.671,0.233,0.080,0.799:
0000
0000
0000
0000
,
0000
0000
0000
MMMM
0000
0000
0000
0000
,
0000
MMMM
0000
0000
,
0000
0000
0MM2
0MM0
1003
0010
0110
0100
,
0010
0000
1000
0001
1000
0001
0000
0000
0010
0000
0100
0000
0110
0000
0000
0010
,
0100
0000
1000
0000
0100
1000
0100
1000
0100
0000
0010
0000
0011
0000
1000
0000
,
0001
0000
0000
0000
0100
0000
0001
0000
0010
0000
0001
0000
0000
0000
0000
1000
0100
0000
1000
0000
0100
0000
1000
0000
0010
0000
1000
0000
0001
0000
0000
0000
,
0010
0100
1000
0000
0010
0100
0001
0000
1000
0000
0001
0000
1001
0000
1000
0000
,
0010
0000
1000
0001
0010
0100
0000
0000
1000
0000
0010
0000
1010
0000
0000
0100
,
0001
0000
0010
0001
0100
0010
0100
0001
1000
0000
0100
0000
1100
0000
1000
0000
,
0010
0000
0100
0001
0100
0001
0000
0010
0100
1000
0010
0000
0100
0001
0010
0000
,
1001
0000
0000
0000
1001
0000
0000
0000
1001
0000
0M00
0000
0000
0M00
0000
0000
1000
0000
0000
0000
0001
0000
0000
0000
1001
0000
0000
0000
0001
0000
0010
0000
,
0100
0000
1000
0000
0100
0000
1000
0001
1000
0000
0010
0000
0110
0000
0100
0010
,
0100
0000
0001
0000
0010
0000
0001
1000
0100
0000
1000
0000
1001
0000
0001
0100
,
0001
0000
0100
0000
0010
0000
1000
0000
0100
0010
0001
0000
0100
0010
1000
0000
,
0001
0010
0001
1000
0001
0100
0001
1000
0001
0000
1000
0000
1100
0000
0100
1000
,
0010
0000
1000
0000
0001
0000
0010
0001
0010
0000
0100
0000
0110
0000
0001
0100
,
0010
0000
0100
0000
0001
0000
0100
0010
1000
0000
0001
0000
0011
0000
1000
0100
,
1000
0000
0100
0000
1000
0000
0010
0100
0010
1000
0001
0000
1001
0000
1000
0000
,
0100
0010
M10M
0010
0002
0000
0000
0000
0013
0100
0000
0010
0001
0000
0000
0000
,
0100
0000
0000
0001
0200
0000
0300
0000
0010
1000
0000
1000
0001
0000
0000
0000
,
0010
0000
0100
1000
0040
0000
0000
0M30
1000
0001
0M00
0010
0001
0000
0100
0010
,
M00M
0100
0010
0100
0001
0000
1000
0100
00MM
1000
0001
1000
0002
0000
0000
0000
,
0103
0000
0000
0000
0110
0000
0000
0000
0100
0010
0000
0100
0010
0000
0000
0000
,
100M
0100
100M
0100
1000
0000
0000
0000
0001
0000
0001
0100
0010
1M00
0001
0M10
,
0004
0000
0003
0MM0
1001
0000
0000
0000
0001
0010
M000
0001
0010
0000
0100
1000
,
0001
0000
0000
0001
0000
0000
0100
0000
0000
0001
0000
0000
0010
0000
0000
0000
0000
0000
0000
0000
0000
0000
0000
0000
0M01
0000
0000
0000
1MM0
0000
0000
0000
0MM1
0000
0000
0000
1000
0000
0000
0000
0000
0000
0010
0000
0000
0000
0000
0000
,
1M00
0000
0000
0000
0MM1
0000
0000
0000
1MM0
0000
0000
0000
0001
0000
0000
0000
0000
0000
2000
0000
0000
0000
0000
0000
3001
0000
0000
0100
0000
0000
0000
0000
0000
0010
0000
0000
0100
0000
0000
0000
0000
0000
0001
0000
0000
0100
0000
0000
,
0001
0000
0000
0000
0001
0000
1000
0000
0000
0000
1000
0000
0400
0000
0000
0000
0000
0000
0000
0000
0000
0300
0000
0000
1000
0000
0000
0001
0000
0000
0000
0000
0000
0001
0000
0000
0010
0000
0000
0000
0000
0000
0100
0000
0000
1000
0000
0000
,
0001
0000
0000
0000
0001
0000
0100
0000
0000
0000
0100
0000
0010
0000
0000
0000
0010
0000
1000
0000
0000
0000
1000
0000
0010
0000
0000
0000
0000
0000
1000
0000
0000
0100
0000
0000
1000
0000
0000
0100
0000
0000
0000
0000
0000
1000
0000
0000
,
0010
0000
0100
0010
0400
0000
0000
0300
0010
0000
0000
0000
1001
0000
0000
0001
,
0010
0000
0010
0000
0110
0000
0000
0000
0100
1000
0000
0001
0100
0000
0001
1000
,
0100
0000
0000
0000
0100
0000
1000
0000
0000
0000
1000
0000
0001
0000
0000
0000
0000
0000
0001
0000
0000
0100
0000
0000
0010
0000
0000
0000
0010
0000
1000
0000
0000
0000
1000
0000
0001
0000
0000
0000
0001
0000
0100
0000
0000
0000
0100
0000
,
0010
0000
0010
0100
0000
0200
0002
0000
0000
M0M0
0000
0000
0000
0000
0000
M0M0
0000
0000
0000
0000
0000
M0M0
0000
0000
,
0000
M0M0
0000
M0M0
0000
M0M0
0000
M0M0
,
0000
0000
0000
0000
0000
0000
M0M0
0000
0000
0000
0000
0000
0303
0000
0000
0000
0000
0000
M000
0000
M000
0000
M000
0000
M00M
0000
000M
0000
000M
0000
000M
0000
0000
0001
0000
0000
1000
0000
0000
0000
0000
0000
0010
0000
0000
0100
0000
0000
,
0001
1000
0001
1000
0MM2
0000
0MM0
0000
1003
0000
0010
0000
0110
0000
0100
0000
,
0001
0000
1000
0001
1000
0001
0010
0100
0010
0000
0100
0000
1100
0000
0001
0000
,
1000
0000
0001
1000
0100
0010
0100
1000
0001
0000
0100
0000
0110
0000
0010
0000
,
0100
0000
0000
0000
0010
0000
1000
0000
0010
0000
0100
0000
0000
0000
0000
0010
0100
0000
0001
0000
0100
0000
0001
0000
1000
0000
0001
0000
0010
0000
0100
0000
,
1000
0100
1000
0100
0010
0001
0010
0001
1000
0000
0001
0000
1001
0000
0001
0000
,
0010
0000
0100
1000
0100
0010
0001
0000
1000
0000
0010
0000
1001
0000
0010
0000
,
0001
0010
0100
0010
0001
1000
0010
0000
0100
0000
0001
0000
0101
0000
0100
0010
,
0100
0001
0010
0100
1000
0001
0000
0000
1000
0001
M020
M000
M000
M000
M000
M000
,
M000
M000
023M
000M
000M
000M
000M
000M
130M
0000
0010
0000
1010
0000
0100
0001
,
0100
0010
1000
0100
0010
0001
1000
0100
0010
0000
0001
0000
1001
0000
1000
0010
,
0100
0001
1000
0010
0100
0001
0010
0001
1000
0000
0100
0000
1001
0000
0100
0001
,
0010
0001
0100
0010
1000
0001
1000
0001
0010
0100
0010
0001
0010
0100
1000
0001
,
0100
0001
1000
0001
0010
0001
1000
0010
0100
0001
0010
0100
1000
0100
0010
0001
,
1000
0010
0100
0010
0100
0001
1000
0100
0010
0100
0010
0001
0100
0001
1000
0100
,
1000
0010
1000
0001
0010
0001
1000
0100
1000
0001
0100
0001
1000
0010
1000
0001
,
0100
0001
0010
0100
1000
0001
1000
0001
1000
0000
0010
0100
0000
0100
0001
0000
,
1000
0001
1000
0000
0MM0
0000
0000
0000
0000
0000
0000
0000
0000
0000
0000
0000
;

//---------------dance-single - P. Shanklin----------------
#NOTES:
     dance-single:
     P. Shanklin:
     Easy:
     6:
     0.413,0.378,0.265,0.080,0.153:
0000
0000
0000
0000
,
0000
0000
0000
00M0
0000
0M00
0000
0000
,
0000
M000
0000
0000
,
0000
0000
0000
0000
000M
000M
000M
000M
1000
0000
0000
0000
1010
0000
0000
0000
,
0010
0010
0010
0000
0100
0000
0101
0000
,
0001
0010
0001
0010
0001
0000
1001
0000
,
1000
1000
1000
0000
0010
0100
0010
0100
,
0001
0100
0001
0100
0001
0000
1001
0000
,
1000
0100
1000
0000
0010
0000
1010
0000
,
0010
1000
0001
0010
0001
0000
0011
0000
,
0010
0010
0010
0000
0100
1000
0001
1000
,
1001
1001
1001
0000
0001
0000
1001
0000
,
0001
0000
0010
0000
0001
0000
0010
0100
0010
0000
0000
0000
0011
0000
0000
0000
,
1000
0000
0001
0000
1000
0001
0100
0000
0010
0000
0000
0000
1010
0000
0000
0000
,
0010
1000
0100
1000
0100
0001
0100
1000
,
0001
0100
1000
0100
0001
0000
1001
0000
,
1000
0000
0100
0000
0010
0000
0001
0010
0001
0000
0000
0000
1001
0000
0000
0000
,
0001
0000
1000
0000
0010
1000
0010
0000
0100
0000
0000
0000
0101
0000
0000
0000
,
1000
0100
1000
0001
0010
0100
0110
0010
,
0001
0000
0001
0000
0002
0000
0000
0000
1003
0001
0000
1000
0001
0000
0000
0000
,
1000
0000
0000
0000
1010
0000
0000
0000
0001
0010
0000
0001
0010
0000
0000
0000
,
0001
0000
0001
0000
1001
0000
0000
0000
1000
0010
0000
1000
0020
0000
0000
0130
,
0000
0000
0100
0000
0002
0000
0000
1003
0000
0000
0001
0000
0020
0000
0000
0000
,
0130
0000
0000
0000
0110
0000
0000
0000
0100
0010
0000
0100
0010
0000
0000
0000
,
0100
1000
0010
0000
1000
1000
0001
0001
,
1000
0000
0000
0000
1001
0000
0000
0000
0001
0010
0000
0001
0010
0000
0000
0000
,
0100
0000
1000
0000
0001
0000
0000
0000
0100
0000
0000
0000
1001
0000
0000
1000
,
0100
0000
0100
0000
1001
0000
2000
0000
3001
0100
0000
0001
0100
0000
0001
0000
,
0010
0000
0100
0000
1000
0000
0000
0000
1000
0100
0000
1000
0100
0000
1000
0000
,
0010
0000
0100
0000
0010
0000
0100
0000
0001
0000
1000
0000
0001
1000
0000
0001
,
1000
0100
0100
0000
0010
0000
1001
0000
,
0010
0000
0010
0000
1001
0000
0000
0000
1000
0100
0000
1000
0100
0000
1000
0000
,
0001
0010
0001
1000
0010
0100
0001
0100
,
0010
0200
0002
0000
0000
0000
0000
0000
,
0000
0000
0000
0000
,
0000
0000
0000
0000
0303
0000
M000
0000
00M0
0000
0000
0001
0100
0000
0001
1000
,
0001
1000
0002
0000
0013
0000
0011
0000
,
0010
0000
0001
0000
0010
0000
0001
0100
0001
0000
0000
0000
0110
0000
0000
0000
,
0010
0000
1000
0000
0010
0100
0010
0000
0100
0000
0000
0000
0110
0000
0000
0000
,
0100
0000
0001
0000
1000
0001
0000
0000
0010
0000
0100
0000
1000
0000
0001
0000
,
1000
0100
0010
0001
1000
0000
1001
0000
,
0001
0000
0100
0000
0010
0000
1000
0010
1000
0000
0000
0000
1001
0000
0000
0000
,
0001
0000
0010
0000
0100
1000
0100
0000
1000
0000
0000
0000
1001
0000
0100
0000
,
0001
0000
0010
0000
0100
0010
0000
0000
0100
0000
0200
0000
0000
0000
0000
0000
,
0000
2300
0000
0000
3100
0000
1001
0000
,
0001
0000
0100
0000
0010
0000
0100
0001
0100
0000
0000
0000
1001
0000
0000
0000
,
1000
0000
0001
0000
0010
0100
0010
0000
0100
0000
0000
0000
1100
0000
0100
0000
,
0010
0100
1000
1000
0010
0010
0100
0100
,
0001
0001
0100
0100
0001
0001
0010
0010
,
0100
0100
1000
1000
0001
0100
0010
0100
,
0001
1000
0100
0010
0100
1000
0001
0100
,
0001
0000
1000
0000
0100
0000
1000
0000
0100
0000
0000
0100
0000
0000
0100
0000
,
1000
1000
00MM
0000
0000
0000
0000
0000
;

//---------------dance-single - P. Shanklin----------------
#NOTES:
     dance-single:
     P. Shanklin:
     Beginner:
     1:
     0.116,0.146,0.072,0.000,0.000:
0000
0000
0000
0000
,
0000
0000
0000
0000
,
0000
0000
0000
0000
,
0000
0000
1000
0000
,
0000
0000
0010
0000
,
0100
0100
0010
0000
,
0000
0000
0100
0000
,
0001
0001
0100
0000
,
0000
0000
0001
0000
,
0010
0001
0010
0000
,
0000
0000
0100
0000
,
1000
0000
1001
0000
,
0000
0000
1000
0000
,
0000
0000
0010
0000
,
0000
0000
0100
0000
,
0100
0000
0001
0000
,
0000
0000
1000
0000
,
0000
0000
0001
0000
,
1000
1000
0100
0000
,
0000
1001
0000
0001
,
0000
1000
0000
0001
,
0000
0010
0000
0100
,
0000
0010
0000
0100
,
0000
0110
0000
0100
,
0000
1000
0000
0001
,
0000
1000
0000
0100
,
0000
1000
0000
1001
,
0000
1001
1000
0001
,
0000
0010
0001
0010
,
0000
0100
1000
0100
,
0000
1000
0000
0110
,
0000
1001
0001
0001
,
0000
0100
0000
0010
,
0100
0010
0000
0000
,
0000
0000
0000
0000
,
0000
0000
0000
0000
,
0000
1001
1000
0000
,
0000
0000
0001
0000
,
1000
0010
1000
0000
,
0000
0000
0001
0000
,
1000
1000
0001
0000
,
0000
0000
0010
0000
,
0010
0100
0010
0000
,
0000
0000
0001
0000
,
1000
0000
0100
0000
,
0000
0000
0010
0000
,
0001
0010
0001
0000
,
1000
0000
0001
0000
,
1000
0000
0010
0000
,
0100
0000
0001
0000
,
0100
0000
0010
0000
,
1000
0000
0001
0000
,
1001
0000
0000
0000
;

//---------------dance-double - P. Shanklin----------------
#NOTES:
     dance-double:
     P. Shanklin:
     Hard:
     10:
     0.715,0.671,0.273,0.104,1.000:
00000000
00000000
00000000
00000000
,
00000000
00000000
00000000
00000000
00000000
00000000
MMMMMMMM
00000000
00000M00
00M00000
00000000
00000000
00000000
00000000
00000000
00000000
,
00000000
MMMMMMMM
00000000
00000000
,
00000000
00000000
00000000
00000000
00012000
M000000M
00M00M00
00000000
00013000
00000000
00010000
00000000
00011000
00000000
00001000
01000000
,
00010000
01000000
00100000
01000000
10000000
01000000
00000000
00000000
00010000
00000000
00010000
00000000
01010000
00000000
00000000
00010000
,
10000000
01000000
10000000
01000000
00010000
00001000
00010000
00001000
00000100
00000000
00000100
00000000
00000110
00000000
00000010
00001000
,
00000010
00000000
00000100
00000000
00000010
00000000
00000001
00000000
00000010
00000000
00001000
00000000
00000000
00000000
00000000
00001000
00000010
00000000
00000100
00000000
00000001
00000000
00000010
00000000
00000100
00000000
00001000
00000000
00000010
00000000
00000100
00000000
,
00000001
00000000
00001000
00000000
00000011
00000000
00001000
00001000
00000010
00000000
00000010
00000000
00011000
00000000
00001000
00100000
,
00010000
00100000
01000000
00100000
10000000
00400000
00000000
00300000
00010000
00000000
00010000
00000000
01010000
00000000
00000000
00010000
,
00100000
00001000
00010000
00000100
00010000
00000010
00010000
00000100
00001000
00000000
00001000
00000000
00000101
00000000
00000100
00000010
,
00000100
00001000
00000100
00000010
00000100
00000001
00000000
00000001
00000100
00001000
00010000
00100000
10000000
00010000
00200000
00300000
,
10010000
00000000
00110000
00000000
01002000
M00M0000
00M00000
0M003M00
00010000
00000000
00010000
00000000
00010100
00000000
00010000
00000100
,
00010000
00001000
00000100
00001000
00010000
00001000
00000100
00001000
00010000
00000000
00010000
00000000
00001100
00000000
00000100
00001000
,
00000001
00000100
00001000
00000100
00000001
00000100
00001000
00000100
00000001
00000000
00000001
00000000
00000110
00000000
00000010
00001000
,
00000001
00000010
00001000
00000010
00000001
00000010
00001000
00000010
00000001
00001000
00000001
00001000
00000100
00010000
00000100
00010000
,
00000010
00010000
00000010
00010000
00001000
00010000
00001000
00010000
00001000
00000000
00001000
00000000
00101000
00000000
00001000
01000000
,
00001000
00010000
01000000
00010000
00001000
00010000
01000000
00010000
00001000
00000000
00001000
00000000
01010000
00000000
01000000
00010000
,
10000000
01000000
00010000
01000000
10000000
01000000
00010000
01000000
10000000
00000000
10000000
00000000
01100000
00000000
00100000
00010000
,
10000000
00100000
00010000
00100000
10000000
00100000
00010000
00100000
10000000
00010000
00100000
00000000
00001000
00000000
00010000
00000000
,
00000100
00000010
0000010M
0000M010
00000002
00000000
00000000
00000000
00000013
00000001
00000000
00000001
00002000
00000000
00003010
00010000
,
00001000
00000000
00001000
01000000
00002000
00000000
00003000
00000000
00010000
00001000
00000000
00001000
00100000
00000000
00010000
00100000
,
01000000
00000000
01000000
10000000
00040000
00000000
0MM00000
00000000
01030000
00010000
00000000
01000000
00002000
00000000
01003000
M0M10000
,
00000000
01000000
00001000
00010000
00000200
00000000
00M103M0
00001000
00000000
00010000
00000000
00001000
00021000
00000000
00000000
00000000
,
00030010
00000000
00000000
00000000
00001100
00000000
00000000
00000000
00000010
00000001
00000000
00000001
00000010
00000000
00000100
00001000
,
00000010
0M010000
00000010
0M010000
00001000
00000000
00000000
00000000
00010000
00000000
00001000
00010000
01000000
100M0000
010M0000
100M0000
,
00400000
00000000
0M000000
00300000
01010000
00000000
00000000
00000000
00001000
0M010000
00000M00
00M01000
00010000
00000000
00010000
00100000
,
04000000
00000000
00000000
03010000
00000000
00000000
M1000000
00000000
00000000
00010000
00000000
00000000
00100000
00000000
00000000
00000000
00000000
00000000
00000000
00000000
00000000
00001000
00000000
00000000
M001000M
00000000
00000000
00000000
00001000
00000000
M000000M
00000000
00000100
00000000
00000000
00000000
M000100M
00000000
00000000
00000000
00000000
00000000
M001000M
00000000
00000000
00001000
00000000
00000000
,
M001000M
00000000
00000000
00000000
01000000
00000000
M000000M
00000000
00010000
00000000
00000000
00000000
00001000
00000000
00000000
00000000
00000000
00000000
MMMM1001
00000000
00000000
00000000
00000000
00000000
00000001
00000000
00000000
00001000
00000000
00000000
00000000
00000000
00000000
00000010
00000000
00000000
00001000
00000000
00000000
00000000
00000000
00000000
00000001
00000000
00000000
00000010
00000000
00000000
,
00000100
00000000
00001000
00000000
00000100
00000000
00010000
00000000
00000100
00000000
00010000
00000000
00004000
00000000
00000000
00000000
00000000
00000000
00000000
00000000
00000000
00000000
00000000
00000000
00013000
00000000
00000000
00001000
00000000
00000000
00000000
00000000
00000000
00100000
00000000
00000000
00001000
00000000
00000000
00000000
00000000
00000000
00100000
00000000
00000000
00010000
00000000
00000000
,
01000000
00000000
00010000
00000000
01000000
00000000
00100000
00000000
01000000
00000000
00100000
00000000
10000000
00000000
00100000
00000000
10000000
00000000
00010000
00000000
10000000
00000000
00010000
00000000
01000000
00000000
00000000
00000000
00000000
00000000
01000000
00000000
00000000
00100000
00000000
00000000
00010000
00000000
00000000
00001000
00000000
00000000
00000000
00000000
00000000
00001000
00000000
00000000
,
00010000
00000000
00000100
00001000
00000400
00000000
00000000
00000000
00000310
00000000
00000001
00000000
00001010
00000000
00010000
00001000
,
01000000
00000000
00001000
00000000
00110000
00000000
00100000
00010000
00100000
01000000
00000000
00100000
00001000
00000000
00010000
00000100
,
00001000
00000000
00000100
00000000
00001000
00000000
00000001
00000000
00000100
00000000
00000001
00000000
00001000
00000000
00000000
00000000
00000000
00000000
00000010
00000000
00000000
00001000
00000000
00000000
00000010
00000000
00010000
00000000
00000010
00000000
00010000
00000000
00001000
00000000
00010000
00000000
00001000
00000000
00010000
00000000
00001000
00000000
00100000
00000000
00010000
00000000
00100000
00000000
,
01000000
00000000
10000000
00000000
01000000
00000000
00100000
00000000
00010000
00000000
00100000
00000000
M0004000
00000000
00000000
0M000000
00000000
00000000
00M00000
00000000
00000000
000M0000
00000000
00000000
00000M00
00000000
00000000
000000M0
00000000
00000000
0000000M
00000000
00000000
000000M0
00000000
00000000
00000M00
00000000
00000000
00000000
000M0000
00000000
00000000
00000000
00M00000
00000000
00000000
00000000
,
0M000000
00000000
00000000
00000000
M0000000
00000000
00000000
00000000
0M000000
00000000
00000000
00000000
00M00000
00000000
00000000
000M0000
00000000
00000000
00000M00
00000000
00000000
000000M0
00000000
00000000
0000000M
00000000
00000000
000000M0
00000000
00000000
00000M00
00000000
00000000
000M0000
00000000
00000000
00M00000
00000000
00000000
0M000000
00000000
00000000
M0000000
00000000
00000000
0M000000
00000000
00000000
,
00M00000
000M0000
00000M00
000000M0
0000300M
00000000
000M0000
00000000
0000M000
00000000
00000000
00010000
00001000
00000000
00010000
00001000
,
00010000
00000000
00011000
00000000
00021000
00000000
00000000
00000000
00031000
00000000
00001000
00000000
00011000
00000000
00001000
00010000
,
00000010
00001000
00000010
00000100
00000010
00000001
00000010
00001000
00000100
00000000
00000100
00000000
00011000
00000000
00001000
00100000
,
00010000
01000000
00010000
01000000
00100000
10000000
00100000
10000000
00010000
00000000
00010000
00000000
10010000
00000000
10000000
01000000
,
00100000
00000000
01000000
00000000
00010000
00000000
01000000
00000000
00100000
00000000
01000000
00000000
00000000
00000000
00000000
01000000
10000000
00000000
00100000
00000000
01000000
00000000
00010000
00000000
00100000
00000000
01000000
00000000
00100000
00000000
00010000
00000000
,
01000000
00001000
01000000
00001000
00010000
00000100
00010000
00000100
00001000
00000000
00001000
00000000
00001010
00000000
00001000
00000010
,
00000100
00000010
00000001
00000010
00000100
00000010
00001000
00000001
00001000
00000000
00001000
00000000
00000110
00000000
00000001
00001000
,
00000001
00000010
00000001
00000010
00001000
00010000
00001000
00010000
00001000
00000000
00001000
00000000
00101000
00000000
00100000
00010000
,
01000000
00100000
01000000
10000000
01000000
00010000
00000000
00000000
00010000
01000000
00002000
00000000
00000000
00000000
00000000
00000000
,
00000000
00000000
00020000
00000000
00000000
00000000
00033000
00000000
00001000
00000000
00001000
00000000
00101000
00000000
00001000
00100000
,
00001000
00010000
00100000
00010000
00001000
00010000
00100000
00010000
00001000
00000000
00001000
00000000
00010010
00000000
00010000
00000010
,
00010000
00001000
00000010
00001000
00010000
00001000
00000010
00001000
00010000
00000000
00010000
00000000
01001000
00000000
00001000
01000000
,
00001000
00010000
01000000
00010000
00001000
00010000
01000000
00010000
00001000
00000100
00000001
00000100
00001000
00000100
00000001
00000100
,
00000010
00001000
00000010
00010000
00000010
00001000
00000010
00010000
00001000
00010000
01000000
00010000
00001000
00010000
01000000
00010000
,
00001000
01000000
00100000
01000000
00001000
01000000
00100000
01000000
00001000
00100000
01000000
00100000
00001000
00100000
01000000
00100000
,
00010000
01000000
00100000
01000000
00010000
01000000
00100000
01000000
00010000
10000000
00001000
10000000
00010000
10000000
00001000
10000000
,
00010000
00100000
10000000
00100000
00010000
00100000
10000000
00100000
00010000
00000000
00010000
10000000
00000000
10000000
00001000
00000000
,
00010000
00010000
00020000
00000000
MMM3MMMM
00000000
00000000
00000000
00000000
00000000
00000000
00000000
00000000
00000000
00000000
00000000
;

//---------------dance-double - P. Shanklin----------------
#NOTES:
     dance-double:
     P. Shanklin:
     Medium:
     6:
     0.408,0.399,0.169,0.096,0.060:
00000000
00000000
00000000
00000000
,
00000000
00000000
00000000
00000000
00000M00
0000M000
000MMMMM
0000M000
00000M00
00000000
00000000
00000000
00000000
00000000
00000000
00000000
,
00000000
00000000
00000M00
0000M000
000MMMMM
0000M000
00000M00
00000000
00000000
00000000
00000000
00000000
00000000
00000000
00000000
00000000
,
00000000
00000000
00000000
00000000
00000M00
0000M000
000MMMMM
0000M000
10000M00
00000000
10000000
00000000
01000000
00000000
00000000
00000000
,
00100000
00100000
00010000
00000000
01000000
01000000
00010000
00000000
,
01000000
01000000
00001000
00010000
00001000
00001000
00010000
00000000
,
00000100
00000100
00001000
00000000
00001000
00000010
00001000
00000010
,
00000100
00000001
00000100
00001000
00010000
00010000
00001000
00000000
,
00010000
00010000
00000010
00000000
00001000
00001000
00000010
00000000
,
00001000
00001000
00000001
00000010
00000100
00000100
00001000
00000000
,
00000001
00000001
00000100
00000000
00000010
00000010
00000100
00000010
,
00010000
00001000
00011000
MMM00MMM
00010000
00001000
01000000
00010000
,
10000000
01000000
00010000
01000000
10000000
00010000
01000000
00100000
,
10000000
00100000
00010000
00001000
00010000
00000100
00010000
00001000
,
00000010
00000001
00000100
00000010
00010000
00001000
01000000
00010000
,
00100000
00001000
00010000
00000100
00000100
00001000
00000010
00001000
,
00000100
00000010
00000001
00000100
00001000
00010000
00001000
01000000
,
00010000
01000000
10000000
01000000
00010000
01000000
00100000
10000000
,
01000000
00010000
00001000
00000010
00001000
00010000
00000010
00010000
,
00001000
00010000
00001000
01000000
00002000
00000000
00000000
00000000
01003000
00000000
00000000
00000000
01010000
00000000
00000000
00000000
,
10000000
11000000
00010000
00110000
,
00001000
00011000
00000100
00001100
,
0000MM00
00000101
00000M0M
00002001
,
00000010
00000000
00000000
00003000
00001010
00000000
00000000
00000000
00010000
00000000
00000000
00000000
00011000
00000000
00000000
00000000
,
00100000
00101000
00010000
10010000
,
01000000
10010000
00001000
00011000
,
00000100
00000000
00000000
00000000
00000000
00000000
00001010
00000000
00000000
00000000
00000000
00000000
00000001
00000000
00000001
00000000
00000001
00000000
00000020
00000000
00000000
00000031
00000000
00000000
,
00000100
00000000
00000100
00000000
00000100
00000000
00000020
00000000
00000000
0000MM0M
00000000
00000000
00000130
00000000
00000000
00000010
00000000
00000000
00001000
00000000
00000000
00000100
00000000
00000000
,
00010000
00010000
00002000
00000000
00013000
00001000
01000000
00001000
,
00010000
00001000
00100000
00010000
01000000
00100000
01000000
00010000
,
10000000
01000000
00200000
00000000
00310000
00010000
10000000
00000000
,
10000000
10000000
00010000
01000000
00001000
00010000
00000100
00001000
,
00000010
00000010
00010000
00001000
00100000
00010000
00100000
01000000
,
00010000
00001000
M000020M
M000000M
M000000M
M000000M
M000000M
M000000M
,
M000000M
M000000M
M000000M
M000000M
M000000M
M000000M
M000000M
M000000M
,
M000000M
00000000
M000000M
00000000
M000030M
00000000
0MM00000
00000000
000MM000
00000000
00000000
00000100
00000001
00000000
00000001
00000000
,
00001001
00001001
00002100
MMMM00MM
00003100
00001000
00000010
00010000
,
00001000
01000000
00010000
00100000
01000000
10000000
01000000
00100000
,
00001000
00010000
00000100
00000010
00000001
00000010
00000100
00001000
,
00000010
00000100
00000010
00000000
00000010
00001000
00000001
00000010
,
00001000
00010000
00001000
00000100
00000010
00000100
00000001
00000100
,
00000010
00010000
00001000
01000000
00100000
10000000
00100000
01000000
,
00001000
00010000
00001000
00010000
00000100
00001000
00000100
00000010
,
00000100
00001000
00000010
00000100
00000001
00002000
00000000
00000000
,
00000000
00003002
00000000
00000000
00001003
00000001
00000010
00000001
,
00000100
00001000
00010000
00100000
10000000
00100000
10000000
00010000
,
10000000
01000000
00010000
01000000
00100000
00010000
00100000
00001000
,
00010000
00001000
00000100
00001000
00010000
00000100
00010000
00001000
,
01000000
00100000
01000000
10000000
01000000
00010000
10000000
01000000
,
00010000
00001000
00000010
00000001
00000100
00000001
00000010
00000100
,
00001000
00000001
00000100
00001000
00010000
00001000
00100000
00001000
,
00010000
00000000
00001000
00000000
00000100
00000000
00000001
00000000
00000101
00000000
00000000
00001001
00000000
00000000
00001100
00000000
,
00010000
00000200
00020000
00000000
MMM3M3MM
00000000
00000000
00000000
00000000
00000000
00000000
00000000
00000000
00000000
00000000
00000000
;

//---------------dance-double - P. Shanklin----------------
#NOTES:
     dance-double:
     P. Shanklin:
     Easy:
     2:
     0.140,0.146,0.024,0.016,0.000:
00000000
00000000
00000000
00000000
,
00000000
00000000
00000000
00000000
,
00000000
00000000
00000000
00000000
,
00000000
00000000
10000000
00000000
,
10000000
00000000
01000000
00000000
,
00100000
00100000
00010000
00000000
,
00010000
00000000
01000000
00000000
,
00010000
01000000
00001000
00000000
,
00001000
00000000
00010000
00000000
,
00001000
00010000
00000010
00000000
,
00000010
00000000
00001000
00000001
,
00001000
00000001
00001000
00000000
,
00000100
00000000
00010000
00000000
,
00001000
00000000
01000000
00000000
,
00010000
00000000
00100000
00000000
,
01000000
01000000
00100000
00000000
,
00010000
00000000
10000000
00000000
,
00100000
00000000
01000000
00000000
,
00010000
00000000
00100000
00000000
,
00001000
00001000
00010000
00001000
,
00000000
00010000
00000000
00000100
,
00000000
00001000
00000000
00000001
,
00000000
00001000
00000000
00000001
,
00000000
00000100
00000010
00001000
,
00000000
00000001
00000000
00001000
,
00000000
00000100
00000000
00010000
,
00000000
00001000
00000000
00100000
,
00000000
00010000
00010000
01000000
,
00010000
00000000
10000000
01000000
,
10000000
00000000
00100000
10000000
,
00100000
00000000
10000000
00010000
,
00100000
00010000
00100000
00001000
,
00010000
00000000
00001000
00010000
,
00000100
00002000
00000000
00000000
,
00000000
00000000
00000000
00000000
,
00000000
00003000
00000000
00000000
,
00000001
00000002
00001003
00000000
,
00000010
00000000
00000100
00000000
,
00000010
00000010
00001000
00000000
,
00000100
00000000
00010000
00000000
,
00001000
00001000
00100000
00000000
,
00010000
00000000
01000000
00000000
,
00010000
01000000
00100000
00000000
,
10000000
00000000
10100000
00000000
,
10010000
00000000
10000000
00000000
,
01000000
01000000
10000000
00000000
,
00010000
00010000
01000000
00000000
,
00001000
00001000
00010000
00000000
,
00000100
00000000
00010000
00000000
,
00001000
00000000
00010000
00000000
,
00000010
00000000
00001000
00000000
,
00000001
00000000
00001000
00000000
,
00001001
00000000
00000000
00000000
;
