#TITLE:Strange Comfort;
#SUBTITLE:;
#ARTIST:Petrified Productions feat. Bit Shifter;
#TITLETRANSLIT:;
#SUBTITLETRANSLIT:;
#ARTISTTRANSLIT:;
#GENRE:;
#CREDIT:Fraxtil;
#BANNER:bn.png;
#BACKGROUND:bg.png;
#LYRICSPATH:;
#CDTITLE:;
#MUSIC:Strange Comfort.ogg;
#OFFSET:0.009;
#SAMPLESTART:48.026;
#SAMPLELENGTH:16.009;
#SELECTABLE:YES;
#BPMS:0.000=119.930
;
#STOPS:
;
#BGCHANGES:;
#KEYSOUNDS:;
#ATTACKS:;

//---------------dance-single - ----------------
#NOTES:
     dance-single:
     Fraxtil:
     Challenge:
     11:
     0.851,0.856,0.036,0.587,1.000,736.000,5.000,81.000,39.000,0.000,0.000,0.851,0.856,0.036,0.587,1.000,736.000,5.000,81.000,39.000,0.000,0.000: // measure 0
0000
0000
0000
0000
,  // measure 1
0000
0000
0000
0000
,  // measure 2
0000
0000
0000
0000
,  // measure 3
0000
0000
0000
0000
,  // measure 4
M002
0M00
M000
0M00
M023
0M00
M000
0M00
M000
0000
0000
0000
0031
0000
0010
0000
0100
0000
0010
0000
0001
0000
0100
0000
M010
0000
0000
0000
1000
0000
0010
0000
,  // measure 5
0100
0010
1000
0001
0M10
0000
0001
1000
0100
1000
001M
0000
001M
0000
0100
0001
,  // measure 6
1000
0100
0010
0100
10M0
0000
0001
0010
0001
0100
0010
1000
010M
0000
1000
0001
,  // measure 7
0200
0000
0000
0000
0020
0000
0000
0000
M000
0000
0000
0000
0000
0000
0330
0000
21MM
0000
0000
0000
0002
0000
0000
0000
0000
0000
0000
0000
3000
0003
1000
0001
,  // measure 8
1000
0000
0020
0000
0130
1000
0100
0000
0001
0000
0010
0100
0000
0010
0100
1000
,  // measure 9
0001
0000
0200
0000
0310
0001
0010
0100
0001
0000
1000
0010
0000
0000
0010
0100
,  // measure 10
0001
0000
0020
0000
0130
0001
0100
0000
1000
0000
0001
0010
0000
0001
0010
0100
,  // measure 11
1000
0000
0002
0000
0013
1000
0010
0100
1000
0000
0001
0100
0000
0000
0100
0010
,  // measure 12
2000
0000
3020
0000
0000
0031
0010
0000
1000
0000
0010
0100
0000
0010
0100
0001
,  // measure 13
2000
0000
3200
0000
0000
0301
0100
0010
0002
0000
2003
0010
0000
3000
1000
0001
,  // measure 14
0200
0000
0320
0000
0000
0031
0010
0000
1000
0000
0100
0010
0000
0100
0010
0001
,  // measure 15
1000
0000
002M
0000
0M00
0031
0010
0100
M000
0000
00M1
0100
M000
0000
010M
0010
,  // measure 16
0000
0000
1000
0100
1000
0000
0010
0000
0100
0000
0001
0000
1000
0000
0100
0010
0100
0000
0000
0000
1000
0010
1000
0000
0001
0000
0100
0000
0010
0000
0100
0000
,  // measure 17
0000
0000
0001
0010
0001
0000
1000
0000
0010
0000
0100
0000
0010
0000
1000
0100
1000
0000
0000
0000
0001
0100
0001
0000
1000
0000
0100
0000
0010
0000
0001
0000
,  // measure 18
0000
0000
1000
0001
1000
0000
0010
0000
0100
0000
0010
0000
1000
0000
0100
1000
0100
0000
0000
0000
0010
0001
0010
0000
0100
0000
1000
0000
0010
0000
0100
0000
,  // measure 19
0000
0000
0001
0100
0001
0000
1000
0000
0100
0000
1000
0000
0001
0000
0100
0010
0100
0000
0000
0000
0010
1000
0010
0000
0100
0000
0001
0000
1000
0000
0100
0000
,  // measure 20
0010
0000
0001
0010
0001
0000
0100
0000
0010
0000
1000
0000
0001
0000
0010
0100
0010
0000
0000
0000
0001
0100
0001
0000
1000
0000
0010
0000
0100
0000
0010
0000
,  // measure 21
0000
0000
1000
0100
1000
0000
0001
0000
0100
0000
0010
0000
0100
0000
0001
0010
0001
0000
0000
0000
1000
0010
1000
0000
0001
0000
0010
0000
0100
0000
1000
0000
,  // measure 22
0000
0000
0001
1000
0001
0000
0100
0000
0010
0000
0100
0000
0001
0000
0010
0001
0010
0000
0000
0000
0100
1000
0100
0000
0010
0000
0001
0000
0100
0000
0010
0000
,  // measure 23
0000
0000
1000
0010
1000
0000
0001
0000
0010
0000
0001
0000
1000
0000
0010
0100
0010
0000
0000
0000
0100
0001
0100
0000
0010
0000
1000
0000
0001
0000
0001
0000
,  // measure 24
0100
0000
0020
0000
0130
1000
0100
0010
1000
0000
0100
0010
0000
0010
1000
0010
,  // measure 25
0100
0000
2000
0000
3000
2000
3000
0000
0001
0000
0100
0010
0000
0000
0010
1000
,  // measure 26
0100
0000
0020
0000
0130
0001
0100
0000
0010
0000
0001
1000
0000
0001
1000
0001
,  // measure 27
0100
0000
0020
0000
0030
0020
0030
0000
1000
0001
0000
1000
0001
0000
0001
0100
,  // measure 28
0010
0000
0200
0000
0310
0001
0010
0100
0001
0000
0010
0100
0000
0100
0001
0100
,  // measure 29
0010
0000
0002
0000
0003
0002
0003
0000
1000
0000
0010
0100
0000
0000
0100
0001
,  // measure 30
0010
0000
0200
0000
0310
1000
0010
0000
0100
0000
1000
0001
0000
1000
0001
0100
,  // measure 31
0010
0000
0000
0000
0200
0000
0000
0000
0300
0000
0200
0000
0300
0000
0000
0000
0001
0000
0010
0000
0000
0000
0001
0000
0100
M0M0
0100
0000
1000
0000
0001
0000
,  // measure 32
2000
0000
3020
0230
0001
0000
0320
0000
,  // measure 33
2030
0000
3002
0023
0100
0001
0032
0000
,  // measure 34
2003
0000
0000
0000
3020
0000
0230
0000
0010
0000
000M
00M0
M302
0000
0023
0000
,  // measure 35
0032
0000
0000
0000
2003
0000
3020
0000
0130
0001
0000
0100
0001
0000
0001
1000
,  // measure 36
0100
0000
0020
0000
0130
0001
0100
0010
0001
0000
1000
0010
0000
0010
0001
0010
,  // measure 37
0100
0000
0002
0000
0003
0002
0003
0000
1000
0000
0001
0100
0000
0000
0100
0010
,  // measure 38
1000
0000
0200
0000
0310
1000
0010
0000
0100
0000
1000
0010
0000
1000
0010
0100
,  // measure 39
0001
0000
0000
0000
0020
0000
0000
0000
0030
0000
0020
0000
0030
0000
0000
0000
2001
0000
0000
0000
0000
0000
3001
0000
0100
M0M0
0100
0000
1000
0000
0001
0000
,  // measure 40
0100
0010
0100
0001
0010
0100
1000
0010
0100
0001
0010
0100
1000
0010
0100
0001
,  // measure 41
0010
0001
0100
0010
1000
0100
0010
0001
0100
0010
0100
1000
0100
0001
0010
0001
,  // measure 42
0001
0100
0010
1000
0100
0010
0001
0100
0010
1000
0100
0010
0001
0100
0010
1000
,  // measure 43
1000
0001
0010
0100
1000
0001
0010
0100
0010
1000
0010
0001
1000
0010
0100
0001
,  // measure 44
1000
0010
1000
0001
0010
0001
1000
0010
1000
0001
0010
0001
1000
0010
1000
0001
,  // measure 45
0010
0100
1000
0010
1000
0001
0010
0001
0010
0100
0010
1000
0010
0001
0100
0010
,  // measure 46
1000
0100
1000
0001
0100
0001
1000
0100
1000
0001
0100
0001
1000
0100
1000
0001
,  // measure 47
0001
0010
0001
0100
0001
1000
0100
0010
0100
0001
0100
0010
0001
0100
0010
1000
,  // measure 48
0001
0000
0020
0000
0030
0010
0001
0100
0000
0010
0001
0010
0000
0100
0010
0100
,  // measure 49
0001
0000
1000
0010
0000
1000
0010
0100
0001
0100
2000
3000
0100
2000
3100
0000
,  // measure 50
0001
0000
0020
0000
0130
1000
0002
0000
0103
0000
0010
1000
0000
0000
1000
0001
,  // measure 51
0010
0000
0200
0000
0300
0100
0010
1000
0000
0110
0000
1000
0100
0000
0010
0001
,  // measure 52
0100
0000
0020
0000
0030
0100
0010
1000
0100
0000
0001
0100
0000
0010
0100
0010
,  // measure 53
0001
0000
0001
0000
0100
0000
0010
1000
0000
0100
0002
0003
0100
0002
0103
0000
,  // measure 54
1000
0000
0020
0000
0130
0001
2000
0000
3100
0000
0010
0001
0000
0000
1000
0010
,  // measure 55
0100
0000
0000
0000
0001
0000
0010
0000
0000
0000
1000
0000
0010
0000
0100
0000
2000
0000
0000
0000
0000
0000
3001
0000
0100
M0M0
0100
0000
1000
0000
0001
0000
,  // measure 56
0100
0000
0020
0000
0130
1000
0100
0000
0001
0000
0010
0100
0000
0010
0100
1000
,  // measure 57
0001
0000
0200
0000
0310
0001
0010
0100
0001
0000
1000
0010
0000
0000
0010
0100
,  // measure 58
0001
0000
0020
0000
0130
0001
0100
0000
1000
0000
0001
0010
0000
0001
0010
0100
,  // measure 59
1000
0000
0200
0000
0310
1000
0010
0100
1000
0000
0001
1000
0000
0000
1000
0010
,  // measure 60
1000
0000
0200
0000
0300
0100
1000
0010
0000
0100
1000
0100
0000
0010
0100
0010
,  // measure 61
1000
0000
0001
0100
0000
0001
0100
0010
1000
0010
0002
0003
0010
0002
0013
0000
,  // measure 62
1000
0000
0200
0000
0310
0001
2000
0000
3010
0000
0100
0001
0000
0000
0001
1000
,  // measure 63
0100
0000
0020
0000
0030
0010
0100
0001
0000
0110
0000
1000
0010
0000
0100
0001
,  // measure 64
1000
0000
0200
0000
0300
0100
1000
0001
0100
0000
1000
0100
0000
0000
0100
0010
,  // measure 65
1000
0000
0001
0100
0000
0001
0100
0010
1000
0100
0002
0003
0100
0002
0103
0000
,  // measure 66
2001
0000
0000
0000
0020
0000
0000
0000
0000
0000
0000
0000
0000
0000
0000
3000
M000
0000
0000
0030
00M0
0000
0000
0000
0000
0000
0000
0000
0000
0000
0000
0000
,  // measure 67
000M
0000
0000
0000
0000
000M
0000
0000
0000
0000
000M
0000
0000
0000
0000
000M
0000
0000
0000
0000
0000
0000
0000
0000
0000
0000
0000
0000
0000
0000
0000
0000
;

//---------------dance-single - ----------------
#NOTES:
     dance-single:
     Fraxtil:
     Hard:
     9:
     0.587,0.530,0.000,0.688,0.351,472.000,0.000,95.000,0.000,0.000,0.000,0.587,0.530,0.000,0.688,0.351,472.000,0.000,95.000,0.000,0.000,0.000:
0000
0000
0000
0000
,
0000
0000
0000
0000
,
0000
0000
0000
0000
,
0000
0000
0000
0000
,
2000
0000
3020
0000
0000
0000
0000
0000
0130
0000
0000
0100
0000
0000
0000
0000
,
0002
0023
0000
0000
0230
2300
0000
0000
,
3002
0000
0203
0000
0000
0000
0000
0000
0310
0000
0000
0010
0000
0000
0000
0000
,
2000
3002
0000
0000
0023
0230
0000
0000
,
1300
0001
1000
0010
0100
0001
0010
0001
,
1000
0100
1000
0001
0100
0001
0010
0100
,
1000
0010
0100
0010
1000
0100
0010
0001
,
1000
0100
0010
0100
1000
0010
0100
0001
,
0020
0230
0000
0000
1300
0010
0100
0001
,
0020
0032
0000
0000
0203
0320
0000
0000
,
2030
3200
0000
0000
0310
0100
1000
0010
,
0100
0001
0001
1000
0001
0001
0010
0010
,
0100
1000
0100
0000
0010
0000
0001
1000
0000
1000
0001
0000
0100
0000
0010
1000
,
0001
1000
0100
0000
0010
0000
0001
0100
0000
0100
0001
0000
0010
0000
0100
1000
,
0100
0010
0100
0000
1000
0000
0010
0100
0000
0100
0010
0000
1000
0000
0001
0010
,
0001
1000
0010
0000
0100
0000
0001
0010
0000
0010
0001
0000
1000
0000
0010
0100
,
0010
1000
0010
0000
0100
0000
0001
1000
0000
1000
0001
0000
0010
0000
0100
1000
,
0001
1000
0010
0000
0100
0000
0001
0010
0000
0010
0001
0000
0100
0000
0010
1000
,
0010
0100
0010
0000
1000
0000
0100
0010
0000
0010
0100
0000
1000
0000
0001
0100
,
0001
1000
0100
0000
0010
0000
0001
0100
0000
0100
0001
0000
1000
0000
0100
0010
,
0200
2300
0000
0000
3010
0100
0001
0010
,
0002
0203
0000
0000
0320
2030
0000
0000
,
3200
0320
0000
0000
0031
0010
0100
1000
,
0010
0000
0100
0000
0010
0000
1000
0000
0100
0010
0000
0100
0010
0000
0001
1000
,
0002
0203
0000
0000
0310
1000
0100
0010
,
0200
2300
0000
0000
3020
0230
0000
0000
,
0302
0023
0000
0000
0130
0010
0001
1000
,
0010
0000
0100
0000
0001
0000
0010
0000
0100
1000
0000
1000
0001
0100
0001
0100
,
0020
0000
2030
3200
0000
0000
0320
0000
,
0230
0000
0320
0032
0000
0000
2003
0000
,
3020
0000
2030
3200
0000
0000
0320
0032
,
0203
0000
0320
2030
0000
0000
3002
0000
,
0023
0000
0032
0203
0000
0000
0320
0000
,
2030
0000
3020
0230
0000
0000
0302
0023
,
0130
1000
0001
0100
0010
0100
0001
1000
,
0100
0000
0010
0000
0001
0000
0100
0000
0010
0000
0000
1000
0001
1000
0001
1000
,
0100
0010
0000
0100
0010
0000
0001
0010
0000
0001
0010
0000
0001
1000
0000
0001
,
1000
0000
0010
1000
0000
0010
1000
0000
0010
0100
0001
1000
0000
0100
0010
0000
,
0001
0100
0000
0001
0100
0000
0010
1000
0000
0010
1000
0000
0100
1000
0000
0100
,
0010
0000
0100
0010
0000
0001
0100
0000
0010
1000
0100
0010
0000
0100
1000
0000
,
0010
0100
0000
0010
0100
0000
0001
0100
0000
0001
0100
0000
0001
1000
0000
0001
,
1000
0000
0100
1000
0000
0100
1000
0000
0100
0010
0001
1000
0000
0010
0100
0000
,
0001
0010
0000
0001
0010
0000
0100
1000
0000
0100
1000
0000
0010
1000
0000
0010
,
0100
0000
0010
0100
0000
0001
0010
0000
0100
1000
0010
0100
0000
0010
1000
0000
,
0002
0023
0000
0230
2300
0000
3000
0020
,
0230
0000
0302
2003
0000
0000
3000
0200
,
0320
0000
0032
0203
0000
0300
0000
0020
,
2030
0000
0000
0000
3200
0000
0320
0000
0031
1000
0000
0001
1000
0000
0010
1000
,
0020
0000
0230
0302
0000
0000
0023
0000
,
0230
0000
0320
0032
0000
0000
2003
3020
,
0130
0001
1000
0001
0010
0100
1000
0010
,
1000
0000
0100
0000
0010
0000
0001
0000
0100
0000
0000
0001
1000
0001
1000
0001
,
1000
0100
0010
0001
0100
0010
1000
0100
,
1000
0010
0100
0001
0010
0100
1000
0001
,
0100
0001
0010
0100
0010
0001
1000
0010
,
0100
0010
1000
0100
0010
0001
1000
0001
,
0100
0010
1000
0100
1000
0010
0100
0001
,
0010
0001
1000
0100
1000
0010
0100
0001
,
0010
0100
0010
0001
1000
0100
1000
0001
,
0100
0000
0010
0000
1000
0000
0010
0000
1000
0100
0000
1000
0100
0000
0010
0001
,
2000
3020
0000
0000
0130
0001
1000
0100
,
0020
0230
0000
0000
2300
3002
0000
0000
,
0203
0320
0000
0000
0030
0000
0000
0000
;

//---------------dance-single - ----------------
#NOTES:
     dance-single:
     Fraxtil:
     Medium:
     5:
     0.363,0.337,0.188,0.362,0.000,275.000,26.000,50.000,0.000,0.000,0.000,0.363,0.337,0.188,0.362,0.000,275.000,26.000,50.000,0.000,0.000,0.000:
0000
0000
0000
0000
,
0000
0000
0000
0000
,
0000
0000
0000
0000
,
0000
0000
0000
0000
,
1000
0020
0000
0000
0030
0000
0000
0000
,
1000
0020
0000
0000
0130
0002
0000
0000
,
0013
0200
0000
0000
0300
0000
0000
0000
,
1000
0002
0000
0000
0103
0020
0000
0000
,
1030
0100
0010
0001
,
0100
0001
1000
0010
,
0100
0001
0010
0100
,
1000
0010
0100
0001
,
1000
0200
0000
0000
0310
0000
0001
0000
,
1000
0200
0000
0000
1300
0020
0000
0000
,
0130
0002
0000
0000
0013
0000
0100
0000
,
0010
0001
0010
0000
0100
1000
0100
1000
,
0001
0101
0001
1001
,
1000
0000
1010
0000
1000
0100
1100
0000
,
0100
0110
0100
1100
,
0010
0000
0110
0000
1000
0001
1000
0001
,
1000
1100
1000
1001
,
0001
0000
0011
0000
0001
0100
0101
0000
,
0100
0110
0100
0101
,
0010
0000
0110
0000
0001
0000
1000
0010
,
0100
0002
0000
0000
0013
0000
0001
0000
,
0100
0002
0000
0000
1003
0020
0000
0000
,
1030
0200
0000
0000
0310
0000
0100
0000
,
1000
0000
0001
0000
0100
0010
0100
0010
,
1000
0200
0000
0000
0310
0000
0100
0000
,
1000
0200
0000
0000
0310
0002
0000
0000
,
0103
0020
0000
0000
1030
0000
0001
0000
,
0010
0000
0100
0000
1000
0010
1000
0010
,
2000
0000
3100
0020
0000
0000
0032
0000
,
0203
0000
0310
2000
0000
0000
3020
0000
,
0230
0000
0301
2000
0000
0000
3100
0010
,
0002
0000
0013
0200
0000
0000
2300
0000
,
3002
0000
0103
0020
0000
0000
2030
0000
,
3200
0000
0310
0002
0000
0000
1003
0100
,
1000
0010
0100
0001
,
0010
0000
0100
0000
1000
0000
0001
1000
,
0100
0110
0010
0011
,
1000
0000
1010
0000
0001
0010
0001
0010
,
0100
1100
0010
0110
,
0001
0000
0101
0000
1000
0010
1000
0010
,
0100
0101
0001
0011
,
1000
0000
1100
0000
0100
0010
0100
0010
,
0001
1001
0100
0110
,
0010
0000
0011
0000
1000
0001
1000
0001
,
1000
0200
0000
0310
0002
0000
0003
0100
,
0020
0000
1030
0002
0000
0000
0003
0010
,
0200
0000
1300
0020
0000
0030
0000
0100
,
0002
0000
0013
0100
1000
0001
1000
0001
,
0200
0000
0310
2000
0000
0000
3200
0000
,
0320
0000
0130
2000
0000
0000
3001
0100
,
0010
1000
0100
0010
,
0001
0000
0100
0000
0001
0000
0010
0100
,
0010
0001
0100
0010
,
0100
0001
1000
0010
,
0100
0001
0010
0100
,
1000
0010
0100
0001
,
1000
0100
0010
0001
,
1000
0010
0100
0010
,
1000
0100
0010
0001
,
0100
0010
1000
0100
,
1000
0020
0000
0000
0130
0000
0001
0000
,
1000
0020
0000
0000
0130
0002
0000
0000
,
0013
0200
0000
0000
0300
0000
0000
0000
;

//---------------dance-single - ----------------
#NOTES:
     dance-single:
     Fraxtil:
     Easy:
     3:
     0.251,0.240,0.000,0.000,0.000,242.000,0.000,0.000,0.000,0.000,0.000,0.251,0.240,0.000,0.000,0.000,242.000,0.000,0.000,0.000,0.000,0.000:
0000
0000
0000
0000
,
0000
0000
0000
0000
,
0000
0000
0000
0000
,
0000
0000
0000
0000
,
1000
0010
0000
0000
0000
0000
0000
0000
,
1000
0010
0000
0000
0100
0001
0000
0000
,
0010
0100
0000
0000
0000
0000
0000
0000
,
1000
0001
0000
0000
0100
0010
0000
0000
,
1000
0100
0010
0001
,
1000
0100
0010
0001
,
0100
0010
1000
0001
,
0100
0010
1000
0001
,
1000
0100
0000
0000
0000
0000
0000
0000
,
0010
0001
0000
0000
0100
0010
0000
0000
,
1000
0100
0000
0000
0000
0000
0000
0000
,
0010
0001
0100
0100
,
0001
0010
0001
0010
,
0100
0000
1000
0000
0100
1000
0100
0000
,
0010
0100
0010
0100
,
1000
0000
0001
0000
1000
0001
1000
0001
,
0100
0010
0100
0010
,
1000
0000
0100
0000
1000
0100
1000
0000
,
0001
0100
0001
0100
,
0010
0000
1000
0000
0010
0000
1000
0001
,
0100
0010
0000
0000
0000
0000
0000
0000
,
0100
0010
0000
0000
1000
0100
0000
0000
,
0010
0001
0000
0000
0000
0000
0000
0000
,
1000
0001
0100
0100
,
0010
1000
0000
0000
0000
0000
0000
0000
,
0010
1000
0000
0000
0100
0010
0000
0000
,
0001
0100
0000
0000
0000
0000
0000
0000
,
0001
0010
0100
0100
,
1000
0000
0100
1000
0000
0000
0001
0000
,
0100
0000
0001
0100
0000
0000
0010
0000
,
0100
0000
0010
0100
0000
0000
0010
1000
,
0010
0000
1000
0001
0000
0000
1000
0000
,
0100
0000
0010
0100
0000
0000
0010
0000
,
0001
0000
0100
0001
0000
0000
1000
0001
,
1000
0010
0100
0001
,
1000
0010
0100
0001
,
1000
1000
0010
0010
,
0100
0100
0001
0001
,
0010
0010
0100
0100
,
0010
0000
0010
0000
0001
1000
0001
0000
,
0100
0100
0010
0010
,
1000
1000
0001
0001
,
0010
0010
0001
0001
,
1000
0000
1000
0000
0100
1000
0100
0000
,
1000
0100
0000
0010
0001
0000
0000
0100
,
0010
0000
1000
0001
0000
0000
0000
0010
,
0100
0000
1000
0100
0000
0000
0000
0010
,
0001
0000
0010
0100
0000
0000
0000
0000
,
1000
0000
0010
1000
0000
0000
0100
0000
,
0010
0000
0100
1000
0000
0000
0001
0100
,
0001
1000
0100
0010
,
0001
1000
0100
0010
,
0100
1000
0001
0010
,
0100
1000
0001
0010
,
0001
0100
0010
1000
,
0001
0100
0010
1000
,
0001
0010
0001
0010
,
0100
1000
0100
1000
,
0010
1000
0010
1000
,
0001
0100
0001
0100
,
0010
0100
0000
0000
0000
0000
0000
0000
,
0010
0100
0000
0000
0001
1000
0000
0000
,
0100
0010
0000
0000
0000
0000
0000
0000
;

//---------------dance-single - ----------------
#NOTES:
     dance-single:
     Fraxtil:
     Beginner:
     1:
     0.073,0.072,0.000,0.000,0.000,71.000,0.000,0.000,0.000,0.000,0.000,0.073,0.072,0.000,0.000,0.000,71.000,0.000,0.000,0.000,0.000,0.000:
0000
0000
0000
0000
,
0000
0000
0000
0000
,
0000
0000
0000
0000
,
0000
0000
0000
0000
,
1000
0000
0000
0000
,
0010
0000
0000
0000
,
0100
0000
0000
0000
,
0001
0000
0001
0000
,
0010
0000
0000
0000
,
0100
0000
0000
0000
,
1000
0000
0000
0000
,
0010
0000
0000
0000
,
0100
0000
0000
0000
,
0010
0000
0000
0000
,
1000
0000
0000
0000
,
0001
0000
0001
0000
,
1000
0000
0000
0000
,
0100
0000
0000
0000
,
1000
0000
0000
0000
,
0010
0000
0000
0000
,
0100
0000
0000
0000
,
0001
0000
0000
0000
,
0010
0000
0000
0000
,
0001
0000
0001
0000
,
0100
0000
0000
0000
,
0010
0000
0000
0000
,
1000
0000
0000
0000
,
0100
0000
0000
0000
,
0010
0000
0000
0000
,
0100
0000
0000
0000
,
1000
0000
0000
0000
,
0010
0000
0010
0000
,
0100
0000
0000
0000
,
0001
0000
0000
0000
,
1000
0000
0000
0000
,
0100
0000
0000
0000
,
0010
0000
0000
0000
,
0100
0000
0000
0000
,
1000
0000
0000
0000
,
0001
0000
0001
0000
,
0100
0000
0000
0000
,
0010
0000
0000
0000
,
1000
0000
0000
0000
,
0100
0000
0000
0000
,
0010
0000
0000
0000
,
0100
0000
0000
0000
,
1000
0000
0000
0000
,
0001
0000
0001
0000
,
0100
0000
0000
0000
,
0010
0000
0000
0000
,
1000
0000
0000
0000
,
0100
0000
0000
0000
,
0010
0000
0000
0000
,
0100
0000
0000
0000
,
1000
0000
0000
0000
,
0001
0000
0001
0000
,
0100
0000
0000
0000
,
0010
0000
0000
0000
,
1000
0000
0000
0000
,
0100
0000
0000
0000
,
0010
0000
0000
0000
,
0100
0000
0000
0000
,
1000
0000
0000
0000
,
0010
0000
0010
0000
,
0100
0000
0000
0000
,
0001
0000
0000
0000
,
1000
0000
0000
0000
;
