#TITLE:Smoke Rings;
#SUBTITLE:(Original Mix);
#ARTIST:Udachi & Jubilee;
#TITLETRANSLIT:;
#SUBTITLETRANSLIT:;
#ARTISTTRANSLIT:;
#GENRE:;
#CREDIT:;
#BANNER:Smoke Rings (Original Mix)-bn.png;
#BACKGROUND:Smoke Rings (Original Mix)-bg.png;
#LYRICSPATH:;
#CDTITLE:GazeboCD.png;
#MUSIC:Smoke Rings (Original Mix).ogg;
#OFFSET:1.727;
#SAMPLESTART:104.426;
#SAMPLELENGTH:29.750;
#LASTBEATHINT:1.549;
#SELECTABLE:YES;
#DISPLAYBPM:130.000;
#BPMS:0.000=130.000
,37.000=193.837
,38.000=130.000
,73.500=193.837
,74.000=130.000
,77.000=175.676
,78.000=130.000
,81.500=193.837
,82.000=195.000
,82.750=65.000
,83.000=195.000
,83.750=65.000
,84.000=130.000
,85.000=175.676
,86.000=130.000
,89.500=193.837
,92.000=130.000
,93.000=65.000
,93.250=195.000
,94.000=130.000
,97.500=193.837
,98.500=130.000
,99.000=193.837
,99.500=130.000
,126.000=193.837
,126.500=130.000
,127.000=193.837
,127.500=130.000
,128.000=193.837
,128.500=130.000
,129.000=193.837
,130.000=130.000
,165.000=175.676
,166.000=130.000
,180.000=97.500
,180.250=195.000
,180.500=97.500
,180.750=195.000
,181.000=97.500
,181.250=195.000
,181.500=130.000
,196.000=175.676
,198.000=130.000
,226.000=175.676
,230.000=130.000
,233.500=193.837
,234.000=130.000
,234.500=193.837
,234.750=130.000
,236.000=193.837
,236.250=130.000
,237.500=193.837
,237.750=130.000
,241.500=193.837
,242.000=130.000
,242.500=193.837
,242.750=130.000
,243.250=193.837
,243.500=130.000
,244.000=193.837
,244.250=130.000
,244.750=193.837
,245.000=195.000
,245.750=65.000
,246.000=130.000
,248.500=193.837
,249.000=130.000
,250.500=193.837
,250.750=130.000
,251.500=193.837
,251.750=130.000
,252.000=193.837
,254.000=130.000
,260.000=65.000
,260.250=195.000
,261.000=130.000
,265.500=193.837
,266.000=130.000
,269.000=175.676
,269.750=130.000
,273.500=193.837
,274.000=195.000
,274.750=65.000
,275.000=195.000
,275.750=65.000
,276.000=130.000
,278.000=65.000
,278.125=195.000
,278.875=65.000
,279.125=195.000
,279.875=65.000
,280.125=195.000
,280.875=65.000
,281.125=195.000
,281.875=65.000
,282.000=97.500
,282.250=195.000
,282.750=97.500
,283.250=195.000
,283.750=97.500
,284.250=195.000
,284.750=97.500
,285.250=195.000
,285.750=97.500
,286.000=130.000
,290.000=193.837
,292.000=175.676
,294.000=130.000
;
#STOPS:37.000=0.019,
37.125=0.019,
37.250=0.019,
37.375=0.019,
37.500=0.025,
37.667=0.026,
37.833=0.025,
73.500=0.038,
73.750=0.038,
77.000=0.120,
81.500=0.038,
81.750=0.038,
85.000=0.120,
89.500=0.038,
89.750=0.038,
90.000=0.038,
90.250=0.038,
90.500=0.038,
90.750=0.038,
91.000=0.038,
91.250=0.038,
91.500=0.038,
91.750=0.038,
97.500=0.038,
97.750=0.038,
98.000=0.076,
99.000=0.076,
126.000=0.038,
126.250=0.038,
127.000=0.038,
127.250=0.038,
128.000=0.038,
128.250=0.038,
129.000=0.038,
129.250=0.038,
129.500=0.038,
129.750=0.038,
165.000=0.120,
196.000=0.030,
196.250=0.030,
196.500=0.030,
196.750=0.030,
197.000=0.030,
197.250=0.030,
197.500=0.030,
197.750=0.030,
226.000=0.120,
227.000=0.120,
228.000=0.120,
229.000=0.120,
233.500=0.038,
233.750=0.038,
234.500=0.038,
236.000=0.038,
237.500=0.038,
241.500=0.038,
241.750=0.038,
242.500=0.038,
243.250=0.038,
244.000=0.038,
244.750=0.038,
248.500=0.038,
248.750=0.038,
250.500=0.038,
251.500=0.038,
252.000=0.038,
252.250=0.038,
252.500=0.038,
252.750=0.038,
253.000=0.038,
253.250=0.038,
253.500=0.038,
253.750=0.038,
265.500=0.038,
265.750=0.038,
269.000=0.090,
273.500=0.038,
273.750=0.038,
290.000=0.038,
290.250=0.038,
290.500=0.038,
290.750=0.038,
291.000=0.038,
291.250=0.038,
291.500=0.038,
291.750=0.038,
292.000=0.060,
292.500=0.060,
293.000=0.060,
293.500=0.060
;
#BGCHANGES:;
#KEYSOUNDS:;
#ATTACKS:;

//---------------dance-single - Gazebo----------------
#NOTES:
     dance-single:
     Gazebo:
     Challenge:
     10:
     0.785,0.794,0.173,0.166,0.969,716.000,24.000,23.000,59.000,0.000,9.000,0.785,0.794,0.173,0.166,0.969,716.000,24.000,23.000,59.000,0.000,9.000: // measure 0
0000
0000
0000
0000
,  // measure 1
0000
0000
MM11
1000
,  // measure 2
0001
0001
0100
0100
0010
0010
0100
0100
,  // measure 3
0001
0000
0000
1000
0000
0100
0000
0000
0000
1000
0000
0000
MM11
0000
0000
0000
0000
0000
0001
0000
0000
0001
0000
0000
,  // measure 4
1000
1000
0001
0001
0100
0100
0010
0010
,  // measure 5
2000
0001
3000
0000
M1M1
0000
1000
0000
,  // measure 6
0001
0001
0010
0010
0100
0100
0010
0010
,  // measure 7
0001
1000
0000
1000
M1M1
0000
0001
0001
,  // measure 8
1000
1000
0001
0001
0020
0000
0000
0000
,  // measure 9
0230
0000
0000
0000
0000
0000
0000
0000
0000
0000
0000
0000
0000
0000
0000
0000
0000
0000
0000
0000
0000
0000
0000
0000
0000
0000
0000
0000
0000
0000
0000
0000
0000
0000
0000
0000
0000
0000
0000
0000
0000
0000
0000
0000
0000
0000
0000
0000
1300
0000
0000
0000
0000
0000
0001
0000
0000
0000
0000
0000
1000
0000
0000
0000
0000
0000
0001
0000
0000
0000
0000
0000
1000
0000
0000
0000
0000
0000
0000
0000
0001
0000
0000
0000
0000
0000
0000
0000
1000
0000
0000
0000
0000
0000
0000
0000
0001
0000
0000
0000
0000
0000
0000
0000
0000
0000
0000
0000
0000
0000
0000
0000
0000
0000
0000
0000
0000
0000
0000
0000
0010
0000
0000
0000
0000
0000
0000
0000
0000
0000
0000
0000
0000
0000
0000
0000
0000
0000
0000
0000
0000
0000
0000
0000
0001
0000
0000
0000
0000
0000
0000
0000
0000
0000
0000
0000
0000
0000
0000
0000
0000
0000
0000
0000
0000
0000
0000
0000
0010
0000
0000
0000
0000
0000
0000
0000
0000
0000
0000
0000
0000
0000
0000
0000
0000
0000
0000
0000
0000
0000
0000
0000
,  // measure 10
1100
0000
1000
0000
0001
0000
0001
1000
,  // measure 11
2010
0000
0001
0000
0000
3001
0000
0000
1000
0000
0000
0000
0001
0000
0000
0000
,  // measure 12
0011
0010
0001
0010
0100
0000
0100
0000
,  // measure 13
1002
0100
0003
1001
0000
1000
0010
1000
,  // measure 14
0001
0000
0001
0000
1000
0000
1000
0001
,  // measure 15
0020
0000
0000
0000
0000
0000
0030
0000
0001
0000
0001
0010
0001
0000
0001
1000
,  // measure 16
0001
0000
0001
0100
0001
0000
1000
0100
0010
0000
0001
0100
0010
0000
1000
0100
,  // measure 17
0010
0000
0001
0100
0010
0000
MMMM
0000
1000
0010
1000
0010
1000
0001
1000
0001
,  // measure 18
0010
0100
0010
0100
1000
0001
0010
0010
1000
0001
0100
0001
0000
1000
0010
1000
,  // measure 19
0000
0001
0100
0001
1000
0000
0000
0000
0001
0010
0001
0010
0001
1000
0001
1000
,  // measure 20
0010
0100
0010
0100
0001
1000
0010
0010
0004
0000
0000
0000
0043
0000
0000
0000
,  // measure 21
0031
1000
0100
0100
0001
0000
0000
0000
1000
0010
1000
0010
1000
0001
1000
0001
,  // measure 22
0000
0000
1000
0100
0000
0000
0010
0010
1000
0001
0100
0100
1000
0001
0100
0100
,  // measure 23
0010
0001
0010
0001
0400
0000
0000
0000
0301
1000
0010
1000
0000
0001
0100
0001
,  // measure 24
0000
1000
0010
1000
0000
0001
0010
0010
2000
0000
3100
0000
2000
0000
3001
0000
,  // measure 25
0011
0000
0000
0000
0101
0000
0000
0000
0100
0001
1000
0001
0010
M00M
0010
1000
,  // measure 26
0000
0010
1000
0001
0000
1000
0001
0000
0010
0001
1000
0001
0100
M00M
0100
1000
,  // measure 27
0000
0100
1000
0001
0000
1000
0001
0000
0100
0001
1000
0001
0010
M00M
0010
1000
,  // measure 28
0000
0010
1000
0001
0000
1000
0001
0000
0010
0001
1000
0001
0100
M00M
0100
1000
,  // measure 29
0001
0010
0000
0010
0000
0001
1000
0000
0001
0100
0001
1000
0001
0000
0010
M00M
,  // measure 30
0010
1000
0001
1000
0000
0001
0010
0000
0001
0010
0001
1000
0001
0000
0100
M00M
,  // measure 31
0100
1000
0001
1000
0000
0001
0100
0000
0001
0010
0001
0000
1000
0100
1000
0000
,  // measure 32
0001
0010
0001
0000
1000
0100
1000
0001
0200
0000
0000
0000
0010
0000
0000
0000
,  // measure 33
0001
0000
0001
0000
0300
0000
0001
0000
1001
0000
0000
1000
0000
1000
0100
0000
,  // measure 34
0010
0000
0000
0010
0000
0000
0001
0000
0100
0000
0000
0100
0000
0000
0100
0000
,  // measure 35
0100
0000
0100
0000
0000
0010
0100
0000
0001
0000
0000
0001
0000
0001
0010
0000
,  // measure 36
0100
0000
0000
0100
0000
0000
1000
0000
0010
0000
0000
0010
0000
0000
0010
0000
,  // measure 37
0010
0000
0010
0000
0000
0100
0010
0000
1000
0000
0001
0100
0001
0000
1000
0001
,  // measure 38
0010
0000
0100
1000
0100
0000
1000
0001
0100
0000
0010
0100
0010
0000
1000
0010
,  // measure 39
1000
0000
0001
0100
0001
0000
1000
0001
0010
0000
0001
0010
0001
0000
1000
0001
,  // measure 40
0100
0000
0010
1000
0010
0000
1000
0001
1000
0100
0010
0001
1000
0100
0010
0001
,  // measure 41
1000
0100
0010
0001
M1M0
0000
0000
0000
0001
0100
0001
1000
0010
1000
0100
1000
,  // measure 42
0001
0010
0001
1000
0100
1000
0M1M
1000
0001
0100
0010
1000
0001
0000
1000
0001
,  // measure 43
0010
0001
0000
0010
0001
0000
1MM1
0000
1000
0100
1000
0001
0010
0001
0100
0001
,  // measure 44
1000
0010
1000
0001
0100
0001
MM10
0001
1000
0100
0010
0001
1000
0000
1000
0000
,  // measure 45
0001
0000
0001
0000
1000
0000
M11M
0000
1000
0010
1000
0001
0100
0001
0010
0001
,  // measure 46
1000
0100
1000
0001
0010
0001
M1M0
0001
1000
0010
0100
0001
1000
0000
0010
1000
,  // measure 47
0100
1000
0000
0001
0010
0001
M1M0
0001
1000
0000
1000
0000
0001
0000
0001
0000
,  // measure 48
0010
0001
0010
0001
0010
0001
M1M0
0001
2000
0000
0000
3000
2000
0000
0000
3000
,  // measure 49
000M
0M00
00M0
M000
000M
0M00
00M0
M000
0002
0000
0000
0000
0043
0000
0000
0000
,  // measure 50
0130
0100
1100
0100
1000
1000
1001
1000
,  // measure 51
0001
0000
0000
0000
1010
0000
0000
0000
0001
1000
0001
1000
0010
0000
0010
0000
,  // measure 52
0100
0100
0101
0100
0001
0001
1001
0001
,  // measure 53
1000
0000
0011
0000
0001
1000
0100
1000
,  // measure 54
0001
0100
0010
0100
0001
1000
0100
1000
,  // measure 55
0001
0000
0100
0000
0010
0000
0100
0000
0004
4000
0000
0000
0000
0000
0000
0000
,  // measure 56
0000
0000
0MM0
0MM0
,  // measure 57
0MM0
0000
0000
0000
3003
0000
0000
0000
0001
0010
0001
0010
0001
1000
0001
1000
,  // measure 58
0010
0100
0010
0100
0001
1000
0010
0010
0100
1000
0010
0000
0100
0001
0100
0001
,  // measure 59
0010
0000
0001
1000
0000
1000
0010
0000
1000
0010
1000
0010
1000
0001
1000
0001
,  // measure 60
0010
0100
0010
0100
1000
0001
0010
0010
0100
0001
0010
0001
0000
1000
0100
1000
,  // measure 61
0010
0000
0000
0010
2000
0000
0000
0000
3001
0010
0001
0010
0100
1000
0100
1000
,  // measure 62
0001
1000
0010
0010
0001
1000
0010
0100
0001
1000
0100
0000
0010
0001
0100
0001
,  // measure 63
1000
0100
0010
0001
1000
0100
0010
0001
1000
0010
1000
0010
0000
1000
0001
1000
,  // measure 64
0000
0001
0010
0001
0000
0100
0010
0100
0001
1000
0010
1000
0100
1000
0001
1000
,  // measure 65
0040
0000
0000
0000
1030
0000
M1M1
0000
1000
0010
1000
0010
1000
0001
1000
0001
,  // measure 66
0010
0100
0010
0100
1000
0001
0010
0010
1000
0001
0100
0001
0000
1000
0010
1000
,  // measure 67
0000
0001
0100
0001
1000
0000
0000
1000
0001
0010
0001
0010
0001
1000
0001
1000
,  // measure 68
0010
0100
0010
0100
0001
1000
0010
0010
0002
0000
0000
0000
2003
0000
0000
0000
,  // measure 69
3001
0100
0010
1000
0100
0010
0100
0010
0001
0000
2000
0000
3100
0000
0020
0000
,  // measure 70
0031
0200
0310
2000
3001
2000
3100
0020
,  // measure 71
0031
0000
0200
0000
0310
0000
2000
0000
3001
0010
0100
0010
0001
0010
0100
1000
,  // measure 72
0001
1000
0010
0100
0001
0100
0010
0100
0004
4000
0000
0000
0000
0000
0000
0000
,  // measure 73
3003
MM1M
1001
1001
1001
0000
0000
0000
;

//---------------dance-single - Gazebo----------------
#NOTES:
     dance-single:
     Gazebo:
     Hard:
     8:
     0.519,0.582,0.267,0.202,0.072,439.000,37.000,28.000,30.000,0.000,7.000,0.519,0.582,0.267,0.202,0.072,439.000,37.000,28.000,30.000,0.000,7.000:
0000
0000
0000
0000
,
0000
0000
MM11
1000
,
0001
0001
0100
0100
0010
0010
0100
0100
,
0001
1000
0000
1000
MM11
0000
0001
0001
,
1000
1000
0001
0001
0100
0100
0010
0010
,
2000
3000
M1M1
1000
,
0001
0001
0010
0010
0100
0100
0010
0010
,
0001
1000
0000
1000
M1M1
0000
0001
0001
,
1000
1000
0001
0001
0020
0000
0000
0000
,
0230
0000
4300
0000
3001
0010
0001
0010
,
1100
0000
1000
0000
0001
0000
0001
1000
,
2010
0000
0000
3000
0001
0000
0001
0000
,
0011
0010
0001
0010
0100
0000
0100
0000
,
1002
0000
0000
0003
0000
1000
0010
1000
,
0001
0000
0001
0000
1000
0000
1000
0001
,
0020
0000
0000
0030
0000
0001
0010
0001
,
4000
0004
0000
0000
0000
0000
0000
0000
0MM0
0000
0000
0000
0MM0
0000
0000
0000
,
0MM0
0000
3MM3
0000
1000
0100
0010
0001
,
1000
0010
0100
0001
1000
1000
0010
0010
,
1000
1000
0001
0000
1000
0100
0010
0001
,
1000
0010
0100
0001
2000
0000
3002
0000
,
0013
0100
1000
0000
0001
0100
0010
1000
,
0000
1000
0001
0010
0001
0001
1000
1000
,
0100
0010
0001
0000
1000
0010
0000
0010
,
0000
0010
0000
0010
2000
3001
2000
3001
,
0011
0000
0101
0000
1000
0010
0101
0000
,
1000
0001
0010
0000
0001
1000
0110
0000
,
0001
1000
0100
0000
0010
0001
1100
0000
,
1000
0001
0100
0000
0010
1000
0101
0000
,
1000
0000
0000
1000
0000
0000
1000
0000
0001
0000
0000
0001
0000
0000
1010
0000
,
1000
0000
0000
1000
0000
0000
0001
0000
0010
0000
0000
0010
0000
0000
1100
0000
,
0001
0000
0000
0001
0000
0000
0100
0000
0010
0000
0000
0000
0010
0000
0000
0000
,
0010
0010
0200
0000
,
0002
0000
0000
0000
0303
0000
0000
0000
1001
0000
0000
1000
0000
0000
0100
0000
,
0010
0000
0000
0010
0000
0000
0001
0000
0100
0000
0000
0100
0000
0000
0010
0000
,
0100
0000
0010
0000
0000
0000
0100
0000
0001
0000
0000
0001
0000
0000
0010
0000
,
0100
0000
0000
0100
0000
0000
1000
0000
0010
0000
0000
0010
0000
0000
0100
0000
,
0010
0100
0000
0010
1000
0001
1000
0100
,
0010
0100
1000
0010
0100
0001
0100
0001
,
1000
0001
1000
0001
0010
0100
1000
0010
,
0100
0001
1000
0100
0010
0001
1000
0001
,
0100
0001
1000
0000
0001
0100
0001
0100
,
0001
1000
0001
0010
0100
1000
0000
1000
,
0001
0000
0001
0100
0010
1000
0010
1000
,
0001
1000
0001
0010
0100
1000
0001
0001
,
0100
0100
0010
0010
1000
0001
1000
0001
,
1000
0100
1000
0010
0100
0001
0000
0001
,
0010
0100
0010
0001
1000
1000
0001
0001
,
0100
0000
0010
0000
0100
0000
0010
0000
2000
0000
0000
3000
2000
0000
0000
3000
,
000M
0M00
00M0
M000
000M
0M00
00M0
M000
0002
0000
0000
0000
0023
0000
0000
0000
,
0130
0100
1100
0100
1000
1000
1001
1000
,
0001
0000
1010
0000
1000
1000
0010
0010
,
0100
0100
0101
0100
0001
0001
1001
0001
,
1000
0000
0011
0000
0001
1000
0100
1000
,
0001
0100
0010
0100
0001
1000
0100
1000
,
0001
0000
0100
0000
0010
0000
0100
0000
0004
4000
0000
0000
0000
0000
0000
0000
,
0000
0000
0MM0
0MM0
,
0MM0
0000
3003
0000
0001
0100
0010
1000
,
0001
0010
0100
1000
0001
0011
0000
1000
,
1010
0000
0001
0101
1000
0010
0100
0001
,
1000
0000
0100
0000
0010
0000
0001
0000
1000
0000
1010
0000
0000
1010
0000
0000
,
1001
0000
0000
1000
0002
0000
0000
0000
1003
0000
0100
0000
0010
0000
0001
0000
,
1000
0010
0100
0001
1000
0101
0000
0101
,
0001
1000
0100
0010
0001
1000
0000
0010
,
0000
0100
0000
0001
0100
0001
0010
0100
,
1000
0000
1001
0000
0001
0010
0100
1000
,
0001
0100
0010
1000
1002
0000
1003
0000
,
0001
0010
0100
0000
1000
0100
0010
0001
,
1000
0010
0100
0001
2001
0000
3002
0000
,
0013
0100
1000
0000
0001
2000
3100
0020
,
0031
0200
0310
2000
3001
2000
3100
0020
,
0031
0200
0310
2000
3001
0010
0100
1000
,
0001
0000
0010
0000
0100
0000
1000
0000
0004
4000
0000
0000
0000
0000
0000
0000
,
3003
0000
1001
1001
1001
0000
0000
0000
;

//---------------dance-single - Gazebo----------------
#NOTES:
     dance-single:
     Gazebo:
     Medium:
     5:
     0.358,0.344,0.094,0.137,0.000,316.000,13.000,19.000,8.000,0.000,0.000,0.358,0.344,0.094,0.137,0.000,316.000,13.000,19.000,8.000,0.000,0.000:
0000
0000
0000
0000
,
0000
0000
0011
1000
,
0001
0100
1001
1000
,
0001
1000
0000
0000
0011
0000
0001
0000
,
1000
0010
0100
0001
,
2000
3000
0101
1000
,
0001
0010
0100
0010
,
0001
1000
0000
0000
0101
0000
0001
0000
,
1000
0001
0200
0000
,
0320
0000
1030
0000
0001
0010
0001
0000
,
1100
0000
1000
0000
0001
0000
0001
1000
,
0020
0000
0130
0100
,
0010
1000
0010
0000
0100
0000
0001
0000
,
2000
0000
0000
0000
3000
0001
0010
0001
,
0010
0000
0001
0000
1000
0000
1000
0010
,
0200
0000
0000
0000
0300
0001
1000
0002
,
2000
0000
0MM0
0MM0
,
0MM0
0000
3MM3
0000
1000
0010
1000
0000
,
0001
0100
0001
0000
1000
0000
0100
0000
,
0010
0000
0001
0000
1000
0010
1000
0000
,
0001
0100
0001
0000
2000
0000
3002
0000
,
0013
0100
1000
0000
0001
0010
0001
0000
,
1000
0100
1000
0000
0001
0000
0100
0000
,
0010
0000
1000
0000
0001
0010
0000
0010
,
0000
0010
0000
0010
0200
0000
2300
0000
,
3001
0001
1000
0101
,
1000
0100
1000
0011
,
0001
0100
0010
1001
,
1000
0100
1000
0011
,
1000
0000
1000
0000
0001
0000
0001
0100
,
0001
0000
1000
0010
1000
0000
0001
0100
,
0001
0000
1000
0010
1000
0000
0001
0000
,
1000
0001
0020
0000
,
0200
0000
0330
0000
1000
0000
0000
0001
,
0100
0000
0000
0010
1000
0000
0000
0010
,
1000
0000
0000
1000
0001
0000
0000
0010
,
0100
0000
0000
1000
0001
0000
0000
0001
,
1000
0000
0000
1000
0010
0000
0100
0001
,
0100
0000
0010
1000
0010
0000
0100
0000
,
0001
0000
1000
0000
0100
0000
0010
0001
,
0010
0000
0100
1000
0001
0000
0001
0000
,
0001
0001
1000
0100
,
0010
0000
0001
0000
1000
0001
0000
1000
,
0001
0000
0000
0100
0001
0000
0100
0000
,
0010
0000
1000
0000
0001
1000
0001
0000
,
0010
0000
0010
0100
1000
0000
0001
0000
,
0100
0000
0010
0000
1000
0001
0000
1000
,
0100
1000
0001
0001
,
0100
0010
0100
0000
0001
0000
0001
0000
,
0000
0000
2000
3200
,
0310
0001
0010
0000
0100
1000
0100
0000
,
1000
0000
0001
0100
,
0010
1000
0010
0000
0100
0001
0100
0000
,
0001
0000
1000
0100
,
1000
0100
0010
0001
,
0010
0001
2000
0001
,
0001
0001
0002
0000
,
0000
0000
3003
0000
1000
0100
1000
0000
,
0001
0010
0001
0000
1000
0010
0000
1000
,
0010
0000
1000
0010
0100
0000
0001
0000
,
1000
0000
0100
0000
0010
0001
0000
0010
,
0001
0000
2001
0000
3001
0100
0001
0000
,
1000
0010
1000
0000
0001
0010
0000
0010
,
0001
1000
0001
0100
,
0010
1000
0001
0001
,
1000
0000
1001
0000
0001
0010
0001
0000
,
1000
0100
1000
0000
0001
0000
0001
0000
,
0100
0000
0010
0000
1000
0010
1000
0000
,
0001
0100
0001
0000
1000
0000
1000
0000
,
0001
0000
0010
0000
0100
1000
0100
0000
,
1000
0001
1000
0000
0001
0010
0001
0000
,
1000
0001
1000
0000
0001
0000
0100
0000
,
0010
1000
1001
0000
,
0000
0000
1000
0001
1000
0000
0000
0000
;

//---------------dance-single - Gazebo----------------
#NOTES:
     dance-single:
     Gazebo:
     Easy:
     3:
     0.228,0.265,0.050,0.065,0.000,206.000,7.000,9.000,0.000,0.000,0.000,0.228,0.265,0.050,0.065,0.000,206.000,7.000,9.000,0.000,0.000,0.000:
0000
0000
0000
0000
,
0000
0000
0001
1000
,
0010
0000
0010
0000
,
0010
0000
1000
0001
,
0010
0000
0010
0000
,
0200
0000
1300
0001
,
0100
0000
0100
0000
,
0100
0000
0001
1000
,
0100
0000
0020
0000
,
0032
1003
0001
0100
,
1010
0000
1000
0001
,
0101
0000
1000
0100
,
0011
0000
0001
1000
,
1100
0000
2000
0000
,
0000
0000
0000
0000
,
0000
0000
3001
0100
,
0010
1000
0001
0001
,
0001
0000
1000
0100
,
0010
0001
1000
0000
,
1000
0000
0001
0100
,
0010
1000
0002
0000
,
1003
0000
0001
0010
,
0100
0000
1000
0100
,
1000
0000
0001
0000
,
1000
0000
0001
0001
,
0100
0010
1000
0001
,
1000
0100
0010
0001
,
0010
0100
1000
0001
,
1000
0010
0100
0001
,
0100
0000
0001
0000
,
1000
0000
0001
0000
,
1000
0000
0100
0100
,
0100
0100
2000
0000
,
0002
3003
1000
0000
,
0010
0000
0100
0000
,
0100
0000
0001
0000
,
1000
0000
0100
0000
,
0100
0000
0010
0001
,
1000
0010
0100
0000
,
0100
0000
0010
1000
,
0001
0010
0100
0100
,
0100
1000
0001
0100
,
0010
0100
0001
0000
,
1000
0000
0001
0010
,
0100
0010
0001
0000
,
1000
0000
0010
0100
,
0001
0100
0010
0000
,
1000
0000
0010
0010
,
1000
1000
0001
0001
,
0000
0000
1000
0100
,
0010
0000
0001
0000
,
0001
0000
1000
0010
,
0100
0000
0001
0000
,
0001
0000
1000
0001
,
1000
0001
1000
0001
,
1000
0001
2002
0000
,
0000
0000
0000
0000
,
0000
3003
0001
0100
,
0010
1000
0001
0000
,
0001
0000
1000
0100
,
0010
0001
1000
0000
,
1000
0000
0001
0100
,
0010
1000
0001
0000
,
0001
1000
0001
0010
,
0100
1000
0001
0000
,
0100
0000
0010
1000
,
0001
0010
0100
0000
,
0100
0000
1000
0001
,
0100
0010
1000
0000
,
1000
0000
0001
0100
,
0010
0100
0001
1000
,
0100
1000
0001
0010
,
0100
1000
1001
0000
,
0000
0000
1001
0000
;

//---------------dance-single - Gazebo----------------
#NOTES:
     dance-single:
     Gazebo:
     Beginner:
     1:
     0.087,0.106,0.043,0.000,0.000,79.000,6.000,0.000,0.000,0.000,0.000,0.087,0.106,0.043,0.000,0.000,79.000,6.000,0.000,0.000,0.000,0.000:
0000
0000
0000
0000
,
0000
0000
1001
0000
,
0000
0000
1000
0000
,
0000
0000
1001
0000
,
0000
0000
0001
0000
,
0000
0000
0110
0000
,
0000
0000
0100
0000
,
0000
0000
0110
0000
,
0000
0000
0010
0000
,
0000
0000
1000
0000
,
0000
0000
0010
0000
,
0000
0000
1000
0000
,
0000
0000
0010
0000
,
0000
0000
0100
0000
,
0000
0000
0001
0000
,
0000
0000
0100
0000
,
0000
0000
0001
0000
,
0001
0000
0001
0000
,
0000
0000
1000
0000
,
0000
0000
0001
0000
,
0000
0000
0010
0000
,
0000
0000
0100
0000
,
0000
0000
1000
0000
,
0000
0000
0001
0000
,
0000
0000
1000
0000
,
1000
0000
1000
0000
,
0000
0000
0010
0000
,
0000
0000
0100
0000
,
0000
0000
0010
0000
,
0000
0000
1000
0000
,
1000
0000
1000
0000
,
0000
0000
0001
0000
,
0001
0000
0001
0000
,
0000
0000
1001
0000
,
0000
0000
1000
0000
,
0000
0000
0100
0000
,
0000
0000
0010
0000
,
0000
0000
0001
0000
,
0000
0000
0100
0000
,
0000
0000
0010
0000
,
0000
0000
1000
0000
,
1000
0000
1000
0000
,
0000
0000
0001
0000
,
0000
0000
0010
0000
,
0000
0000
0100
0000
,
0000
0000
1000
0000
,
0000
0000
0001
0000
,
0000
0000
0100
0000
,
0000
0000
0010
0000
,
0000
0000
1000
0000
,
0000
0000
0010
0000
,
0000
0000
1000
0000
,
0000
0000
0001
0000
,
0000
0000
0010
0000
,
0010
0000
0010
0000
,
0010
0000
0010
0000
,
0000
0000
0000
0000
,
0000
0000
0001
0000
,
0000
0000
1000
0000
,
0000
0000
0001
0000
,
0000
0000
0100
0000
,
0000
0000
0010
0000
,
0000
0000
1000
0000
,
0000
0000
0001
0000
,
0000
0000
0010
0000
,
0000
0000
0100
0000
,
0000
0000
1000
0000
,
0000
0000
0001
0000
,
0000
0000
1000
0000
,
0000
0000
0010
0000
,
0000
0000
0100
0000
,
0000
0000
0010
0000
,
0000
0000
1000
0000
,
0000
0000
1001
0000
;
