#TITLE:Schroedinger's Cat;
#SUBTITLE:;
#ARTIST:Cait Sith;
#TITLETRANSLIT:;
#SUBTITLETRANSLIT:;
#ARTISTTRANSLIT:;
#GENRE:;
#CREDIT:;
#BANNER:cat bn.png;
#BACKGROUND:cat bg.png;
#LYRICSPATH:;
#CDTITLE:;
#MUSIC:Schroedinger's Cat.ogg;
#OFFSET:-0.038;
#SAMPLESTART:48.998;
#SAMPLELENGTH:12.000;
#SELECTABLE:YES;
#DISPLAYBPM:187.000;
#BPMS:0.000=187.000;
#STOPS:215.000=-2.567
;
#BGCHANGES:;
#KEYSOUNDS:;

//---------------dance-single - mudkyp remastered----------------
#NOTES:
     dance-single:
     mudkyp remastered:
     Challenge:
     13:
     1.000,1.000,0.130,1.000,1.000:
0000
0000
0000
0000
,
0000
0000
0000
0000
,
0000
0000
0000
0000
0000
0000
0011
1000
,
1000
0011
1000
0011
1000
0011
1000
1000
,
0011
1000
0011
1000
0011
1000
1000
0011
,
1000
0011
1000
0011
1000
1000
0011
1000
,
0011
0000
0000
1000
0000
0000
0001
0000
0000
0100
0000
0000
0010
0000
0000
1000
0000
0000
0100
0010
0100
0010
0000
0000
,
0001
0000
1000
0000
0010
0000
0100
0000
0001
0000
1000
0001
0100
0000
0010
0000
,
0000
0000
0000
0000
0000
0000
1000
0000
0000
0001
0000
0000
0010
0000
0000
0000
0000
0000
0100
0000
0000
0000
0000
0000
1000
0000
0000
0000
0000
0000
0001
0000
0000
0000
0000
0000
0100
0000
0000
0000
0000
0000
0040
0000
4000
0000
0000
0000
,
0000
0000
0000
3030
0000
0000
1000
0001
,
0010
0000
0000
0001
0000
0000
0100
0001
0100
0001
0000
0000
0100
0000
0000
0001
0000
0000
0100
0000
0000
0010
0000
0000
,
1000
0000
0001
1000
0010
0000
0100
0000
0000
0000
0001
0010
0100
0000
0010
0000
,
0001
0000
0000
0100
0000
0000
0001
0000
0000
4000
0040
0000
0000
0000
0000
0000
0000
0000
0000
0000
0000
3030
0000
0000
,
0000
0000
2000
3200
0320
0032
M023
0230
,
0300
0002
0203
0300
2000
3020
0230
0302
,
0003
0200
0302
0023
0230
2300
3002
0003
,
2000
3002
0023
2030
3000
0020
0032
0203
,
0320
0230
0302
0003
2000
3200
0320
0032
,
0003
0200
0320
2030
3002
0003
0020
0032
,
0203
0000
0320
0000
2030
0000
3200
0000
2300
0000
3200
0000
0320
0000
0000
0030
,
0000
M00M
0MM0
M00M
M00M
0MM0
0000
0000
0000
0000
0000
0000
0001
0000
0000
0100
0000
0000
0010
0000
0000
0100
0000
0000
,
0001
1000
0001
000M
0010
00M0
0100
0M00
,
1000
M000
0001
0010
0001
0100
1000
0100
,
0001
0000
1000
0000
0001
0100
0010
0100
0001
0000
1000
0000
0001
0000
0010
0000
,
0100
0000
1000
0000
0001
0100
0001
0100
0001
0010
0100
1000
0001
1000
0001
1000
,
0001
0100
0010
1000
0001
1000
0010
0100
0001
0010
0100
1000
0001
0100
0010
1000
,
0001
0010
0100
1000
0001
0010
0001
0010
0100
1000
0001
0100
0010
1000
0010
1000
,
0001
0100
0001
0100
0010
1000
0001
1000
0100
1000
0001
1000
0010
1000
0100
0010
,
0001
1000
0001
0100
0001
0000
0010
0000
0100
0000
1000
0000
0000
0000
0001
0000
,
0100
0000
0010
0000
1000
0010
1000
0010
0100
0001
0100
0001
1000
0001
1000
0001
,
1000
0100
1000
0100
0010
0001
0010
0001
1000
0000
0001
0000
0100
0000
0010
0000
,
0100
0000
0000
0000
0000
0000
0010
0000
M00M
0000
0MM0
0000
M00M
0000
M00M
0000
0MM0
0000
1000
0000
0000
0001
0000
0000
0100
0000
0000
0000
0000
0000
0001
0000
0000
0010
0000
0000
0100
0000
0000
0000
0000
0000
1000
0000
0000
0010
0000
0000
,
0200
0300
0000
0000
0001
0000
1000
0000
0100
0000
0000
0000
1000
0000
0001
0000
0100
0000
0010
0000
0100
0000
0001
0000
1000
0000
0001
0000
0010
0000
0100
0000
,
1000
0001
0100
0001
1000
0001
1000
0010
0100
0001
1000
0100
1000
0001
0100
0001
,
1000
0001
0010
0001
0100
0001
0010
0001
1000
0010
0100
0001
1000
0100
0010
0001
,
0010
0100
1000
0100
0010
0001
0010
0001
1000
0100
1000
0100
1000
0001
0000
0100
,
0001
1000
0001
0100
0010
1000
0010
0100
0001
1000
0010
0100
0001
1000
0100
0010
,
0001
0010
0100
1000
0001
0010
0100
1000
0001
0100
0010
0100
0001
1000
0001
1000
,
0001
1000
0001
1000
0001
0100
0010
1000
0010
1000
0010
0100
0001
0100
0010
1000
,
0001
0010
0100
1000
0010
0100
0001
1000
0001
0100
0010
1000
0001
0010
0100
1000
,
0100
0010
0001
0010
0001
0100
0010
1000
0010
0100
0001
0100
0001
1000
0001
1000
,
0010
1000
0001
1000
0010
0100
0001
1000
0001
0100
0010
1000
0001
0010
0100
0010
,
0100
1000
0100
0010
0001
1000
0010
0100
0001
0010
0001
0010
0100
1000
0100
1000
,
0100
0010
0001
1000
0001
0100
0010
1000
0001
0100
0010
0100
0001
1000
0001
1000
,
0001
1000
0001
1000
0010
0000
0000
0000
0020
0000
2030
0000
3020
0000
0230
0000
,
0302
2003
3002
0023
0230
2300
3002
0203
,
0320
0000
0000
2030
0000
0000
3001
0000
0100
0000
0010
0000
1000
0000
0000
0000
0000
0000
1000
0000
0100
0000
0010
0000
,
0001
0100
0010
0100
0000
0000
0001
0100
0010
1000
0001
1000
,
0001
0010
0100
1000
0001
0010
0100
0010
0001
1000
0100
0010
,
0001
0010
0001
1000
0001
0100
0010
0100
0010
1000
0001
0100
,
0001
0000
0100
0000
0010
0000
1000
0000
0100
0000
0010
0000
0001
0000
0100
0000
0010
0000
2000
0000
0000
3200
0000
0000
,
0320
0230
2300
3200
2300
3200
0320
0032
,
2003
3002
0203
0302
2003
3020
0230
0302
,
2003
3200
0320
0032
0023
0230
2300
3000
0000
1111
0000
0000
,
0000
0000
0000
0000
,
0000
0000
0000
0000
,
0000
0000
0000
0000
0000
0000
M00M
0MM0
M00M
M00M
0MM0
0000
M00M
0000
0000
0MM0
0000
0000
0000
0000
0000
0000
0000
0000
,
0001
0100
0010
1000
0001
0100
0010
1000
0001
0100
0010
1000
0001
1000
0100
0010
,
0001
0100
0010
1000
0010
0100
0001
1000
0001
0010
0100
1000
0001
0010
0100
1000
,
0001
0100
0010
1000
0001
0100
0001
0100
0001
0100
0010
1000
0001
0010
0100
1000
,
0001
0010
0100
0010
0001
1000
0100
1000
0001
1000
0010
0100
0001
1000
0010
0100
,
0001
1000
0001
0100
0001
1000
0000
0001
0000
1000
0000
0001
1000
0001
0010
0100
,
10MM
0000
0000
0000
1000
0001
0010
0100
10MM
0000
0000
0000
1000
0001
0100
0010
,
0100
0000
0000
0001
0000
0000
1000
0000
0000
0000
0000
0000
0002
0000
0000
0000
0203
0000
0000
0000
0320
0000
0000
0000
2030
0000
0000
0000
3002
0000
0000
0000
0023
0000
0000
0000
0032
0000
0000
0000
0203
0000
0000
0000
0320
0000
0000
0000
,
2030
3000
2000
3002
0203
0320
0230
0302
0023
0230
0320
0230
,
2300
3002
2003
3020
0230
0302
0203
0320
2030
3002
2003
3002
,
0023
0230
0320
0230
2300
3200
0320
0032
0023
0032
2003
3002
,
2003
3000
2000
3002
0203
0302
2003
3002
2003
3020
2030
3002
,
0203
0300
0200
0320
2030
3002
0003
2000
3002
1003
0100
0010
,
0000
0100
0000
1000
0100
1000
0100
0010
0000
0100
0000
1000
,
0100
0010
0001
0010
0000
0100
0000
1000
0001
0100
0010
1000
,
0000
0010
0000
1000
0001
1000
0001
0100
0000
0010
0000
1000
,
0001
0100
0010
1000
0000
0010
0000
1000
0100
000M
00M0
000M
,
00M0
0000
0000
2000
3200
0320
0032
0023
0230
2300
3002
0203
,
0320
2030
3020
2030
3002
0023
0230
2300
3002
0023
0230
2300
,
3002
0203
0320
0230
0320
2030
3002
0023
0230
2300
3200
2300
,
3002
0203
0302
2003
3200
0320
0032
0023
0230
0320
0032
0023
,
0230
2300
3200
2300
3002
2003
3002
0203
0302
2003
3020
2030
,
3020
0230
0320
0230
0302
0203
0302
2003
3002
0203
0302
0203
,
0320
2030
3002
0203
0302
0203
0320
2030
3020
0230
0302
0203
,
0302
2003
3002
0023
0230
0320
0032
0023
0032
2003
3200
2300
,
3002
0000
2003
0000
3002
0000
0203
0000
0302
0000
0203
0000
0302
0000
0023
0000
0230
0000
1300
0000
0000
0M01
0000
0000
,
1000
0M01
0020
000M
M000
000M
0130
10M0
,
0100
10M0
0002
M000
00M0
M000
0103
0001
,
0100
0001
0010
0001
1000
0100
1000
0010
,
0100
0000
0001
0000
0010
0000
0000
0000
0001
0100
0010
1000
1001
0000
0000
0000
,
M00M
0MM0
M00M
M00M
0MM0
0000
0000
0000
0000
0000
0000
0000
0000
0000
0000
0000
0000
0000
0000
0000
0000
0000
0000
0000
;
