#TITLE:Rumbling hearts;
#SUBTITLE:;
#ARTIST:MK feat.KANA;
#TITLETRANSLIT:;
#SUBTITLETRANSLIT:;
#ARTISTTRANSLIT:;
#GENRE:;
#CREDIT:;
#BANNER:Rumbling-hearts-bn.png;
#BACKGROUND:Rumbling-hearts.png;
#LYRICSPATH:;
#CDTITLE:;
#MUSIC:Rumbling hearts.ogg;
#OFFSET:-0.173;
#SAMPLESTART:54.233;
#SAMPLELENGTH:12.000;
#SELECTABLE:YES;
#BPMS:0.000=144.000;
#STOPS:;
#BGCHANGES:;
#KEYSOUNDS:;

//---------------dance-single - Ninevolt----------------
#NOTES:
     dance-single:
     Ninevolt:
     Challenge:
     12:
     0.942,1.000,0.178,0.079,1.000:
0000
0000
0000
0000
,
0000
0000
0000
0000
,
0000
0000
0000
0000
,
0000
0000
0000
0000
,
0000
0000
0000
0000
,
0000
0000
0000
0000
,
1000
0100
1000
0100
0010
0001
0010
0001
1000
0001
1000
0001
0100
0010
0100
0010
,
1000
0000
0001
0000
1000
0000
0001
0000
0000
0100
0000
0000
0001
0000
0000
1000
0000
0000
0001
0000
0000
0010
0000
0000
0100
0000
1000
0000
0100
0000
1000
0000
0000
0001
0000
0000
0010
0000
0000
0100
0000
0000
1000
0000
0000
0001
0000
0000
,
0100
0000
0010
0100
0010
0000
1000
0001
1000
0000
0001
1000
0001
0000
0100
0001
,
0100
0000
0010
1000
0010
0000
0100
0001
0100
0000
0001
1000
0100
0000
0010
0100
,
0010
0000
0001
1000
0001
0100
0001
1000
0100
0000
1000
0001
1000
0000
0100
0010
,
0001
0000
1000
0001
0100
0000
0010
0100
0001
0000
1000
0100
0010
0000
0001
0000
,
1001
0000
0100
0001
0100
0000
0010
1000
0001
0000
0010
0001
0010
0000
0100
0000
,
1000
0000
0001
0000
0100
0000
0100
0000
0110
0000
0010
1000
0010
0000
0100
0001
,
1000
0100
0010
0001
1000
1000
0100
0100
,
1100
0000
0100
1000
0001
0000
0100
0000
0101
0000
0101
0000
0000
0000
0010
0000
,
1010
0000
1000
0001
1000
0000
0001
0010
0001
0000
1000
0100
1000
0000
0001
1000
,
0001
0000
0100
0010
0100
0000
0010
1000
0010
0000
0100
0001
1000
0000
0100
0010
,
0100
0000
0010
0001
1000
0010
0100
0001
1000
0000
0001
0100
0001
0000
1000
0001
,
1000
0000
0100
1000
0001
0000
0100
0010
1000
0000
0001
1000
0001
0000
0100
0000
,
0110
0000
0010
1000
0001
0000
1000
0001
0010
0000
0100
1000
0100
0000
0010
0001
,
0010
0000
0001
1000
0001
0000
0100
0010
1000
0000
0001
0010
0100
0000
1000
0000
,
1001
0000
0001
1000
0100
0000
0010
0000
0001
0000
0100
0010
0100
0000
0001
0000
,
1000
0000
0100
0010
0001
0000
1000
0000
0001
0000
0000
0001
0000
0000
0010
0000
,
1100
0001
1001
0001
0100
0010
1010
1000
,
0100
0010
0110
0001
1000
0100
1100
0001
,
0100
0010
1000
2000
0000
3001
0010
0001
,
1001
0001
0101
0010
1000
0001
1100
1000
,
0100
0010
0011
1000
0001
0100
0101
0020
,
0000
1030
1001
0100
0000
0100
0010
1000
,
0001
1000
0001
1000
0010
0100
0001
1000
0001
0010
0001
0010
0100
1000
0001
1000
,
0010
0000
0100
0000
0010
0000
0100
0000
0000
0001
0000
0000
1000
0000
0000
0100
0000
0000
0010
0000
0000
0001
0000
0000
1000
0000
0000
0001
0000
0000
1000
0000
0000
0001
0000
0000
1000
0000
0000
0001
0000
0000
1000
0000
0000
0001
0000
0000
,
0100
0001
1000
0100
1000
0010
0100
0001
1000
0100
0010
0001
1000
0010
0100
0001
,
1000
0100
1000
0001
0100
0010
1000
0100
1000
0001
0100
0001
0010
0100
1000
0001
,
0100
0001
1000
0100
1000
0010
0100
0010
1000
0001
0010
0100
1000
0001
0100
0010
,
0100
0001
1000
0100
1000
0001
0100
0010
0100
0001
1000
0010
1000
0010
0100
0001
,
1000
0001
1000
0100
1000
0001
0010
0001
1000
0100
0010
0001
1000
0010
0100
0001
,
1000
0100
0010
0100
1000
0001
0010
0001
1000
0010
1000
0001
0100
0010
0100
0001
,
1000
0100
0010
0100
1000
0001
0100
0010
0100
0001
0100
0010
1000
0001
0010
0001
,
1000
0100
0010
0100
0010
0100
1000
0001
0100
0000
0010
0000
0010
0000
1000
0000
,
1001
0000
1000
0001
0100
0001
0010
0001
1000
0100
1000
0010
0100
0001
1000
0100
,
1000
0001
0010
0001
1000
0010
0100
0010
1000
0001
0010
0100
0010
0001
1000
0001
,
0100
0001
1000
0100
1000
0100
0010
0001
1000
0010
1000
0001
0100
0001
0100
0010
,
1000
0001
0010
0001
0100
0001
1000
0100
1000
0001
0010
0001
1000
0100
0010
0001
,
1000
0001
1000
0001
0100
0010
0100
0001
1000
0000
0010
0000
0100
0000
0002
0000
,
0000
0000
1003
0000
0100
0000
0010
0000
0001
0000
1000
0001
1000
0000
0001
0100
,
0001
0000
2000
0000
0000
0000
3001
0000
0010
0000
0100
1000
0100
0000
0010
0000
,
0001
0000
1000
0010
0100
0000
0001
0000
1000
0000
0100
0010
0001
0000
1000
0000
,
0001
0100
0001
0100
0010
1000
0001
1000
0100
0010
0001
1000
0100
0010
0001
1000
,
0010
0000
0100
0000
0010
0000
0100
0000
0010
0000
0100
0000
0010
0000
0000
1000
0000
0000
0010
0000
0000
0100
0000
0000
0001
0000
0000
0010
0000
0000
0100
0000
0000
1000
0000
0000
0002
0000
0000
0000
0000
0000
0000
0000
0000
0000
0000
0000
,
1003
0100
0000
0100
0000
0100
0010
0001
,
1000
0010
0000
0010
0000
0010
0000
0100
,
0010
1000
0000
1000
0000
1000
0000
0001
,
0010
0100
0000
0100
0000
1000
0001
0100
,
0001
0010
0000
0010
0000
0010
0000
0100
,
0000
1000
0000
1000
0000
1000
0001
0100
,
0000
0010
0000
0010
0000
1000
0001
0010
,
0000
0110
0000
0110
0000
1001
0000
0001
,
0010
0100
0100
1000
0001
0100
0010
1000
,
0001
0010
0100
1000
0100
0010
0001
0100
,
0001
1000
0001
0100
1000
0100
0001
1000
,
0100
0010
0001
1000
0010
0001
0010
1000
,
0100
1000
0010
0100
0001
0010
1000
0010
,
0001
0100
0010
1000
0100
0001
0100
1000
,
0010
0000
0100
0001
1000
0100
1000
0100
0010
0001
0010
0001
1000
0010
0100
0010
,
1000
0000
0001
0000
1000
0000
0001
0000
0000
0100
0000
0000
0001
0000
0000
1000
0000
0000
0200
0000
0000
0000
0000
0000
0310
0000
0000
0000
0000
0000
0200
0000
0000
0000
0000
0000
0310
0000
0000
0000
0000
0000
0001
0000
0000
0000
0000
0000
,
1001
0000
1000
0001
0010
0001
1000
0010
0100
0001
1000
0100
0010
0001
1000
0010
,
0100
0001
1000
0100
1000
0001
0010
0001
1000
0010
0100
0010
1000
0001
0010
0100
,
1000
0001
0100
0010
0100
0001
1000
0100
1000
0010
0100
0001
1000
0100
1000
0001
,
0010
0100
1000
0001
0100
0001
1000
0100
0010
0001
0100
0001
1000
0100
1000
0001
,
0100
0010
0100
0001
1000
0100
0010
0001
1000
0100
0010
0100
1000
0001
0010
0001
,
1000
0010
0100
0010
1000
0010
0100
0001
1000
0100
1000
0001
0010
0001
1000
0001
,
0100
0010
0100
0001
1000
0100
0010
0100
1000
0100
0010
0001
1000
0001
0100
0010
,
0100
0001
1000
0001
0010
0100
1000
0001
0100
0010
0100
0010
1000
0001
0010
0100
,
1000
0000
0001
0010
0100
0000
1000
0000
0001
0000
0100
0010
1000
0000
0001
0000
,
0010
0000
0100
1000
0001
0000
0100
0000
0010
0000
1000
0100
0010
0000
0001
0000
,
1000
0000
0010
0100
0001
0000
1000
0000
0100
0000
0010
0001
0100
0000
0010
0000
,
1000
0000
0100
0010
0001
0000
1000
0000
0000
0000
0010
0000
0100
0000
0010
0000
,
1001
0000
0020
0000
1030
0100
1000
0002
,
0000
0000
0103
0000
0001
0000
0010
0000
0100
0000
0100
1000
0001
0000
0100
0010
,
1000
0000
0002
0000
0000
0000
0103
0000
0010
0000
1000
0010
0100
0000
0001
0000
,
0010
0000
0100
1000
0001
0000
0100
0000
0010
0000
1000
0001
0010
0000
0100
0000
,
1000
0001
1000
0001
0100
0010
0100
0010
1000
0001
1000
0100
0010
0001
1000
0001
,
0100
0000
0010
0000
0100
0000
0010
0000
0000
1000
0000
0000
0001
0000
0000
0010
0000
0000
0001
0000
0000
1000
0000
0000
0100
0000
0010
0000
0100
0000
0010
0000
0000
0001
0000
0000
2000
0000
0000
0000
0000
0000
3000
0000
0000
0000
0000
0000
;

//---------------dance-single - Ninevolt----------------
#NOTES:
     dance-single:
     Ninevolt:
     Hard:
     7:
     0.554,0.717,0.150,0.029,0.046:
0000
0000
0000
0000
,
0000
0000
0000
0000
,
0000
0000
0000
0000
,
0000
0000
0000
0000
,
1000
0000
0000
0001
0100
0000
0010
0000
1000
0000
0000
1000
0100
0000
0010
0000
,
0001
0000
0000
0001
1000
0000
0010
0000
0100
0000
0000
0100
0010
0000
1000
0000
,
0100
0010
0100
0000
0010
0001
0010
0000
0001
1000
0001
0000
0100
0001
0100
0000
,
0010
0100
0010
0100
0010
0000
1000
0000
0001
1000
0001
1000
0001
0000
1000
0000
,
1001
0000
0001
0100
0001
1000
0000
1000
,
0010
0000
0100
0000
0100
0000
0010
1000
,
0100
0000
0010
0001
0100
0010
0100
0001
,
1000
0000
0001
0100
0010
0000
0100
0001
,
1001
0000
1000
0100
0001
0000
0100
1000
,
0001
0000
0100
0100
0000
0001
0001
0000
,
1000
0000
1000
0000
0100
1000
0100
0010
,
0001
0000
0001
1000
0010
0010
0000
0100
,
0110
0000
1000
0100
0010
0001
0000
0001
,
1000
0000
0010
0100
0001
0000
0001
0100
,
1000
0000
0100
0001
1000
0100
0010
0001
,
1000
0000
0010
1000
0100
0000
0010
0001
,
1001
0000
0001
0100
0010
0000
1000
1000
,
0100
0000
0010
0010
0000
0001
0100
0010
,
0100
0000
0010
1000
0100
0000
0010
0001
,
0100
0000
0000
0000
0001
0000
1000
0000
0100
0000
0000
0100
0000
0000
0010
0000
,
0011
0000
0001
0000
1000
0000
0010
0100
,
0001
0000
1000
0000
0100
0000
0010
0001
,
1000
0000
0010
0010
0000
0100
0001
1000
,
1100
1000
0001
0100
,
0010
0000
1000
0000
0001
0010
0100
1000
,
0000
1000
0010
0010
0000
0100
0001
1000
,
1001
0000
0110
0000
1000
0100
0010
0001
,
2000
0000
0000
3000
,
0110
0000
0010
1000
0001
0010
0001
1000
,
0100
0010
0100
1000
0001
0100
0010
0100
,
0001
0100
0010
1000
0010
0100
0001
1000
,
0100
0010
0100
1000
0001
0010
0001
1000
,
0100
0010
0100
1000
0001
0100
0010
1000
,
0100
0001
0100
1000
0001
0100
0010
0100
,
1000
0100
0001
1000
0100
0010
1000
0010
,
0001
1000
0100
1000
0001
0000
0100
0010
,
0110
0000
0100
0001
1000
0100
0010
0100
,
1000
0001
0100
0010
0100
0001
1000
0100
,
0010
0100
1000
0100
0001
0100
0010
0001
,
1000
0000
0010
0100
0000
0100
0001
1000
,
0100
0000
0110
0000
0001
0100
0001
1000
,
0000
1000
0100
0010
0011
0000
1100
0000
,
0001
0100
0000
0001
1000
0100
1000
0100
,
0010
0100
1000
0001
0100
0000
0100
0000
,
0110
0000
0010
1000
0100
0000
0110
0000
,
2002
0000
0000
3003
,
0001
0100
0000
0100
0000
0100
0010
1000
,
0100
1000
0000
1000
0000
0001
1000
0100
,
0010
0001
0000
0001
0000
1000
0100
0010
,
0000
0001
0000
0001
0000
0100
0000
0001
,
0000
1000
0000
1000
0000
0001
0010
0001
,
0000
1000
0000
1000
0000
0001
0000
0100
,
0000
0001
0000
0001
0000
1000
0000
0010
,
0000
0001
0000
0001
0000
0010
0000
1000
,
0100
0010
0100
1000
0001
0100
0001
1000
,
0100
0010
0100
1000
0001
0100
0001
1000
,
0010
0100
0010
0100
0001
0100
0010
1000
,
0001
1000
0001
0010
0001
1000
0100
0010
,
0100
1000
0100
0010
0001
1000
0001
0010
,
0001
0100
0001
1000
0100
0010
0001
1000
,
0010
1000
0001
0100
0010
1000
0100
1000
,
0001
0100
0000
0100
0000
0010
0000
0000
,
1001
0000
1000
0100
0010
0001
1000
0010
,
1000
0001
0100
0010
0100
0001
1000
0100
,
1000
0001
0010
0100
1000
0001
0100
0001
,
1000
0100
0010
0001
0100
0010
0100
0001
,
1000
0100
1000
0001
0010
0100
1000
0001
,
0100
0001
1000
0010
0100
0010
1000
0010
,
0100
0001
1000
0100
1000
0100
0010
0001
,
1000
0010
1000
0001
0100
0000
0001
1000
,
1001
0000
0001
0010
0100
1000
0010
0100
,
0001
1000
0100
1000
0010
0100
0001
1000
,
0100
0010
0001
1000
0010
0100
0001
0010
,
0001
0000
0001
1000
0000
1000
0001
0010
,
0100
0000
1000
0000
1000
0010
0100
0001
,
0000
0001
0100
0010
1010
0000
0101
0000
,
1000
0100
0000
0010
0001
0100
0001
0100
,
0010
0100
0001
1000
0100
0000
0100
0000
,
0110
0000
0010
0001
0100
0000
0100
0000
,
0010
0010
2000
3000
;

//---------------dance-single - Ninevolt----------------
#NOTES:
     dance-single:
     Ninevolt:
     Medium:
     5:
     0.424,0.389,0.157,0.071,0.000:
0000
0000
0000
0000
,
0000
0000
0000
0000
,
0000
0000
0000
0000
,
0000
0000
0000
0000
,
1000
1000
0001
0001
,
0010
0010
0100
0100
,
2000
0000
3002
0000
,
0203
0000
0320
0000
,
1030
0000
0001
0100
0001
0000
1000
0000
,
0100
0010
0001
1000
,
0010
0000
0100
0010
0100
0000
0001
0000
,
1000
0000
0100
1000
0100
0000
0010
0000
,
0110
0001
0001
1000
,
0001
0000
0100
0001
0000
0000
1000
0000
,
0100
0000
0100
0000
0010
0100
0010
0100
,
0010
0000
0001
0000
1000
1000
0000
0001
,
1000
0000
0100
1000
0100
1000
0000
0001
,
1000
0000
0010
0000
0100
0000
0010
1000
,
0010
0000
0100
0000
0001
0000
1000
0100
,
0010
0000
0001
0000
0001
0000
0100
0010
,
1000
0000
0010
0000
0100
0000
0001
0100
,
0000
0000
0010
1000
0100
0000
0010
0000
,
0001
0000
1000
0100
0010
0000
0001
0000
,
0001
1000
1000
0000
,
1001
0001
0100
1000
,
1100
0100
0001
0010
,
0011
0001
0010
1000
,
1010
0010
0001
0100
,
0110
1000
0100
0001
,
0101
0100
1000
0010
,
0200
0000
0302
0000
,
2003
0000
0000
3000
,
1001
0000
0001
1000
0100
0000
0100
0000
,
0100
0000
0010
0001
0000
1000
0000
0001
,
0100
0000
0110
0000
0001
0000
1000
0001
,
0010
0000
0100
1000
0000
0001
0000
0100
,
0000
0100
0000
0010
1000
0000
1000
0100
,
0010
0000
0001
0100
0000
0100
0000
0010
,
1000
0000
0100
0100
0000
0010
0001
1000
,
0001
0000
0101
0000
0100
0000
0010
1000
,
0100
0000
0110
0000
0010
0001
1000
0000
,
0010
0000
0010
0100
0000
0100
0000
0001
,
1000
0000
1100
0000
0100
0000
1000
0001
,
0100
0000
0010
0100
0000
0001
1000
0100
,
0010
0000
0110
0000
1000
0100
1000
0100
,
0000
0100
0010
0001
0100
0000
0110
0000
,
0001
1000
0000
0100
0010
0000
0110
0000
,
0001
0010
0100
0000
1000
0000
1000
0000
,
0002
0000
2003
0000
,
3000
0000
0000
0000
,
1001
0000
0001
0000
0100
0000
0001
1000
,
0100
0000
0010
0001
0010
0000
0001
0100
,
0001
0000
1000
0000
0100
0000
1000
0001
,
0100
0000
0010
1000
0100
0000
0010
0001
,
1000
0000
0010
0000
0010
0000
0100
0001
,
1000
0000
0100
1000
0100
0000
0010
0001
,
0100
0000
0010
0000
1000
0000
0100
0010
,
0100
0000
1000
0001
0100
0000
0010
0000
,
1000
0100
1000
0000
0010
1000
0100
0000
,
0010
0001
0100
0010
1000
0100
0010
0000
,
0001
1000
0100
0000
1000
0001
0100
0000
,
0010
1000
0100
0010
0001
1000
0010
0000
,
0100
0001
0010
0000
0100
0010
0001
0000
,
1000
0001
0010
0100
1000
0010
0100
0000
,
0001
1000
0001
0000
0010
0100
0010
0000
,
0001
0100
0010
0000
1000
0001
0010
0000
,
1001
0000
0100
0001
1000
0000
0100
0010
,
0100
0000
0010
0001
0000
1000
0000
0010
,
0100
0000
0001
1000
0100
0000
0010
0001
,
0010
0000
0100
1000
0000
0001
0000
0100
,
0000
0001
1000
0000
0110
0000
0001
1000
,
0100
0000
0010
0001
0000
0100
0000
0001
,
1000
0000
0100
1000
0000
0001
0100
0010
,
1000
0000
1001
0000
0100
0000
0001
1000
,
0100
0110
0001
1000
,
0010
0100
0010
1000
,
0100
1000
0001
0100
,
0001
0000
1000
0100
0000
0010
0001
1000
,
0001
0000
0100
0000
0010
1000
0001
1000
,
0000
0100
0010
0001
0100
0000
0110
0000
,
0001
1000
0000
0001
0100
0000
0110
0000
,
1000
0001
0100
0000
0010
0000
0010
0000
,
1000
0000
1000
0001
1000
0000
0100
0000
,
0100
0010
0002
0003
;

//---------------dance-single - Ninevolt----------------
#NOTES:
     dance-single:
     Ninevolt:
     Easy:
     3:
     0.307,0.298,0.086,0.036,0.000:
0000
0000
0000
0000
,
0000
0000
0000
0000
,
0000
0000
0000
0000
,
0000
0000
0000
0000
,
1000
0000
0001
0000
,
1000
0000
0100
0000
,
0010
0000
0001
0000
,
1000
0000
0001
0000
,
1000
0001
0100
0001
,
1000
0000
0000
0001
,
1000
0100
1000
0001
,
0100
0001
1000
0000
,
0100
0010
0100
0000
,
1000
0001
1000
0000
,
0001
0001
0100
0100
,
0010
1000
0010
0000
,
0110
0001
1000
0100
,
0010
0100
1000
0001
,
1000
0001
0001
0100
,
0010
1000
1000
0001
,
1001
0000
0000
0001
,
0010
0001
1000
0100
,
0010
0100
1000
0001
,
0100
0001
1000
0000
,
1001
0001
0100
0001
,
1001
0001
0010
0100
,
1100
0100
0010
0001
,
0011
0001
1000
0010
,
0110
0010
1000
0100
,
0110
0100
1000
0001
,
0100
0000
0010
0000
,
2000
0000
0000
3000
,
1001
0000
0001
0010
,
0001
1000
0100
1000
,
0001
0100
0001
1000
,
0100
0010
0001
1000
,
0010
0100
0010
1000
,
0001
0100
0010
0100
,
0001
0010
0001
1000
,
0100
0010
0001
1000
,
0001
0100
0001
0010
,
0001
1000
0100
0010
,
0100
1000
0010
0100
,
0001
0100
0010
1000
,
0001
1000
0001
0100
,
0001
1000
0100
0100
,
0110
0010
0001
1000
,
0001
0100
0001
1000
,
0100
1000
0002
0000
,
2003
0000
0000
3000
,
0001
0100
0001
0100
,
0010
1000
0010
1000
,
0001
0010
0001
0010
,
0001
1000
0100
1000
,
0001
0100
0001
1000
,
0001
1000
0100
0010
,
0001
1000
0010
1000
,
0001
0100
0001
1000
,
0100
1000
0001
0010
,
1000
0010
0001
0100
,
1000
0100
0001
0010
,
1000
0100
0001
0010
,
0001
0100
1000
0010
,
0001
0100
0010
1000
,
0100
0001
0100
1000
,
0001
0100
0100
0100
,
1001
1000
0100
0100
,
0010
0001
0100
0001
,
1000
0100
0100
0010
,
0001
0100
1000
0100
,
0001
0001
1000
0100
,
0010
0001
0100
0001
,
1000
0100
0001
0100
,
1000
0001
0100
0001
,
1001
0000
1000
0100
,
0100
0000
0010
0010
,
0001
0000
1000
0001
,
0100
0100
0010
1000
,
0100
0000
0010
0001
,
1000
0010
0100
0000
,
0001
1000
0100
0010
,
0001
0001
1000
0010
,
0100
0100
0002
0000
,
2003
0000
3000
0000
;

//---------------dance-single - Ninevolt----------------
#NOTES:
     dance-single:
     Ninevolt:
     Beginner:
     1:
     0.195,0.179,0.000,0.014,0.000:
0000
0000
0000
0000
,
0000
0000
0000
0000
,
0000
0000
0000
0000
,
0000
0000
0000
0000
,
0100
0000
0000
0000
,
0010
0000
0000
0000
,
0100
0000
0000
0000
,
0001
0000
0000
0000
,
1000
0000
0100
0000
,
0010
0000
0100
0000
,
1000
0000
0001
0000
,
0100
0000
0001
0000
,
1000
0000
0100
0000
,
1000
0000
0001
0000
,
0100
0000
0100
0000
,
0010
0000
0010
0000
,
1000
0000
0100
0000
,
0001
0000
1000
0000
,
0010
0000
0001
0000
,
1000
0000
0010
0000
,
0100
0000
0001
0000
,
0100
0000
0010
0000
,
1000
0000
0001
0000
,
1000
0000
0100
0000
,
0010
0000
0001
0000
,
0010
0000
0100
0000
,
1000
0000
0100
0000
,
1000
0000
0001
0000
,
0100
0000
0001
0000
,
1000
0000
0100
0000
,
0010
0000
0100
0000
,
2000
0000
0000
3000
,
0001
0000
0100
0001
,
1000
0000
0100
0010
,
0100
0000
1000
0001
,
0100
0000
0010
1000
,
0010
0000
0100
0001
,
0010
0000
0100
0010
,
0001
0000
1000
0100
,
0010
0000
0001
1000
,
0001
0000
0100
0010
,
0100
0000
0010
1000
,
0001
0000
0010
0001
,
0100
0000
0001
1000
,
0100
0000
0010
0100
,
1000
0000
0010
0100
,
0010
0000
1000
0001
,
1000
0000
0100
0000
,
0100
0000
0010
0000
,
0020
0000
0030
0000
,
0001
0000
0100
0000
,
0001
0001
0001
0000
,
1000
0010
0010
0000
,
0100
0001
1000
0000
,
0100
0100
0100
0000
,
0010
0001
0001
0000
,
1000
0001
0100
0000
,
0010
0010
0010
0000
,
1000
0100
0100
0000
,
0010
0001
1000
0000
,
0100
0100
0100
0000
,
1000
0001
0001
0000
,
0100
0010
1000
0000
,
0100
0100
0100
0000
,
0010
0000
0001
0000
,
1000
0000
1000
0000
,
0001
0000
0100
0100
,
0001
0000
1000
0000
,
0100
0100
0010
0000
,
0001
0000
1000
0100
,
0010
0000
0001
0000
,
1000
1000
1000
0000
,
0010
0000
0100
0001
,
0001
0000
1000
0000
,
0001
0000
1000
0000
,
0100
0000
0010
0000
,
0010
0000
0001
0000
,
0100
0000
0001
0000
,
1000
0000
0100
0000
,
0010
0000
0001
0000
,
1000
1000
1000
0000
,
0001
0000
0100
0100
,
0010
0000
1000
0000
,
0001
0000
1000
0000
;
