#TITLE:Release the Music;
#SUBTITLE:;
#ARTIST:kors k;
#TITLETRANSLIT:;
#SUBTITLETRANSLIT:;
#ARTISTTRANSLIT:;
#GENRE:Tech Dance;
#CREDIT:B. Sudzius;
#BANNER:release the music-bn.png;
#BACKGROUND:release the music-bg.png;
#LYRICSPATH:;
#CDTITLE:SudziCD.png;
#MUSIC:Release The Music.ogg;
#OFFSET:-0.374;
#SAMPLESTART:67.772;
#SAMPLELENGTH:12.000;
#SELECTABLE:YES;
#DISPLAYBPM:146.000;
#BPMS:0.000=146.000,59.500=73.000,59.667=292.000,60.000=146.000,61.000=73.000,61.333=292.000,62.000=146.000,62.500=219.000,63.000=146.000,63.500=73.000,63.667=292.000,64.000=146.000,64.500=219.000,68.000=146.000,85.500=219.000,86.000=146.000,87.500=97.333,87.750=292.000,88.000=146.000,88.750=116.800,89.500=233.000,90.000=146.000,100.000=73.000,116.000=146.000,244.000=73.000;
#STOPS:62.500=0.035
,62.750=0.035
,64.500=0.069
,65.000=0.069
,65.500=0.069
,66.000=0.069
,66.500=0.069
,67.063=0.017
,67.188=0.017
,67.313=0.017
,67.438=0.017
,67.563=0.017
,67.688=0.017
,67.813=0.017
,67.938=0.017
,85.500=0.068
;
#BGCHANGES:;
#KEYSOUNDS:;

//---------------dance-single - Sudzi781----------------
#NOTES:
     dance-single:
     Sudzi781:
     Challenge:
     12:
     0.947,0.956,0.060,0.231,1.000:
0000
0000
0000
0000
,
1001
0000
0000
1000
0000
0001
0000
1000
,
0000
0001
0000
1000
0000
0001
0000
1M00
,
0000
0001
0000
1000
0000
0001
0000
1000
,
0000
0000
0000
0001
0000
0000
0000
0000
0000
1000
0100
1000
0100
0000
0010
0000
0001
0000
0100
0000
0010
0000
1000
0000
,
0000
0000
0000
0001
0000
1000
0000
0001
,
0000
1000
0000
0001
0000
1000
0000
00M1
,
0000
0000
1000
0000
0000
0000
0001
0000
1000
0000
0100
1000
0002
0000
0000
0000
,
0103
0000
0000
0000
0000
0000
0010
0000
0000
0100
0000
0000
0000
0000
0000
0100
0000
0000
0001
0000
1000
0000
0001
0000
1000
0000
0000
0100
0000
0000
0000
0000
0000
1000
0000
0000
0001
0000
0000
0000
0000
0000
0100
0000
0000
0000
0000
0000
,
0101
0000
0001
1000
0010
0000
0200
0000
0310
000M
2000
0M00
3001
0000
0020
0000
,
0130
0000
2000
0000
3001
0000
2000
0000
3010
000M
0200
M000
0301
0000
0020
0000
,
0130
0000
0020
0000
0031
0000
0200
0000
0310
000M
2000
0M00
3001
0000
0010
0001
,
0010
0000
0000
0000
0000
0000
0001
0000
0000
1000
0000
0000
0001
0000
0000
0000
0000
0000
0100
0000
0000
0010
0000
0000
1000
0000
0000
0000
0001
0000
0000
0000
0100
0000
0000
0000
0010
0000
0000
0000
1000
0000
0000
0000
0100
0000
0000
0000
,
0010
0000
0001
1000
0001
0000
0200
0000
0310
000M
2000
0M00
3001
0000
0020
0000
,
0031
0000
0200
0000
0310
0000
2000
0000
3100
000M
0020
M000
0031
0000
1M00
0000
,
0010
0000
0000
0000
0000
0000
0000
0000
0000
0000
0000
0000
0000
0000
0000
0000
0000
0000
0000
0000
0000
0000
0000
0000
0200
0000
0000
0000
0000
0000
0000
0000
0000
0000
0000
0000
0000
0000
0000
0000
0000
0000
0000
0000
0000
0000
0000
0300
0200
0000
0000
0000
0000
0000
0000
0000
0000
0000
0000
0000
0000
0000
0000
0000
0000
0000
0000
0000
0000
0000
0000
0000
0000
0000
0000
0000
0000
0000
0000
0000
0000
0000
0000
0000
0000
0000
0000
0000
0000
0000
0000
0000
0000
0000
0000
0000
0301
0000
0000
0000
0000
0000
0000
0000
0000
0000
0000
0000
1000
0000
0000
0000
0000
0000
0000
0000
0000
0000
0000
0000
0100
0000
0000
0000
0000
0000
0000
0000
0000
0000
0000
0000
1000
0000
0000
0000
0000
0000
0000
0000
0000
0000
0000
0000
0001
0000
0000
0000
0000
0000
0000
0000
0000
0000
0000
0000
0000
0000
0000
0000
0000
0000
0000
0000
0000
0000
0000
0000
0200
0000
0000
0000
0000
0000
0000
0000
0000
0000
0000
0000
0000
0000
0000
0000
0000
0000
0000
0000
0000
0000
0000
0000
,
0310
2000
3200
0320
0032
0023
0430
0000
,
1300
0001
0000
1000
0010
0000
0100
0001
0000
1000
0100
0000
0010
0001
0000
1000
,
0010
0000
0100
0010
0000
1000
0001
0000
0010
0001
0000
1000
0100
0000
0010
0000
,
0100
0000
0000
0100
0000
0000
1000
0000
0000
0001
0100
0000
0010
0000
0100
0010
,
0100
0000
0001
0000
0000
1000
0001
0000
0010
0100
1000
0000
0001
0100
0001
0100
,
0010
0000
0000
0110
0000
0000
000M
0000
1000
0000
0000
1100
0000
0000
00M0
0000
,
0001
0000
0000
0101
0000
0000
0000
0000
0100
0001
0010
0000
0100
0000
1000
0000
,
1001
0000
0001
0100
0000
0000
0010
0000
0000
1000
0001
0000
0010
0000
0100
0010
,
0100
0000
1000
0000
0000
0001
1000
0000
0010
0000
0000
1000
0000
0000
0001
0000
,
1M10
0000
1000
0000
0001
0000
0010
0000
0000
0000
0100
0000
0010
0000
0001
0000
0100
0000
0010
0000
1000
0000
0100
0000
0010
0000
0000
0001
0000
0000
1000
0000
,
0010
0000
0000
0000
0100
0000
0000
0000
0010
0000
0000
0000
1000
0000
0000
0000
0000
0000
0000
0001
0010
0000
0000
0000
0100
0000
0000
0000
1000
0000
0000
0000
0001
0000
0000
0000
1000
0000
0000
0000
0010
0000
0000
0000
0100
0000
0000
0000
0001
0000
0000
0000
0010
0000
0000
0000
0000
0000
0000
0000
0000
0000
0000
0000
,
0100
0000
0000
0010
0000
0000
0001
0000
0000
1000
0000
0000
0000
0000
0000
0010
0000
0000
1000
0000
0001
0000
0100
0000
0001
0000
1000
0000
0100
0000
0010
0000
0001
0000
1000
0000
0010
0000
0100
0000
0001
0000
1000
0000
0100
0000
1000
0000
,
0010
0000
0000
0000
0000
0000
0000
0000
0000
0000
0000
0000
0000
0000
0000
0000
0000
0000
0000
0000
0000
0000
0000
0000
0100
0000
0000
0000
0000
0000
0000
0000
0010
0000
0000
0000
0000
0000
0000
0000
0100
0000
0000
0000
0000
0000
0000
0000
0001
0000
0000
0000
0000
0000
0000
0000
1000
0000
0000
0000
0000
0000
0000
0000
0001
0000
0000
0000
0100
0000
0000
0000
0001
0000
0000
0000
0000
0000
0000
0000
1000
0000
0000
0000
0000
0000
0000
0000
0100
0000
0000
0000
0000
0000
0000
0000
0010
0000
0000
0000
0000
0000
0000
0000
0000
0000
0000
0000
0001
0000
0000
0000
0000
0000
0000
0000
0000
0000
0000
0000
4000
0000
0000
0000
0000
0000
0000
0000
0000
0000
0000
0000
3010
0000
0000
0000
0000
0000
0000
0000
0000
0000
0000
0000
0100
0000
0000
0000
0000
0000
0000
0000
0000
0000
0000
0000
0001
0000
0000
0000
0000
0000
0000
0000
0000
0000
0000
0000
1000
0000
0000
0000
0000
0000
0000
0000
0000
0000
0000
0000
0100
0000
0000
0000
0000
0000
0010
0000
0000
0000
0000
0000
,
M001
0000
0000
1000
0000
0001
0000
1000
,
0000
0001
0000
1000
0000
0001
0000
1000
,
0000
0001
0000
1000
0000
0001
0000
1000
,
0000
0000
0000
0001
0000
0000
0000
0000
0000
1000
0010
1000
0001
0000
0010
0000
0100
0000
1000
0000
0001
0000
0100
0000
,
0010
0000
0000
1000
0000
0001
0000
1000
,
0000
0001
0000
1000
0000
0001
0000
1000
,
0000
0000
0001
0000
0000
0000
1000
0000
0000
0000
0001
0000
0000
0000
1000
0001
,
0020
0000
0000
0230
,
M310
0000
0000
0001
0000
0000
0010
0000
0000
0001
0000
0000
0010
0000
0000
0001
0000
0000
1000
0000
0000
0010
0000
0000
1000
0000
0000
0010
0000
0000
1000
0000
0000
0010
0000
0000
0100
0000
0001
0000
1000
0000
0010
0000
0000
1000
0000
0000
,
0001
1000
0001
1000
0001
1000
0100
0010
0001
0010
0100
0010
0100
0010
0100
1000
,
0001
0000
0100
0000
0010
0000
1000
0000
0000
0001
0000
0000
1000
0000
0000
0001
0000
0000
0100
0000
0000
0001
0000
0000
0100
0000
0000
0001
0000
0000
0100
0000
0000
0001
0000
0000
1000
0000
0100
0000
0010
0000
0001
0000
0000
0010
0000
0000
,
0001
0000
0000
1000
0000
0000
0001
0000
0000
1000
0000
0000
0001
0000
0000
1000
0000
0000
0100
0000
0000
1000
0000
0000
0100
0000
1000
0000
0001
0000
0010
0000
0000
0100
0000
0000
0010
0000
0000
0100
0000
0000
0010
0000
0000
0100
0000
0000
,
1000
0000
0001
0000
0100
0000
0010
0000
0000
0100
0000
0000
0001
0000
0000
0100
0000
0000
0010
0000
0000
1000
0000
0000
0010
0000
0000
1000
0000
0000
0010
0000
0000
1000
0000
0000
0001
0000
0100
0000
0010
0000
1000
0000
0000
0001
0000
0000
,
0010
0001
0010
0001
0010
0001
1000
0001
1000
0001
1000
0001
1000
0001
1000
0001
,
0100
0001
0100
0001
0100
0001
0100
0001
0100
0001
0100
0001
0100
0001
0100
0001
,
0100
0010
0100
0001
1000
0100
1000
0001
0010
0100
0010
0001
1000
0010
1000
0010
,
0100
0000
0001
0000
1000
0000
0010
0000
0000
1000
0000
0000
0001
0000
0000
1000
0000
0000
0001
0000
0000
0010
0000
0000
0001
0000
0000
0010
0000
0000
0001
0000
0000
0010
0000
0000
0100
0000
1000
0000
0001
0000
0010
0000
0000
0001
0000
0000
,
1000
0001
0100
0001
0100
0001
0100
0001
1000
0100
1000
0100
0010
0001
0010
0001
,
1000
0000
0100
0000
0010
0000
0001
0000
0000
1000
0000
0000
0100
0000
0000
1000
0000
0000
0001
0000
0000
1000
0000
0000
0001
0000
0000
1000
0000
0000
0001
0000
0000
1000
0000
0000
0010
0000
0100
0000
0001
0000
1000
0000
0000
0001
0000
0000
,
0010
0000
0000
0100
0000
0000
0010
0000
0000
0100
0000
0000
0010
0000
0000
0100
0000
0000
1000
0000
0000
0100
0000
0000
0010
0000
0001
0000
1000
0000
0100
0000
0000
1000
0000
0000
0001
0000
0000
0100
0000
0000
0001
0000
0000
0100
0000
0000
,
0010
0000
1000
0000
0001
0000
0100
0000
0000
0001
0000
0000
1000
0000
0000
0100
0000
0000
0010
0000
0000
0001
0000
0000
0010
0000
0000
0001
0000
0000
0010
0000
0000
0001
0000
0000
1000
0000
0010
0000
0100
0000
0001
0000
0000
1000
0000
0000
,
0010
1000
0010
1000
0010
0100
0001
1000
0100
0010
0100
0010
0100
0010
0100
1000
,
0001
0100
0001
0100
0001
0100
0001
0100
0001
0100
0001
0100
0001
0100
0001
0100
,
0010
1000
0001
0010
0100
1000
0001
0100
0010
1000
0100
0010
0001
1000
0010
1000
,
0001
0000
0010
0000
0100
0000
1000
0000
0000
0001
0000
0000
1000
0000
0000
0001
0000
0000
0010
0000
0000
0001
0000
0000
0010
0000
0000
0001
0000
0000
0010
0000
0000
0001
0000
0000
1000
0000
0010
0000
0100
0000
0001
0000
0000
1000
0000
0000
,
0010
1000
0001
1000
0001
1000
0001
0010
0100
0010
0100
0010
0100
1000
0001
1000
,
0010
0000
1000
0000
0001
0000
0100
0000
0000
0010
0000
0000
1000
0000
0000
0001
0000
0000
0010
0000
0000
0001
0000
0000
0010
0000
0000
0001
0000
0000
0010
0000
0000
0100
0000
0000
1000
0000
0001
0000
0100
0000
0010
0000
0000
1000
0000
0000
,
0001
0000
0000
0010
0000
0000
0001
0000
0000
0010
0000
0000
0001
0000
0000
1000
0000
0000
0010
0000
0000
0100
0000
0000
0010
0000
1000
0000
0001
0000
0100
0000
0000
0001
0000
0000
1000
0000
0000
0100
0000
0000
1000
0000
0000
0100
0000
0000
,
0010
0000
0001
0000
1000
0000
0010
0000
0000
0100
0000
0000
0010
0000
0000
0100
0000
0000
0010
0000
0000
0100
0000
0000
0001
0000
0000
0100
0000
0000
0001
0000
0000
0100
0000
0000
0010
0000
1000
0000
0001
0000
0100
0000
0000
0001
0000
0000
,
1000
0100
1000
0100
0010
0100
0010
0100
0010
0001
1000
0001
1000
0001
0100
0010
,
1000
0001
0010
0001
0010
0001
0010
0001
0010
0001
0010
0001
0010
0001
0010
0001
,
1000
0010
0100
0001
0100
0010
1000
0001
0010
0100
0010
0001
1000
0010
0100
0001
,
10M0
0000
0100
0000
0010
0000
0001
0000
0000
0000
1000
0000
0001
0000
0100
0000
0010
0000
0100
0000
0001
0000
0010
0000
0100
0000
0000
1000
0000
0000
0010
0000
,
0100
0000
0000
0000
0010
0000
0000
0000
1000
0000
0000
0000
0001
0000
0000
0000
0000
0000
0000
1000
0100
0000
0000
0000
0010
0000
0000
0000
0100
0000
0000
0000
1000
0000
0000
0000
0001
0000
0000
0000
0100
0000
0000
0000
0010
0000
0000
0000
0000
0000
0000
0000
0100
0000
0000
0000
0000
0000
0000
0000
0000
0000
0000
0000
,
0001
0000
0000
1000
0000
0000
0100
0000
0000
1000
0000
0000
0000
0000
0000
0001
0000
0000
0010
0000
0001
0000
1000
0000
0010
0000
1000
0000
0001
0000
0010
0000
0100
0000
1000
0000
0001
0000
0100
0000
0010
0000
0100
0000
0001
0000
0010
0000
,
0100
0000
0000
0000
;

//---------------dance-single - Blank----------------
#NOTES:
     dance-single:
     Blank:
     Beginner:
     1:
     0.096,0.109,0.000,0.000,0.000:
0000
0000
0000
0000
,
0000
0000
0000
1000
0000
0000
0000
1000
,
0000
0000
0000
0001
0000
0000
0000
0001
,
0000
0000
0000
0010
0000
0000
0000
0010
,
0000
0000
0000
0100
0000
0000
0000
0000
,
0000
0000
0000
1000
0000
0000
0000
1000
,
0000
0000
0000
0010
0000
0000
0000
0010
,
0000
0000
0000
0100
0000
0000
0000
0000
,
0010
0000
0000
0000
,
1000
0000
0000
0000
,
0001
0000
0000
0000
,
0010
0000
0000
0000
,
0001
0000
0000
0000
,
1000
0000
0000
0000
,
0010
0000
0000
0000
,
0100
0000
0010
0000
,
0010
0000
0000
0000
,
1000
0000
0000
0000
,
0100
0000
0000
0000
,
0010
0000
0000
0000
,
0001
0000
0000
0000
,
0100
0000
0010
0000
,
0010
0000
1000
0000
,
1000
0000
0000
0000
,
0001
0000
0000
0000
,
0010
0000
0000
0000
,
0001
0000
0000
0000
,
0100
0000
0000
0000
,
0010
0000
0000
0000
,
1000
0000
0000
0001
0000
0000
0000
0001
,
0000
0000
0000
1000
0000
0000
0000
1000
,
0000
0000
0000
0100
0000
0000
0000
0100
,
0000
0000
0000
0010
0000
0000
0000
0000
,
0000
0000
0000
0100
0000
0000
0000
0100
,
0000
0000
0000
1000
0000
0000
0000
1000
,
0000
0000
0000
0010
0000
0000
0000
0010
,
0000
0000
0000
0100
,
0100
0000
0000
0000
,
0001
0000
0000
0000
,
1000
0000
0000
0000
,
0001
0000
0000
0000
,
0010
0000
0000
0000
,
0001
0000
0000
0000
,
1000
0000
0000
0000
,
0100
0000
0000
0000
,
1000
0000
0000
0000
,
0010
0000
0000
0000
,
0100
0000
0000
0000
,
0010
0000
0000
0000
,
1000
0000
0000
0000
,
0001
0000
0000
0000
,
0010
0000
0000
0000
,
0100
0000
0000
0000
,
1000
0000
0000
0000
,
0010
0000
0000
0000
,
0100
0000
0000
0000
,
0001
0000
0000
0000
,
1000
0000
0000
0000
,
0100
0000
0000
0000
,
0010
0000
0000
0000
,
0001
0000
0000
0000
,
0100
0000
0000
0000
,
0010
0000
0000
0000
,
1000
0000
0000
0000
,
0001
0000
0000
0000
;

//---------------dance-single - Sudzi781----------------
#NOTES:
     dance-single:
     Sudzi781:
     Easy:
     4:
     0.278,0.246,0.000,0.017,0.068:
0000
0000
0000
0000
,
1000
0000
0000
0001
0000
1000
0000
0100
,
0000
1000
0000
0010
0000
0100
0000
0001
,
0000
1000
0000
0001
0000
0010
0000
0100
,
0000
0000
0000
0010
0000
0000
0000
0000
0000
M000
0000
0000
000M
0000
0000
M000
0000
0000
0000
0000
000M
0000
M000
0000
,
0000
0000
0000
0100
0000
1000
0000
0001
,
0000
1000
0000
0010
0000
0100
0000
0001
,
0000
1000
0000
0001
0010
0000
0000
0000
,
0001
0000
0000
1000
0000
0000
0000
0000
0001
0000
0000
0000
0100
0000
0000
0000
,
0010
0000
0000
1000
0000
0001
0000
1000
,
0000
0100
0000
0010
0000
0100
0000
1000
,
0000
0001
0000
0100
0000
0010
0000
0000
,
0100
0000
0000
0001
0000
0000
1M00
0000
00M0
0000
0M00
00M0
,
0001
0000
0000
0100
0000
0010
0000
1000
,
0000
0100
0000
0010
0000
0100
0000
1000
,
0000
0000
0001
0100
,
0010
0000
1000
0001
,
0010
0000
0000
0001
0000
0000
1000
0000
,
0000
0010
0000
0000
0100
0000
0000
0000
,
0010
0000
0000
1000
0000
0000
0001
0000
,
0000
0010
0000
0000
0100
0000
0000
0000
,
0010
0000
0001
0000
,
1000
0000
0010
0000
,
0100
0000
0000
0001
0000
0000
1000
0000
,
0001
0000
0010
0000
,
0001
0000
0000
1000
0000
0000
0010
0000
0000
0000
0100
0000
0001
0000
0000
0000
,
1000
0000
0000
0000
0000
0000
0100
0000
0000
0000
0000
0000
0000
1000
0000
0000
,
0001
0000
0000
1000
0000
0000
0010
0000
0000
0000
0100
0000
0000
0000
0001
0000
,
0010
0100
0000
1000
0001
0000
1000
0000
,
0010
0000
0000
0100
0000
0001
0000
1000
,
0000
0001
0000
0010
0000
0100
0000
1000
,
0000
0010
0000
0100
0000
0001
0000
1000
,
0000
0000
0000
0000
0000
0000
0001
0000
0000
0000
0000
0000
0000
0000
0000
0000
0000
0000
0M00
0000
0000
00M0
0000
0000
0000
0000
0000
0000
00M0
0000
0000
0000
0M00
0000
0000
0000
00M0
0000
0000
0000
0000
0000
0000
0000
0M00
0000
0000
0000
,
0000
0000
0000
1000
0000
0010
0000
0100
,
0000
0010
0000
1000
0000
0001
0000
1000
,
0000
0100
0000
0010
0000
0100
0000
0000
,
2000
0000
0000
3002
,
1003
0010
1000
0001
,
0100
0001
0010
0100
,
1000
0001
1000
0010
,
0100
0001
1000
0001
,
0010
0001
0100
0010
,
1000
0001
0100
0001
,
1000
0100
0010
0100
,
1000
0010
0100
0001
,
1000
0001
0010
0100
,
1000
0001
1000
0010
,
0100
0001
0100
0010
,
1000
0001
0010
0001
,
0100
0010
1000
0100
,
1000
0001
0010
0001
,
1000
0010
0100
0001
,
1000
0100
0010
0001
,
1000
0010
0100
0001
,
0100
0001
0010
0100
,
1000
0100
0010
0001
,
1000
0010
0100
0001
,
1000
0001
0010
0100
,
0010
0001
1000
0010
,
0100
0001
1000
0001
,
0010
0100
1000
0010
,
0100
0000
0000
0001
0000
0000
0010
0000
0000
0000
0100
0000
0010
0000
0000
0000
,
0001
0000
0000
0000
0000
0000
1000
0000
0000
0000
0000
0000
0000
0010
0000
0000
,
0100
0000
0000
0010
0000
0000
1000
0000
0000
0000
0001
0000
0000
0000
1000
0000
,
0100
0000
0000
0000
;

//---------------dance-single - Sudzi781----------------
#NOTES:
     dance-single:
     Sudzi781:
     Medium:
     7:
     0.512,0.547,0.009,0.034,0.269:
0000
0000
0000
0000
,
1001
0000
0000
0001
0000
1000
0000
0001
,
0000
1000
0000
0001
0000
1000
0000
0001
,
0000
1000
0000
0001
0000
1000
0000
0001
,
0000
0000
0000
1000
0000
0000
0000
0000
0000
0001
0000
0000
0100
0000
0010
0000
0100
0000
0010
0000
0100
0000
0010
0000
,
0000
0000
0000
1000
0000
0001
0000
1000
,
0000
0001
0000
1000
0000
0001
0000
1000
,
0000
0001
0000
1000
0100
0010
0200
0000
,
1300
0000
0000
0001
0000
0000
0100
0000
0010
0000
0000
0100
0000
0000
0001
0000
,
0010
0000
0100
1000
0000
0001
0000
1000
,
0000
0001
0000
1000
0000
0001
0000
1000
,
0000
0001
0000
1000
0000
0001
0000
0100
,
0010
0000
0000
1000
0000
0001
0010
0001
0010
0100
0000
1000
,
0001
0000
0100
0001
0000
1000
0000
0001
,
0000
1000
0000
0001
0000
1000
0000
0001
,
0010
0100
0010
0001
,
1000
0010
0100
0020
,
1030
0000
0000
0100
0000
0000
1000
0000
0000
0001
0000
0000
1000
0000
0000
0010
,
0000
0000
0100
0000
0000
0001
0000
0000
0100
0000
0010
0000
1000
0000
0000
0000
,
0001
0000
0000
0010
0000
0000
0100
0000
0000
0010
0000
0000
0001
0000
0000
1000
,
0000
0000
0001
0000
0000
1000
0000
0000
0010
0000
0000
0100
0000
0000
0001
0000
,
0010
0000
0000
0010
0000
0000
0000
0000
0100
0000
0000
0100
0000
0000
0000
0000
,
1000
0000
0000
1000
0000
0000
0000
0000
0001
0000
1000
0000
0010
0000
0000
0000
,
0100
0000
0000
0001
0000
0000
1000
0000
0000
0100
0000
0000
0010
0000
0000
0100
,
0000
0000
1000
0000
0000
0001
0000
0000
1000
0000
0000
0010
0000
0000
1000
0000
,
0001
0000
0000
0000
0010
0000
0001
0000
0000
0000
0100
0000
0010
0000
0000
0000
1000
0000
0000
0000
0001
0000
0000
0000
0010
0000
0000
0001
0000
0000
1000
0000
,
0001
0000
1000
0010
0000
1000
0001
0000
0010
0000
0001
0100
0000
0010
0000
0000
,
1000
0000
0000
0000
0000
0000
0001
0000
0000
1000
0000
0000
0000
0000
0000
0100
0000
0000
0010
0000
0000
0000
0100
0000
0000
0000
1000
0000
0000
0000
0001
0000
0000
0000
1000
0000
0000
0000
0010
0000
0000
0000
0100
0000
0000
0000
0000
0000
,
0001
0000
1000
0100
1000
0000
0001
0000
1000
0010
0000
0100
0010
0000
1000
0001
,
1000
0000
0000
0001
0000
0100
0000
0001
,
0000
0100
0000
0001
0000
0100
0000
0001
,
0000
0100
0000
0001
0000
0100
0000
0001
,
0000
0000
0000
0100
0000
0000
0000
0000
0000
0001
0000
0000
1000
0000
0100
0000
1000
0000
0100
0000
1000
0000
0100
0000
,
0000
0000
0000
0010
0000
0001
0000
0010
,
0000
0001
0000
0010
0000
0001
0000
0010
,
0000
0001
0000
0010
0000
0001
0000
1000
,
0020
0000
0000
0230
,
0301
1000
0001
0010
0100
1000
0004
1003
,
0010
0100
0001
1000
0001
0010
0100
1000
,
0004
1003
0010
0100
0010
1000
0004
0013
,
0001
1000
0100
1000
0004
0103
0010
1000
,
0004
0013
0100
0010
0001
1000
0040
1030
,
0001
0100
0010
1000
0001
1000
0100
1000
,
0010
0100
0001
1000
0001
0010
0100
1000
,
0001
1000
0010
1000
0001
0010
0100
0010
,
0004
1003
0001
1000
0010
0100
0004
0103
,
0010
1000
0100
0010
0100
1000
0001
0010
,
0400
1300
0001
0100
0010
0100
0004
1003
,
0100
0010
0001
1000
0004
1003
0010
0100
,
0040
1030
0001
1000
0010
0100
0004
0103
,
0010
1000
0001
1000
0100
0010
0001
1000
,
0001
0010
0100
1000
0001
1000
0010
0100
,
0001
1000
0001
0010
0100
1000
0100
0010
,
0400
1300
0001
0100
0010
0100
0004
1003
,
0001
0010
0100
1000
0001
1000
0010
0100
,
0004
1003
0001
1000
0010
0100
0040
1030
,
0100
0010
0100
1000
0004
0013
0001
1000
,
0040
0130
0001
1000
0001
1000
0400
0310
,
0100
1000
0001
0010
0100
1000
0001
0100
,
0010
0100
0001
1000
0010
1000
0001
0010
,
0100
1000
0001
1000
0010
1000
0100
0010
,
0001
0000
0000
0000
1000
0000
0001
0000
0000
0000
1000
0000
0010
0000
0000
0000
0100
0000
0000
0000
0010
0000
0000
0000
1000
0000
0000
0100
0000
0000
0010
0000
,
0100
0000
1000
0001
0000
1000
0010
0000
0100
0000
0001
1000
0000
0001
0000
0000
,
0010
0000
0000
0000
0000
0000
0001
0000
0000
1000
0000
0000
0000
0000
0000
0010
0000
0000
0100
0000
0000
0000
0010
0000
0000
0000
0100
0000
0000
0000
0001
0000
0000
0000
1000
0000
0000
0000
0100
0000
0000
0000
0010
0000
0000
0000
0000
0000
,
0100
0000
0000
0000
;

//---------------dance-single - Sudzi781----------------
#NOTES:
     dance-single:
     Sudzi781:
     Hard:
     11:
     0.775,0.902,0.026,0.026,1.000:
0000
0000
0000
0000
,
0101
0000
0000
1000
0000
0010
0000
0100
,
0000
0001
0000
1000
0000
0010
0000
0100
,
0000
0001
0000
1000
0000
0010
0000
0100
,
0000
0000
0000
0001
0000
0000
0000
0000
0000
0040
0000
0000
0031
0000
1000
0000
0001
0000
0100
0000
0010
0000
0100
0000
,
0000
0000
0000
0001
0000
0010
0000
0100
,
0000
1000
0000
0001
0000
0010
0000
0100
,
0000
0000
1000
0000
0000
0000
0001
0000
1000
0000
0100
1000
0002
0000
0000
0000
,
1003
0000
0001
0010
0000
0001
4000
0000
3001
0100
0000
0001
1000
0000
0100
0000
,
0110
0010
0001
1000
0010
0100
0001
0010
,
0100
1000
0100
0010
0001
1000
0001
0100
,
0010
0000
0100
0000
0001
0000
1000
0000
0001
0000
0100
0000
0010
0000
1000
0001
,
1000
0000
0000
0000
0000
0000
0001
0000
0000
0100
0000
0000
0001
0000
0000
0000
0000
0000
0100
0000
0000
0010
0000
0000
0100
0000
0000
0000
0001
0000
0000
0000
1000
0000
0000
0000
0001
0000
0000
0000
0010
0000
0000
0000
0001
0000
0000
0000
,
1000
0010
1000
0100
0010
0001
1000
0001
,
0100
0010
1000
0001
1000
0100
0010
0001
,
1000
0000
0010
0000
0100
0010
1000
0001
,
0010
0100
1000
0100
1000
0100
4000
0000
,
3001
0000
0000
1000
0000
0000
0100
0000
0000
1000
0000
0000
0001
0000
0000
1000
,
0000
0000
0010
0000
0000
1000
0000
0000
0100
0000
0000
0010
0000
0000
0001
0000
,
0100
0000
0000
0100
0000
0000
0010
0000
0000
1000
0010
0000
0100
0000
0001
1000
,
0100
0000
0010
0000
0000
0100
1000
0000
0001
0000
1000
0000
0001
0000
0010
0100
,
0010
0000
0000
0001
0000
0000
0000
0000
1000
0000
0000
0001
0000
0000
00M0
0000
,
1000
0000
0000
0010
0000
0000
0000
0000
0100
0001
0100
0000
0010
0000
1000
0000
,
1001
0000
0000
0001
0000
0000
0010
0000
0000
0001
0000
0000
1000
0000
0000
0010
,
0100
0000
0001
0000
0000
1000
0000
0000
0001
0000
0000
0010
0000
0000
0001
0000
,
1MM0
0000
0001
0000
1000
0000
0010
0000
0000
0000
0100
0000
0010
0000
1000
0000
0001
0000
1000
0000
0100
0000
1000
0000
0001
0000
0000
0100
0000
0000
0010
0000
,
1000
0001
1000
0100
0000
0010
0100
1000
0001
0100
0010
1000
0001
1000
0000
0000
,
0001
0000
0000
0010
0000
0000
0001
0000
0000
1000
0000
0000
0000
0000
0000
0010
0000
0000
0100
0000
0001
0000
0100
0000
0001
0000
1000
0000
0010
0000
0100
0000
0001
0000
0100
0000
0001
0000
1000
0000
0100
0000
1000
0000
0100
0000
1000
0000
,
0001
0000
0000
0000
0000
0000
1000
0000
0001
0000
0010
0000
0100
0000
0010
0000
0001
0000
1000
0000
0001
0000
0100
0000
0010
0000
0000
1000
0000
0000
0001
0000
0000
0010
0000
0000
0100
0000
0000
0010
0000
0000
0001
0000
0000
0100
0000
0000
,
M010
0000
0000
1000
0000
0010
0000
0100
,
0000
0001
0000
1000
0000
0010
0000
0100
,
0000
0001
0000
1000
0000
0010
0000
0100
,
0000
0000
0000
0001
0000
0000
0000
0000
0000
4000
0000
0000
3001
0000
0010
0000
0001
0000
1000
0000
0010
0000
0100
0000
,
0000
0000
0000
0001
0000
0010
0000
0100
,
0000
1000
0000
0001
0000
0010
0000
0100
,
0000
1000
0000
0001
0000
0010
0000
0100
,
2000
0000
0000
3020
,
1030
0100
1000
0100
1000
0100
0010
0001
0010
0001
0010
0001
4000
0000
0000
0000
,
3001
0100
0001
0100
0001
0100
0001
1000
0100
1000
0100
1000
0100
1000
0100
1000
,
0004
0000
0000
0000
0103
0010
0100
0010
0100
0010
0100
0010
4000
0000
0000
0000
,
3001
0010
0001
0010
0001
0010
0001
0010
0400
0000
0000
0000
1300
0001
1000
0001
,
4000
0000
0000
0000
3001
0100
0001
0100
0001
0100
0001
0100
0004
0000
0000
0000
,
1003
0100
1000
0100
1000
0100
1000
0100
0010
0001
0010
0001
0010
0001
0010
0001
,
1000
0010
1000
0010
1000
0010
1000
0010
1000
0010
1000
0010
1000
0010
1000
0010
,
1000
0001
0100
0001
0100
0001
0100
0001
0010
0100
0010
0100
0010
0100
1000
0001
,
4000
0000
0000
0000
3001
0010
0001
0010
0001
0010
0001
0010
0400
0000
0000
0000
,
1300
0001
1000
0001
1000
0001
1000
0001
1000
0010
1000
0010
1000
0010
1000
0010
,
0400
0000
0000
0000
0301
0010
0001
0010
0001
0010
0001
0010
0004
0000
0000
0000
,
0103
0010
0100
0010
0100
0010
0100
0010
4000
0000
0000
0000
3001
0010
0001
0010
,
0400
0000
0000
0000
1300
0001
1000
0001
1000
0001
1000
0001
0400
0000
0000
0000
,
0310
1000
0010
1000
0010
1000
0010
1000
0001
0010
0001
0010
0001
0010
0001
1000
,
0100
1000
0100
1000
0100
1000
0100
1000
0001
1000
0001
1000
0001
1000
0001
1000
,
0010
0100
0001
0100
0001
0100
0001
0100
0001
1000
0100
1000
0100
1000
0100
1000
,
0004
0000
0000
0000
1003
0010
1000
0010
1000
0010
1000
0010
0400
0000
0000
0000
,
0301
1000
0001
1000
0001
1000
0001
1000
0100
0010
0100
0010
0100
0010
0100
0010
,
0400
0000
0000
0000
1300
0010
1000
0010
1000
0010
1000
0010
0400
0000
0000
0000
,
0301
1000
0001
1000
0001
1000
0001
1000
0040
0000
0000
0000
1030
0100
1000
0100
,
0040
0000
0000
0000
0031
1000
0001
1000
0001
1000
0001
1000
0040
0000
0000
0000
,
1030
0100
1000
0100
1000
0100
1000
0100
1000
0100
1000
0100
0010
0001
1000
0001
,
1000
0001
1000
0001
1000
0001
1000
0001
0100
0001
0100
0001
0100
0001
0100
0001
,
0100
0010
1000
0010
1000
0010
1000
0010
0100
0001
0100
0001
0100
0001
0100
0001
,
10M0
0000
0100
0000
1000
0000
0001
0000
0000
0000
0010
0000
0001
0000
1000
0000
0001
0000
0100
0000
0010
0000
1000
0000
0001
0000
0000
1000
0000
0000
0100
0000
,
0010
0100
0010
0001
0000
1000
0001
1000
0010
0100
0010
1000
0000
0001
0000
0000
,
0010
0000
0000
0100
0000
0000
0010
0000
0000
0001
0000
0000
0000
0000
0000
1000
0000
0000
0001
0000
1000
0000
0001
0000
0100
0000
0010
0000
1000
0000
0001
0000
0010
0000
0100
0000
1000
0000
0001
0000
1000
0000
0010
0000
0100
0000
0001
0000
,
1000
0000
0000
0000
;

//---------------dance-double - Sudzi781----------------
#NOTES:
     dance-double:
     Sudzi781:
     Challenge:
     12:
     0.975,0.956,0.137,0.333,1.000:
00000000
00000000
00000000
00000000
,
00011000
00010000
00001000
02000000
00000000
03001000
00000000
00020000
,
00000000
00030100
00000000
02000000
00000000
03001000
00000000
M002000M
,
00000000
00030100
00000000
02000000
00000000
03001000
00000000
00020000
,
00000000
00000000
00000000
00030100
00000000
00000000
00000000
00000000
00000000
00010000
00001000
00010000
00001000
00000000
01000000
00000000
00010000
00000000
00100000
00000000
01000000
00000000
00100000
00000000
,
00000000
00000000
00000000
00000020
00000000
00010030
00000000
00002000
,
00000000
00103000
00000000
00000020
00000000
00010030
00000000
M000200M
,
00000000
00000000
00103000
00000000
00000000
00000000
00000020
00000000
00001030
00000000
00000010
00001000
00000100
00000000
00000000
00000000
,
00010100
00000000
00000000
00000000
00000000
00000000
00000100
00000000
00000000
00010000
00000000
00000000
00000000
00000000
00000000
00001000
00000000
00000000
01000000
00000000
00010000
00000000
01000000
00000000
00010000
00000000
00000000
10000000
00000000
00000000
00000000
00000000
00000000
00010000
00000000
00000000
00100000
00000000
00000000
00000000
00000000
00000000
00001000
00000000
00000000
00010000
00000000
00000000
,
00011000
00000000
00001000
01000000
00010000
00000000
00200000
00000000
00301000
00000000
00010000
00000000
00000010
00000000
00000200
00000000
,
00001300
00000000
00010000
00000000
00001000
00000000
00200000
00000000
00310000
00000000
10000000
00000000
00100000
00000000
20000000
31000000
,
00100000
00000000
01000000
00000000
00010000
00000000
00002000
00000000
00003100
00000000
00000010
00000000
00000100
00000000
00000001
00001000
,
00000010
00000000
00000000
00000000
00000000
00000000
00001000
00000000
00000000
00000100
00000000
00000000
00010000
00000000
00000000
00000000
00000000
00000000
00001000
00000000
00000000
00100000
00000000
00000000
00001000
00000000
00000000
00000000
00010000
00000000
00000000
00000000
00001000
00000000
00000000
00000000
00010000
00000000
00000000
00000000
00000010
00000000
00000000
00000000
00001000
00000000
00000000
00000000
,
00000010
00000100
00000001
00000020
00001030
00010000
00001000
02000000
,
03100000
00000000
01000000
00000000
00010000
00000000
00200000
00000000
00301000
00000000
00020000
00030010
00010000
00000000
00000200
00000000
,
00001300
00000000
00000010
00000000
00000020
00000000
00000000
00000000
00000130
00000001
00000010
00000100
00001000
00000000
00000200
00000000
,
00010300
00001000
01000000
01000000
00010000
00010000
00200000
00000000
,
00301000
00010000
00000000
00010000
00001000
00000000
00001000
01000000
00000000
01000000
00010000
00000000
00010000
10000000
00000000
10000000
,
01000000
00000000
01000000
00100000
00000000
00100000
00010000
00000000
01000000
00010000
00000000
01000000
00010000
00000000
00100000
00000000
,
00101000
00000000
00000000
00101000
00000000
00000000
00011000
00000000
00000000
00001000
01000000
00000000
00100000
00000000
10000000
01000000
,
00100000
00000000
00010000
00000000
00000000
01000000
00001000
00000000
00100000
00010000
00000000
00100000
00001000
00010000
00001000
00000000
,
01001000
00000000
00000000
00000000
00000000
00000000
00000000
00000000
00000000
00011000
00000000
00000000
00000000
00000000
00000000
00000000
00000000
00000000
00000000
00000000
000MM000
00000000
00000000
00000000
00000101
00000000
00000000
00000000
00000000
00000000
00000000
00000000
00000000
00000101
00000000
00000000
00000000
00000000
00000000
00000000
00000000
00000000
0000M000
00000000
00000000
00000000
00000000
00000000
,
00010010
00000000
00000000
00010010
00000000
00000000
00000000
00000000
00010000
00001000
00010000
00000000
00001000
00000000
00100000
00000000
,
11000000
00000000
00000000
11000000
00000000
00000000
11000000
00000000
00000000
10000000
00010000
00000000
01000000
00000000
00010000
00100000
,
01000000
00000000
00100000
00000000
00000000
00001000
00010000
00000000
00000100
00000000
00000000
00000100
00000000
00000000
00000100
00000000
,
M001010M
00000000
00010000
00000000
00001000
00000000
01000000
00000000
00000000
00000000
00010000
00000000
01000000
00000000
00010000
00000000
10000000
00000000
00100000
00000000
00010000
00000000
00001000
00000000
00010000
00000000
00000000
00000100
00000000
00000000
00010000
00000000
,
00001000
00000000
00000000
00000000
01000000
00000000
00000000
00000000
00010000
00000000
00000000
00000000
00100000
00000000
00000000
00000000
00000000
00000000
00000000
00001000
00010000
00000000
00000000
00000000
00000010
00000000
00000000
00000000
00001000
00000000
00000000
00000000
00000010
00000000
00000000
00000000
00000100
00000000
00000000
00000000
00000001
00000000
00000000
00000000
00000010
00000000
00000000
00000000
00000001
00000000
00000000
00000000
00001000
00000000
00000000
00000000
00000000
00000000
00000000
00000000
00000000
00000000
00000000
00000000
,
00000010
00000000
00000000
00001000
00000000
00000000
00000010
00000000
00000000
00010000
00000000
00000000
00000000
00000000
00000000
00001000
00000000
00000000
00010000
00000000
00001000
00000000
00100000
00000000
00010000
00000000
10000000
00000000
00010000
00000000
01000000
00000000
00100000
00000000
01000000
00000000
00010000
00000000
00100000
00000000
00001000
00000000
00010000
00000000
00000100
00000000
00001000
00000000
,
00000100
00000000
00000000
00000000
00000000
00000000
00000000
00000000
00000000
00000000
00000000
00000000
00000000
00000000
00000000
00000000
00000000
00000000
00000000
00000000
00000000
00000000
00000000
00000000
00010000
00000000
00000000
00000000
00000000
00000000
00000000
00000000
00001000
00000000
00000000
00000000
00000000
00000000
00000000
00000000
01000000
00000000
00000000
00000000
00000000
00000000
00000000
00000000
00010000
00000000
00000000
00000000
00000000
00000000
00000000
00000000
10000000
00000000
00000000
00000000
00000000
00000000
00000000
00000000
00100000
00000000
00000000
00000000
01000000
00000000
00000000
00000000
00100000
00000000
00000000
00000000
00000000
00000000
00000000
00000000
10000000
00000000
00000000
00000000
00000000
00000000
00000000
00000000
00010000
00000000
00000000
00000000
00000000
00000000
00000000
00000000
00100000
00000000
00000000
00000000
00000000
00000000
00000000
00000000
00000000
00000000
00000000
00000000
01000000
00000000
00000000
00000000
00000000
00000000
00000000
00000000
00000000
00000000
00000000
00000000
00020000
00000000
00000000
00000000
00000000
00000000
00000000
00000000
00000000
00000000
00000000
00000000
00032000
00000000
00000000
00000000
00000000
00000000
00000000
00000000
00000000
00000000
00000000
00000000
00013000
00000000
00000000
00000000
00000000
00000000
00000000
00000000
00000000
00000000
00000000
00000000
00000100
00000000
00000000
00000000
00000000
00000000
00000000
00000000
00000000
00000000
00000000
00000000
00010000
00000000
00000000
00000000
00000000
00000000
00000000
00000000
00000000
00000000
00000000
00000000
00001000
00000000
00000000
00000000
00000000
00000000
00010000
00000000
00000000
00000000
00000000
00000000
,
M000010M
00000000
00000000
02000000
00000000
03001000
00000000
00020000
,
00000000
00030100
00000000
02000000
00000000
03001000
00000000
00020000
,
00000000
00030100
00000000
02000000
00000000
03001000
00000000
00020000
,
00000000
00000000
00000000
00030100
00000000
00000000
00000000
00000000
00000000
00001000
00000001
00001000
00000001
00000000
00000010
00000000
00000100
00000000
00001000
00000000
00000100
00000000
00010000
00000000
,
00000000
00000000
00000000
00000200
00000000
00010300
00000000
00002000
,
00000000
01003000
00000000
00000200
00000000
00010300
00000000
00002000
,
00000000
00000000
01003000
00000000
00000000
00000000
00000200
00000000
00000000
00000000
00010300
00000000
00000000
00000000
00001000
01000000
,
00020000
00000000
00000000
20030000
,
31000000
00000000
00000000
00100000
00000000
00000000
00010000
00000000
00000000
00100000
00000000
00000000
00001000
00000000
00000000
00010000
00000000
00000000
00000100
00000000
00000000
00010000
00000000
00000000
00001000
00000000
00000000
01000000
00000000
00000000
00010000
00000000
00000000
10000000
00000000
00000000
01000000
00000000
00100000
00000000
01000000
00000000
10000000
00000000
00000000
00010000
00000000
00000000
,
01000000
00001000
00010000
00001000
00100000
00010000
00100000
00001000
00010000
00000010
00001000
00000010
00000100
00000001
00001000
00000001
,
00000010
00000000
00000100
00000000
00001000
00000000
00000100
00000000
00000000
00010000
00000000
00000000
00001000
00000000
00000000
00100000
00000000
00000000
00010000
00000000
00000000
00100000
00000000
00000000
01000000
00000000
00000000
10000000
00000000
00000000
00010000
00000000
00000000
01000000
00000000
00000000
00010000
00000000
10000000
00000000
00100000
00000000
01000000
00000000
00000000
00010000
00000000
00000000
,
00100000
00000000
00000000
00001000
00000000
00000000
00010000
00000000
00000000
00001000
00000000
00000000
01000000
00000000
00000000
00010000
00000000
00000000
00100000
00000000
00000000
00001000
00000000
00000000
00010000
00000000
00000010
00000000
00001000
00000000
00000010
00000000
00000000
00000100
00000000
00000000
00000001
00000000
00000000
00001000
00000000
00000000
00000001
00000000
00000000
00000010
00000000
00000000
,
00000100
00000000
00010000
00000000
00000100
00000000
00001000
00000000
00000000
00000001
00000000
00000000
00001000
00000000
00000000
00000010
00000000
00000000
00010000
00000000
00000000
00001000
00000000
00000000
00010000
00000000
00000000
00001000
00000000
00000000
01000000
00000000
00000000
00010000
00000000
00000000
10000000
00000000
01000000
00000000
00100000
00000000
00010000
00000000
00000000
10000000
00000000
00000000
,
00010000
01000000
00010000
10000000
01000000
00100000
00010000
00100000
00001000
00010000
00001000
01000000
00010000
00100000
01000000
10000000
,
00010000
01000000
00010000
01000000
00010000
01000000
00010000
01000000
00010000
01000000
00010000
01000000
00010000
01000000
00010000
01000000
,
00010000
10000000
01000000
00100000
01000000
00100000
00010000
00100000
00001000
00010000
00001000
00010000
00000100
00001000
00000010
00000100
,
00000001
00000000
00000100
00000000
00000010
00000000
00001000
00000000
00000000
00000001
00000000
00000000
00001000
00000000
00000000
00000100
00000000
00000000
00010000
00000000
00000000
00001000
00000000
00000000
00010000
00000000
00000000
00001000
00000000
00000000
01000000
00000000
00000000
00010000
00000000
00000000
10000000
00000000
00010000
00000000
01000000
00000000
00010000
00000000
00000000
00100000
00000000
00000000
,
01000000
10000000
00010000
00100000
00001000
00100000
00010000
10000000
00100000
01000000
00010000
01000000
00001000
00010000
00001000
00100000
,
00010000
00000000
00100000
00000000
00001000
00000000
00100000
00000000
00000000
00001000
00000000
00000000
00010000
00000000
00000000
00000100
00000000
00000000
00010000
00000000
00000000
00000010
00000000
00000000
00001000
00000000
00000000
00000010
00000000
00000000
00000100
00000000
00000000
00000001
00000000
00000000
00001000
00000000
00000100
00000000
00001000
00000000
00000001
00000000
00000000
00001000
00000000
00000000
,
00000100
00000000
00000000
00010000
00000000
00000000
00001000
00000000
00000000
00100000
00000000
00000000
00010000
00000000
00000000
10000000
00000000
00000000
00010000
00000000
00000000
01000000
00000000
00000000
00001000
00000000
00010000
00000000
00001000
00000000
01000000
00000000
00000000
00010000
00000000
00000000
01000000
00000000
00000000
00100000
00000000
00000000
10000000
00000000
00000000
00010000
00000000
00000000
,
00100000
00000000
01000000
00000000
10000000
00000000
01000000
00000000
00000000
00100000
00000000
00000000
00001000
00000000
00000000
00010000
00000000
00000000
00001000
00000000
00000000
01000000
00000000
00000000
00010000
00000000
00000000
01000000
00000000
00000000
00001000
00000000
00000000
00010000
00000000
00000000
00000010
00000000
00001000
00000000
00000010
00000000
00000100
00000000
00000000
00000010
00000000
00000000
,
00001000
00000001
00001000
00000100
00010000
00000100
00010000
00001000
01000000
00010000
00100000
00001000
00010000
00000010
00001000
00000010
,
00000100
00000001
00000100
00000001
00000100
00000001
00000100
00000001
00000100
00000001
00000100
00000001
00000100
00000001
00000100
00000001
,
00001000
00000100
00000010
00000001
00001000
00000100
00010000
00001000
00100000
00010000
01000000
00010000
10000000
01000000
00100000
00010000
,
10000000
00000000
00010000
00000000
01000000
00000000
00010000
00000000
00000000
00100000
00000000
00000000
00001000
00000000
00000000
00010000
00000000
00000000
00001000
00000000
00000000
00010000
00000000
00000000
00000010
00000000
00000000
00001000
00000000
00000000
00000010
00000000
00000000
00000100
00000000
00000000
00000001
00000000
00000010
00000000
00000100
00000000
00001000
00000000
00000000
00000100
00000000
00000000
,
00010000
00001000
01000000
00001000
00010000
00001000
00100000
00010000
00100000
00010000
10000000
00100000
01000000
00010000
01000000
00001000
,
00010000
00000000
00001000
00000000
00100000
00000000
00010000
00000000
00000000
10000000
00000000
00000000
00010000
00000000
00000000
00100000
00000000
00000000
00001000
00000000
00000000
00010000
00000000
00000000
00000010
00000000
00000000
00001000
00000000
00000000
00000010
00000000
00000000
00000100
00000000
00000000
00000001
00000000
00001000
00000000
00000001
00000000
00000010
00000000
00000000
00000100
00000000
00000000
,
00001000
00000000
00000000
00000100
00000000
00000000
00010000
00000000
00000000
00000010
00000000
00000000
00001000
00000000
00000000
00000010
00000000
00000000
00000100
00000000
00000000
00000001
00000000
00000000
00001000
00000000
00000010
00000000
00001000
00000000
00000001
00000000
00000000
00001000
00000000
00000000
00000010
00000000
00000000
00010000
00000000
00000000
00001000
00000000
00000000
00010000
00000000
00000000
,
00001000
00000000
01000000
00000000
00010000
00000000
01000000
00000000
00000000
00100000
00000000
00000000
10000000
00000000
00000000
00010000
00000000
00000000
10000000
00000000
00000000
01000000
00000000
00000000
00100000
00000000
00000000
00010000
00000000
00000000
00100000
00000000
00000000
01000000
00000000
00000000
10000000
00000000
00010000
00000000
10000000
00000000
00100000
00000000
00000000
01000000
00000000
00000000
,
00010000
10000000
00010000
00100000
00010000
00100000
00001000
00010000
00000010
00001000
00000010
00010000
00001000
01000000
00010000
01000000
,
00001000
00100000
00001000
00100000
00001000
00100000
00001000
00100000
00001000
00100000
00001000
00100000
00001000
00100000
00001000
00100000
,
00010000
10000000
00010000
01000000
00001000
00010000
00001000
00010000
00000100
00000010
00000100
00001000
00000001
00001000
00000010
00000100
,
M000001M
00000000
00010000
00000000
00001000
00000000
01000000
00000000
00000000
00000000
00100000
00000000
01000000
00000000
00010000
00000000
00100000
00000000
01000000
00000000
10000000
00000000
01000000
00000000
00010000
00000000
00000000
00001000
00000000
00000000
00000100
00000000
,
00000010
00000000
00000000
00000000
00000100
00000000
00000000
00000000
00000001
00000000
00000000
00000000
00001000
00000000
00000000
00000000
00000000
00000000
00000000
00000100
00010000
00000000
00000000
00000000
00001000
00000000
00000000
00000000
00010000
00000000
00000000
00000000
00000010
00000000
00000000
00000000
00001000
00000000
00000000
00000000
00000100
00000000
00000000
00000000
00010000
00000000
00000000
00000000
00001000
00000000
00000000
00000000
01000000
00000000
00000000
00000000
00000000
00000000
00000000
00000000
00000000
00000000
00000000
00000000
,
00010000
00000000
00000000
00100000
00000000
00000000
01000000
00000000
00000000
10000000
00000000
00000000
00000000
00000000
00000000
00010000
00000000
00000000
10000000
00000000
00100000
00000000
01000000
00000000
00010000
00000000
01000000
00000000
00001000
00000000
00010000
00000000
00001000
00000000
00100000
00000000
00010000
00000000
00100000
00000000
00001000
00000000
00010000
00000000
00000100
00000000
00001000
00000000
,
00000010
00000000
00000000
00000000
;

//---------------dance-double - Sudzi781----------------
#NOTES:
     dance-double:
     Sudzi781:
     Easy:
     1:
     0.109,0.109,0.009,0.000,0.000:
00000000
00000000
00000000
00000000
,
00000000
00000000
00000000
00010000
00000000
00000000
00000000
00010000
,
00000000
00000000
00000000
00001000
00000000
00000000
00000000
00001000
,
00000000
00000000
00000000
01000000
00000000
00000000
00000000
01000000
,
00000000
00000000
00000000
00001000
00000000
00000000
00000000
00000000
,
00000000
00000000
00000000
00010000
00000000
00000000
00000000
00010000
,
00000000
00000000
00000000
00000100
00000000
00000000
00000000
00000100
,
00000000
00000000
00000000
00001000
00000000
00000000
00000000
00000000
,
00000100
00000000
00000000
00000000
,
00000010
00000000
00000000
00000001
00000000
00000000
00000000
00000001
,
00000000
00000000
00000000
00001000
00000000
00000000
00000000
00001000
,
00000000
00000000
00000000
00000010
00000000
00000000
00000000
00000010
,
00000000
00000000
00000000
00010000
00000000
00000000
00000000
00000000
,
00001000
00000000
00000000
00100000
00000000
00000000
00000000
00100000
,
00000000
00000000
00000000
00010000
00000000
00000000
00000000
00000000
,
00010000
00000000
00100000
00000000
,
00001000
00000000
00000000
00000000
,
00010000
00000000
00000000
00000000
,
00000010
00000000
00000000
00000000
,
00010010
00000000
00000000
00000000
,
00010000
00000000
00000000
00000000
,
00001000
00000000
00100000
00000000
,
00010000
00000000
01000000
00000000
,
00001000
00000000
00000000
00000000
,
00010000
00000000
00000000
00000000
,
00000100
00000000
00000000
00000000
,
00001000
00000000
00000000
00000000
,
00000010
00000000
00000000
00000000
,
00010000
00000000
00000000
00000000
,
00001000
00000000
00000000
01000000
00000000
00000000
00000000
01000000
,
00000000
00000000
00000000
00100000
00000000
00000000
00000000
00100000
,
00000000
00000000
00000000
00010000
00000000
00000000
00000000
00010000
,
00000000
00000000
00000000
00001000
00000000
00000000
00000000
00000000
,
00000000
00000000
00000000
00010000
00000000
00000000
00000000
00010000
,
00000000
00000000
00000000
00000100
00000000
00000000
00000000
00000100
,
00000000
00000000
00000000
00000010
00000000
00000000
00000000
00000010
,
00000000
00000000
00000000
00000001
,
00000001
00000000
00000000
00000000
,
00001000
00000000
00000000
00000000
,
00000010
00000000
00000000
00000000
,
00010000
00000000
00000000
00000000
,
00001000
00000000
00000000
00000000
,
01000000
00000000
00000000
00000000
,
00010000
00000000
00000000
00000000
,
01000000
00000000
00000000
00000000
,
00001000
00000000
00000000
00000000
,
00100000
00000000
00000000
00000000
,
01000000
00000000
00000000
00000000
,
00010000
00000000
00000000
00000000
,
00001000
00000000
00000000
00000000
,
00010000
00000000
00000000
00000000
,
00000010
00000000
00000000
00000000
,
00001000
00000000
00000000
00000000
,
00000001
00000000
00000000
00000000
,
00000010
00000000
00000000
00000000
,
00000100
00000000
00000000
00000000
,
00001000
00000000
00000000
00000000
,
00000100
00000000
00000000
00000000
,
00010000
00000000
00000000
00000000
,
00001000
00000000
00000000
00000000
,
01000000
00000000
00000000
00000000
,
00010000
00000000
00000000
00100000
00000000
00000000
00000000
00000000
,
00001000
00000000
00000000
00010000
00000000
00000000
00000000
00000000
,
00001000
00000000
00000000
01000000
00000000
00000000
00000000
00000000
,
00010000
00000000
00000000
00000000
;

//---------------dance-double - Sudzi781----------------
#NOTES:
     dance-double:
     Sudzi781:
     Medium:
     6:
     0.406,0.547,0.017,0.034,0.248:
00000000
00000000
00000000
00000000
,
00011000
00000000
00000000
00010000
00000000
00000100
00000000
00010000
,
00000000
00001000
00000000
01000000
00000000
00001000
00000000
00010000
,
00000000
00100000
00000000
00010000
00000000
00001000
00000000
00010000
,
00000000
00000000
00000000
00000100
00000000
00000000
00000000
00000000
00000000
00001000
00000000
00000000
00000100
00000000
00010000
00000000
00000100
00000000
00010000
00000000
00000100
00000000
00001000
00000000
,
00000000
00000000
00000000
00000010
00000000
00010000
00000000
00000010
,
00000000
00001000
00000000
00000010
00000000
00000100
00000000
00000001
,
00000000
00001000
00000000
00000100
00010000
00001000
02000000
00000000
,
03010000
00000000
00000000
00010000
00000000
00000000
00100000
00000000
00100000
00000000
00000000
00100000
00000000
00000000
00001000
00000000
,
00001000
00000000
00010000
00000100
00000000
00010000
00000000
00001000
,
00000000
00000100
00000000
00001000
00000000
00010000
00000000
01000000
,
00000000
00010000
00000000
00001000
00000000
00010000
00000000
00000010
,
00001000
00000000
00000000
00000010
00000000
00010000
00001000
00010000
00001000
01000000
00000000
00001000
,
00010000
00000000
00000100
00010000
00000000
00001000
00000000
00010000
,
00000000
00000010
00000000
00001000
00000000
00000100
00000000
00010000
,
00010000
00001000
01000000
00001000
,
00100000
00010000
00100000
00002000
,
00013000
00000000
00000000
00000100
00000000
00000000
00010000
00000000
00000000
00001000
00000000
00000000
01000000
00000000
00000000
00010000
,
00000000
00000000
01000000
00000000
00000000
00001000
00000000
00000000
00100000
00000000
00000000
00000000
00001000
00000000
00000000
00000000
,
00010000
00000000
00000000
00000100
00000000
00000000
00010000
00000000
00000000
00000010
00000000
00000000
00001000
00000000
00000000
00000001
,
00000000
00000000
00001000
00000000
00000000
00000100
00000000
00000000
00000010
00000000
00000000
00000100
00000000
00000000
00010000
00000000
,
00001000
00000000
00000000
01000000
00000000
00000000
00000000
00000000
00010000
00000000
00000000
00100000
00000000
00000000
00000000
00000000
,
00001000
00000000
00000000
01000000
00000000
00000000
00000000
00000000
00001000
00000000
00000000
00000000
00101000
00000000
00000000
00000000
,
00100000
00000000
00000000
00001000
00000000
00000000
00010000
00000000
00000000
00000010
00000000
00000000
00000100
00000000
00000000
00000001
,
00000000
00000000
00001000
00000000
00000000
00000100
00000000
00000000
00000010
00000000
00000000
00000100
00000000
00000000
00001000
00000000
,
00000100
00000000
00000000
00000000
00000000
00000000
00010000
00000000
00000000
00000000
00000000
00000000
00001000
00000000
00000000
00000000
00010000
00000000
00000000
00000000
00001000
00000000
00000000
00000000
01000000
00000000
00000000
00001000
00000000
00000000
00000000
00000000
,
00010000
00000000
00000100
00010000
00000000
00001000
00010000
00000000
00000010
00000000
00001000
00000010
00000000
00001000
00000000
00000000
,
00000001
00000000
00000000
00000000
00000000
00000000
00000010
00000000
00000000
00000001
00000000
00000000
00000000
00000000
00000000
00000010
00000000
00000000
00000100
00000000
00000000
00000000
00001000
00000000
00000000
00000000
00000100
00000000
00000000
00000000
00001000
00000000
00000000
00000000
00000100
00000000
00000000
00000000
00010000
00000000
00000000
00000000
00001000
00000000
00000000
00000000
00000000
00000000
,
00010000
00000000
00001000
00000000
00000000
00010000
00000000
00000000
00001000
00100000
00000000
00001000
00010000
00000000
00001000
00000000
,
01000000
00000000
00000000
00001000
00000000
00010000
00000000
00000100
,
00000000
00010000
00000000
00001000
00000000
00000100
00000000
00001000
,
00000000
00010000
00000000
01000000
00000000
00010000
00000000
00001000
,
00000000
00000000
00000000
00010000
00000000
00000000
00000000
00000000
00000000
00000100
00000000
00000000
00001000
00000000
00000010
00000000
00001000
00000000
00000010
00000000
00001000
00000000
00000001
00000000
,
00000000
00000000
00000000
00000010
00000000
00000100
00000000
00001000
,
00000000
00000100
00000000
00010000
00000000
00001000
00000000
01000000
,
00000000
00010000
00000000
01000000
00000000
00001000
00000000
00010000
,
00020000
00000000
00000000
00032000
,
00103000
00000000
00010000
00000000
01000000
00000000
00001000
01000000
,
00001000
00000100
00001000
00000010
,
00001000
00000001
00001000
00000000
00000100
00000000
00010000
00001000
,
00010000
00000000
00001000
00000000
01000000
00010000
01000000
00000000
,
00001000
00100000
00010000
00000000
01000000
00000000
00001000
00010000
,
00000100
00000010
00001000
00010000
,
01000000
10000000
00100000
01000000
,
00001000
00010000
00000100
00001000
,
00000010
00001000
00000001
00000000
00000010
00000000
00001000
00000100
,
00010000
00001000
01000000
00010000
,
00100000
00001000
00010000
00000000
00000100
00000000
00001000
00010000
,
00001000
00010000
00000100
00010000
,
00001000
01000000
00001000
00000000
00100000
00000000
00010000
00100000
,
01000000
10000000
01000000
00010000
,
00001000
00000100
00000001
00000100
,
00000010
00001000
00000100
00010000
,
00001000
00010000
00001000
00000000
00100000
00000000
00010000
01000000
,
00100000
01000000
00001000
00010000
,
00000100
00001000
00000010
00000000
00000001
00000000
00000010
00001000
,
00000010
00000000
00010000
00000000
00001000
00100000
00001000
00000000
,
00100000
00010000
01000000
00000000
00001000
00000000
00100000
00001000
,
00010000
01000000
10000000
00010000
,
01000000
00100000
00010000
00001000
,
00010000
00000100
00001000
00000001
,
00000100
00000000
00000010
00010000
00000000
00000010
00001000
00000000
00000100
00000000
00010000
00000000
00001000
00000000
00000000
00100000
,
00010000
00000000
00000000
01000000
00000000
00001000
01000000
00000000
00010000
00000000
00100000
00000000
00000000
00010000
00000000
00000000
,
00100000
00000000
00000000
00000000
00000000
00000000
00001000
00000000
00000000
00010000
00000000
00000000
00000000
00000000
00000000
00001000
00000000
00000000
00010000
00000000
00000000
00000000
00000010
00000000
00000000
00000000
00010000
00000000
00000000
00000000
00000010
00000000
00000000
00000000
00001000
00000000
00000000
00000000
00000001
00000000
00000000
00000000
00001000
00000000
00000000
00000000
00000000
00000000
,
00000001
00000000
00000000
00000000
;

//---------------dance-double - Sudzi781----------------
#NOTES:
     dance-double:
     Sudzi781:
     Hard:
     8:
     0.579,0.820,0.009,0.299,0.325:
00000000
00000000
00000000
00000000
,
00101000
00000000
00000000
00200000
00000000
00301000
00000000
00020000
,
00000000
00030010
00000000
00002000
00000000
00003100
00000000
00020000
,
00000000
00031000
00000000
02000000
00000000
03010000
00000000
00200000
,
00000000
00000000
00000000
00301000
00000000
00000000
00000000
00000000
00000000
00040000
00000000
00000000
00030100
00000000
00001000
00000000
00000100
00000000
00010000
00000000
00000010
00000000
00001000
00000000
,
00000000
00000000
00000000
00000020
00000000
00001030
00000000
00000200
,
00000000
00010300
00000000
00002000
00000000
01003000
00000000
00020000
,
00000000
00130000
00000000
00001000
00010000
00000100
00002000
00000000
,
00003010
00000000
00010000
00000010
00000000
00000000
00010000
00000000
00001000
00000000
00000000
01000000
00000000
00000000
00001000
00000000
,
00100000
00000000
00010000
00200000
00000000
00301000
00000000
00020000
,
00000000
00030100
00000000
00002000
00000000
00003010
00000000
00020000
,
00000000
00031000
00000000
02000000
00000000
03001000
00000000
00200000
,
00000000
00000000
00000000
00301000
00000000
00000000
00010000
00000000
00000000
00004000
00000000
00000000
00013000
00000000
00000100
00000000
00010000
00000000
00001000
00000000
01000000
00000000
00010000
00000000
,
01000000
00000000
00001000
00200000
00000000
00310000
00000000
02000000
,
00000000
03001000
00000000
00020000
00000000
00030100
00000000
00020000
,
00031000
00010000
00010000
00000000
00000010
00010000
00000100
00000000
,
00001000
00000000
00000001
00001000
00000010
00010000
00001000
00100000
,
00010000
00000000
00000000
00100000
00000000
00000000
00001000
00000000
00000000
00010000
00000000
00000000
00000010
00000000
00000000
00000100
,
00000000
00000000
00001000
00000000
00000000
00010000
00000000
00000000
01000000
00000000
10000000
00000000
01000000
00000000
00000000
00000000
,
00010000
00000000
00000000
00001000
00000000
00000000
00000100
00000000
00000000
00000001
00000000
00000000
00001000
00000000
00000000
00000100
,
00000000
00000000
00000010
00000000
00000000
00000100
00000000
00000000
00010000
00000000
00000000
00001000
00000000
00000000
01000000
00000000
,
00001000
00000000
00000000
00100000
00000000
00000000
00010000
00000000
00010000
00000000
00000000
01000000
00000000
00000000
00000000
00000000
,
00100000
00000000
00000000
10000000
00000000
00000000
00000000
00000000
00010000
00000000
01000000
00000000
00001000
00000000
00100000
00000000
,
00001000
00000000
00000000
00010000
00000000
00000000
00000100
00000000
00000000
00010000
00000000
00000000
00000010
00000000
00000000
00001000
,
00000000
00000000
00000010
00000000
00000000
00000100
00000000
00000000
00000001
00000000
00000000
00001000
00000000
00000000
00000100
00000000
,
00000010
00000000
00000100
00000000
00001000
00000000
00000100
00000000
00000000
00000000
00010000
00000000
00001000
00000000
00000000
00000000
01000000
00000000
00000000
00000000
00001000
00000000
00000000
00000000
00100000
00000000
00000000
00001000
00000000
00000000
00010000
00000000
,
00001000
00000000
00000000
00000000
00000000
00000000
00000000
00000000
01000000
00000000
00000000
00000000
00001000
00000000
00000000
00000000
00000000
00000000
00000000
00001000
00100000
00000000
00000000
00000000
00001000
00000000
00000000
00000000
00100000
00000000
00000000
00000000
00010000
00000000
00000000
00000000
00000000
00000000
00000000
00000000
01000000
00000000
00000000
00000000
00001000
00000000
00000000
00000000
00000000
00000000
00000000
00000000
00010000
00000000
00000000
00000000
00000000
00000000
00000000
00000000
00000000
00000000
00000000
00000000
,
00000100
00000000
00000000
00010000
00000000
00000000
00000100
00000000
00000000
00001000
00000000
00000000
00000000
00000000
00000000
00000010
00000000
00000000
00000100
00000000
00000000
00000000
00000010
00000000
00000000
00000000
00001000
00000000
00000000
00000000
00000001
00000000
00000000
00000000
00000010
00000000
00000000
00000000
00000100
00000000
00000000
00000000
00010000
00000000
00000000
00000000
00000000
00000000
,
00001000
00000000
00000000
00000000
00000000
00000000
01000000
00000000
00000000
00000000
00001000
00000000
00010000
00000000
00000000
00000000
00000000
00000000
00001000
00000000
00000000
00000000
00000000
00000000
00010000
00000000
00000000
00000100
00000000
00000000
00000000
00000000
00000000
00010000
00000000
00000000
00001000
00000000
00000000
00000000
00000000
00000000
01000000
00000000
00000000
00001000
00000000
00000000
,
00100000
00000000
00000000
00020000
00000000
00031000
00000000
00020000
,
00000000
00030100
00000000
00000020
00000000
00000130
00000000
00002000
,
00000000
00003100
00000000
00020000
00000000
00031000
00000000
02000000
,
00000000
00000000
00000000
03010000
00000000
00000000
00000000
00000000
00000000
00200000
00000000
00000000
00301000
00000000
00010000
00000000
00100000
00000000
00010000
00000000
00001000
00000000
00010000
00000000
,
00000000
00000000
00000000
00000200
00000000
00010300
00000000
00002000
,
00000000
01003000
00000000
00020000
00000000
00130000
00000000
00002000
,
00000000
00013000
00000000
00000020
00000000
00001030
00000000
00000100
,
00020000
00000000
00000000
00030200
,
00001300
00000100
00010000
00001000
01000000
00001000
00100000
00010000
,
01000000
00001000
00010000
00000010
00001000
00000010
00000100
00000001
,
00001000
00000100
00000010
00000100
00010000
00001000
01000000
00010000
,
01000000
00100000
00010000
00001000
00010000
00000100
00001000
00000100
,
00000010
00000001
00001000
00000010
00010000
00001000
01000000
00010000
,
01000000
00001000
00100000
00010000
00100000
00001000
00010000
00000100
,
00001000
00000010
00000100
00001000
00010000
00001000
00100000
00010000
,
00100000
01000000
10000000
00010000
01000000
00100000
01000000
00001000
,
00010000
00001000
00100000
01000000
00010000
00001000
00010000
00001000
,
00000100
00000010
00000100
00000001
00001000
00000001
00000010
00000100
,
00010000
00001000
00010000
00100000
00010000
00001000
00100000
00010000
,
00100000
01000000
10000000
00010000
01000000
00001000
00100000
00010000
,
00100000
00001000
00010000
00000010
00000100
00001000
00010000
00001000
,
00100000
00010000
01000000
00001000
00010000
00000100
00010000
00000100
,
00000010
00000001
00000100
00000010
00000100
00001000
00010000
00001000
,
00100000
00001000
00010000
00000100
00001000
00000010
00010000
00001000
,
00000100
00001000
00010000
01000000
10000000
01000000
00100000
00010000
,
01000000
00001000
00010000
00000010
00010000
00001000
01000000
00010000
,
01000000
00001000
00100000
00001000
00010000
00000100
00001000
00000001
,
00000010
00001000
00010000
00001000
01000000
00100000
01000000
00100000
,
00010000
00001000
00010000
00000100
00010000
00001000
01000000
00001000
,
00010000
01000000
10000000
00010000
10000000
00100000
01000000
00001000
,
00010000
00100000
00010000
00001000
00010000
00000100
00001000
00000100
,
00000010
00000001
00000100
00001000
00010000
01000000
10000000
00010000
,
01000000
00000000
00000000
00000000
00001000
00000000
01000000
00000000
00000000
00000000
00100000
00000000
01000000
00000000
00010000
00000000
00100000
00000000
00000000
00000000
00001000
00000000
00000000
00000000
00100000
00000000
00000000
00001000
00000000
00000000
00010000
00000000
,
00000100
00000000
00010000
00000010
00000000
00001000
00000001
00000000
00000100
00000010
00010000
00001000
00000000
00100000
00000000
00000000
,
00001000
00000000
00000000
00010000
00000000
00000000
00000100
00000000
00000000
00010000
00000000
00000000
00000000
00000000
00000000
00001000
00000000
00000000
01000000
00000000
00010000
00000000
01000000
00000000
00001000
00000000
00010000
00000000
00001000
00000000
00010000
00000000
00000100
00000000
00010000
00000000
00000100
00000000
00010000
00000000
00000100
00000000
00010000
00000000
00001000
00000000
00010000
00000000
,
00000010
00000000
00000000
00000000
;
