#TITLE:Rainbow Tylenol;
#SUBTITLE:;
#ARTIST:Kitsune²;
#TITLETRANSLIT:;
#SUBTITLETRANSLIT:;
#ARTISTTRANSLIT:;
#GENRE:Chiptune;
#CREDIT:D. Nelson;
#BANNER:rnbwtylenol-bn.png;
#BACKGROUND:rnbwtylenol-bg.png;
#LYRICSPATH:;
#CDTITLE:muteCD.png;
#MUSIC:rnbwtylenol.ogg;
#OFFSET:1.286;
#SAMPLESTART:85.835;
#SAMPLELENGTH:14.220;
#SELECTABLE:YES;
#DISPLAYBPM:135.000;
#BPMS:0.000=135.000;
#STOPS:32.000=0.889
,110.000=0.889
;
#BGCHANGES:;
#KEYSOUNDS:;

//---------------dance-single - mute----------------
#NOTES:
     dance-single:
     mute:
     Challenge:
     12:
     0.975,1.000,0.084,0.140,1.000:
0000
0000
0000
0000
,
0000
0000
0000
0000
,
0000
0000
0000
0000
,
0000
0000
0000
0000
,
1000
0100
1000
0010
0000
1000
0010
0000
0010
1000
0001
0010
0000
0001
1000
0000
,
0010
0000
0010
1000
0000
1000
0100
0000
0010
0000
0010
0001
0100
0000
0010
0000
,
1000
0000
1000
0100
0000
1000
0100
0000
1000
0001
0100
0010
0100
0001
0010
0000
,
0010
0000
0010
0001
0000
0001
1000
0000
0010
0000
0010
1000
0100
0000
0010
0000
,
MM11
0000
0000
0000
1001
0000
0000
0000
1010
0000
0000
0010
1000
0000
0001
0000
,
1000
0010
0100
0001
0010
0000
0100
0000
0010
0000
0000
0001
0010
0000
1000
0000
,
0010
0001
1000
0010
0100
0000
0010
0000
1000
0000
0000
0001
1000
0000
0001
0000
,
0100
0000
0000
0010
0100
0000
1000
0000
1000
0100
0001
1000
0100
0010
0001
1000
,
0010
0100
0001
0100
0010
0000
1000
0000
1001
0000
0000
1000
0001
0000
1000
0000
,
0001
0100
0010
1000
0100
0000
0010
0000
0100
0000
0000
1000
0100
0000
0001
0000
,
0100
1000
0001
0100
0010
0000
0100
0000
0001
0000
0000
1000
0001
0000
1000
0000
,
0010
0000
0000
0100
0010
0000
0001
0000
0001
0010
1000
0001
0010
0100
1000
0001
,
0100
0010
1000
0010
0100
0000
0001
0000
0010
0100
1000
0100
0010
0001
1000
0001
,
0100
0010
1000
0001
0020
0000
0000
0030
0100
1000
0100
0010
0001
1000
0010
0100
,
0000
0001
1000
0001
0010
0100
1000
0020
0000
0000
0130
0000
0001
0010
0100
0010
,
0000
0100
1000
0001
0100
0000
0010
0000
1000
0001
0010
0100
0000
0010
0100
0000
,
1000
0010
0100
0001
0000
0100
0001
0000
1000
0100
0010
0100
1000
0010
0100
0001
,
1000
0100
0010
0001
0200
0000
0000
0300
0010
1000
0010
0100
0001
1000
0100
0010
,
0000
0100
1000
0001
0100
0010
1000
0200
0000
0000
0310
0000
0001
1000
0010
0100
,
0000
0010
1000
0001
0010
0000
0100
0000
0001
0100
1000
0001
0000
1000
0001
0000
,
0100
0010
1000
0100
0000
1000
0100
0000
0110
0000
0010
0001
0000
0001
0100
0000
,
0010
0000
0010
1000
0001
0000
0010
0000
0100
0000
0100
0010
0000
0100
0010
0000
,
0100
1000
0001
0100
0010
1000
0001
0000
0001
0000
0001
0010
0000
0010
0100
0000
,
1000
0000
1000
0010
0100
0000
0001
0000
1MM1
0000
0000
0000
1100
0000
0000
0000
,
1000
0000
0001
0010
0100
0000
0000
0000
1000
0000
0000
0000
0010
0000
0000
0000
0100
0000
0001
0000
1000
0000
0100
0000
0000
0000
1000
0000
0100
0000
0000
0000
,
0000
0000
0100
0010
0001
0000
1000
0000
0001
0000
0100
0000
0001
0000
0010
0000
0000
0000
0001
0000
0010
0000
0001
0000
1000
0000
0010
0000
1000
0000
0100
0000
,
0000
0000
0010
0000
0001
0000
1000
0000
0010
0100
0001
0010
0100
1000
0010
0100
,
0000
0000
0000
0000
0100
0000
0000
0000
0001
0000
0000
0000
1000
0000
0000
0000
0100
0000
0000
0000
0010
0000
0000
0000
0100
0000
0000
0000
1000
0000
0000
0000
0001
0000
0000
0000
0100
0000
0000
0000
0010
0000
0000
0000
1000
0000
0000
0000
0100
0000
0000
0000
0000
0000
0000
1000
0100
0000
0000
0000
0000
0000
0000
0000
,
1000
0010
1000
0010
1000
0010
1000
0010
1000
0010
1000
0010
0100
0001
0100
0001
0100
0001
0100
0001
0100
0001
0100
0001
,
0000
0000
0000
0010
0000
0000
0100
0000
0000
1000
0000
0000
0000
0000
0000
1000
0000
0000
0001
0000
0000
1000
0000
0000
0100
0000
0010
0000
0100
0000
1000
0000
0001
0000
1000
0000
0010
0000
0100
0000
0010
0000
1000
0000
0001
0000
0010
0000
,
0000
0000
0000
0000
0000
0000
0010
0000
0000
0001
0000
0000
0100
0000
0000
0010
0000
0000
1000
0000
0000
0001
0000
0000
0010
0000
0100
0000
0010
0000
0001
0000
1000
0000
0001
0000
0100
0000
0001
0000
0010
0000
0001
0000
1000
0000
0010
0000
,
0100
0010
1000
0001
0010
0001
1000
0010
0100
0010
1000
0001
0010
0100
0010
0001
1000
0001
0100
0010
1000
0001
1000
0010
,
0100
0000
0001
0000
0000
0000
1000
0000
0200
0000
0000
0000
0000
0000
0000
0000
0320
0000
0000
0000
0000
0000
0130
1000
0002
0000
0000
0000
0000
0000
0000
0000
,
0103
0000
0000
0000
0010
0000
0000
0000
1000
0000
0000
0000
0001
0000
0000
0000
0010
0000
0000
0000
0100
0000
0000
0000
0010
0000
0000
0000
0001
0000
0000
0000
0000
0000
0000
0000
1000
0000
0000
0000
0010
0000
0000
0000
0000
0000
0000
0000
0100
0000
0000
0000
0000
0000
0000
0000
0010
0000
0000
0000
0000
0000
0000
1000
,
0200
0000
0000
0000
0000
0000
0000
0000
2300
0000
0000
0000
0000
0000
3001
0100
0020
0000
0000
0000
0000
0000
0000
0000
0230
0000
0000
0000
0000
0000
0000
0000
,
0301
0010
0100
0010
0001
1000
0010
0100
0001
0010
0100
1000
0100
0010
0100
1000
,
0001
0000
0100
0000
0010
0000
0100
0000
0001
0000
0010
0000
0001
0000
1000
0000
0100
0000
0010
0000
0100
0000
1000
0000
0001
0000
0100
0000
0010
0000
1000
0001
,
1000
0010
0100
0010
1000
0001
0010
0100
0010
0001
1000
0001
0100
0010
1000
0100
,
0010
0001
0010
0001
1000
0001
1000
0010
1000
0010
0100
0010
0100
0001
0100
0001
1000
0001
1000
0100
0010
0100
1000
0001
,
0100
0010
1000
0001
0010
0100
0010
0001
1000
0010
0100
0001
1000
0100
0010
0100
1000
0001
1000
0010
0100
0001
0000
0000
,
0101
0000
0000
0100
0001
0000
1000
0000
0001
0100
0010
1000
0100
0000
0010
0000
,
0100
0000
0000
1000
0100
0000
0001
0000
0100
1000
0001
0100
0010
0000
0100
0000
,
0001
0000
0000
1000
0001
0000
1000
0000
0100
0000
0000
0010
0100
0000
1000
0000
,
0010
0100
0010
1000
0000
0001
1000
0001
0010
0100
0010
0001
0000
0001
0100
0000
,
1001
0000
0000
0001
1000
0000
0001
0000
1000
0010
0100
0001
0010
0000
0100
0000
,
0010
0000
0000
0001
0010
0000
1000
0000
0010
0001
1000
0010
0100
0000
0010
0000
,
1000
0000
0000
0001
1000
0000
0001
0000
0100
0000
0000
0010
0100
0000
1000
0000
,
1000
0100
0001
1000
0100
0010
0001
1000
0010
0100
0001
0100
0010
0000
1000
0000
,
0100
0010
0001
0010
0100
1000
0001
1000
0010
0100
0001
1000
0200
0000
0000
0300
,
0010
0001
0010
0100
1000
0001
0100
0010
0000
1000
0001
1000
0100
0010
0001
0200
,
0000
0000
0310
0000
1000
0100
0010
0100
0000
0010
0001
1000
0010
0000
0100
0000
,
0001
1000
0100
0010
0000
0100
0010
0000
0001
0100
0010
1000
0000
0010
1000
0000
,
0001
0010
0100
0010
0001
0100
0010
1000
0001
0010
0100
1000
0020
0000
0000
0030
,
0100
0001
0100
0010
1000
0001
0010
0100
0000
0010
0001
1000
0010
0100
0001
0020
,
0000
0000
0130
0000
1000
0001
0100
0010
0000
0100
0001
1000
0100
0000
0010
0000
,
1000
0010
0001
1000
0000
0001
1000
0000
0010
0100
0001
0010
0000
0001
0010
0001
,
0100
0000
0000
0000
;
