#TITLE:Papinsky;
#SUBTITLE:;
#ARTIST:Meneo;
#TITLETRANSLIT:;
#SUBTITLETRANSLIT:;
#ARTISTTRANSLIT:;
#GENRE:Electroclash;
#CREDIT:D. Nelson;
#BANNER:papinsky-bn.png;
#BACKGROUND:papinsky-bg.png;
#LYRICSPATH:;
#CDTITLE:muteCD.png;
#MUSIC:papinsky.ogg;
#OFFSET:0.008;
#SAMPLESTART:44.444;
#SAMPLELENGTH:14.220;
#SELECTABLE:YES;
#BPMS:0.000=135.000;
#STOPS:;
#BGCHANGES:;
#KEYSOUNDS:;

//---------------dance-single - Mute----------------
#NOTES:
     dance-single:
     Mute:
     Challenge:
     11:
     0.894,0.898,0.172,0.039,1.000,774.000,22.000,5.000,31.000,0.000,0.000,0.894,0.898,0.172,0.039,1.000,774.000,22.000,5.000,31.000,0.000,0.000: // measure 1
0000
0000
0000
0000
,  // measure 2
0000
0000
0000
0000
,  // measure 3
1000
0000
1000
0100
0010
0000
0100
0000
,  // measure 4
1000
0000
0000
1000
0000
0000
0010
0000
0100
0000
0002
0000
0000
0000
0003
0000
,  // measure 5
0100
0000
0100
0010
1000
0000
0001
0000
,  // measure 6
0010
0000
MM00
0010
0000
0000
MM10
0000
0000
0010
MM00
0000
0010
0100
0010
0000
,  // measure 7
0001
1000
0001
0100
0010
0100
0001
1000
,  // measure 8
0100
0000
1000
0100
0010
0000
0001
0000
0100
0000
0020
0000
1000
0000
0030
0000
,  // measure 9
0100
0001
0010
0100
1000
0010
1000
0100
,  // measure 10
0010
0000
0001
0100
0010
1000
0100
0000
0000
0100
0000
0000
0200
0000
0000
0000
,  // measure 11
0310
0000
0000
0100
0000
1000
0010
0000
0000
0100
0000
0001
0010
0000
0000
0100
,  // measure 12
0000
1000
0000
0100
0000
1000
0010
0000
0100
0000
0001
0000
1000
0100
0000
0010
,  // measure 13
0001
0001
1000
0010
0100
0010
1000
1000
,  // measure 14
0010
0100
0100
0001
0100
0010
1000
1000
0100
0010
0100
0100
,  // measure 15
1000
0001
1000
0100
1000
0001
0100
0001
0010
0001
0010
0100
0010
0001
1000
0010
,  // measure 16
0100
0010
1000
0001
1000
0100
0010
0100
0010
0001
1000
0010
0100
0010
1000
0001
,  // measure 17
0010
0100
0010
0001
1000
0001
1000
0010
0100
0010
0100
0001
0010
0001
0010
0100
,  // measure 18
0010
0100
1000
0001
1000
0010
1000
0100
0010
0100
0010
0001
1000
0001
0100
0010
,  // measure 19
1000
0001
1000
0100
1000
0001
0100
0001
0010
0001
0010
0100
0010
0001
1000
0010
,  // measure 20
0100
0010
1000
0001
1000
0100
0010
0100
0010
0001
1000
0010
0100
0010
1000
0001
,  // measure 21
0010
0100
0010
0001
1000
0001
1000
0010
0100
0010
0100
0001
0010
0001
0010
0100
,  // measure 22
0010
0100
1000
0001
1000
0010
1000
0100
0010
0100
0010
0001
1000
0001
0100
0010
,  // measure 23
200M
000M
000M
000M
00M0
00M0
0M00
000M
000M
000M
00M0
00M0
000M
000M
000M
000M
,  // measure 24
00M0
0000
00M0
0000
0M00
0000
0M00
3000
0011
0000
0000
0000
0000
0000
0000
0000
1001
0000
0000
0000
0000
0000
0000
0000
0101
0000
0000
0000
0000
0000
0000
0000
,  // measure 25
0001
0100
0010
1000
0010
0100
0001
1000
,  // measure 26
0001
0000
0010
0001
0000
0010
0001
0000
1000
0000
0010
0000
0010
0000
0010
0000
,  // measure 27
0100
0001
0010
0100
0010
0001
1000
0010
,  // measure 28
0100
0000
0001
0100
0000
0001
0100
0000
0001
0100
0000
0000
0200
0000
0000
0000
,  // measure 29
0301
0000
000M
0010
0000
0000
0001
0000
1000
0000
0010
0000
0010
0000
0010
0000
,  // measure 30
1000
0000
M000
0100
0000
0000
0010
0000
0100
0000
1000
0000
1000
0000
1000
0000
,  // measure 31
0010
0000
00M0
0100
0000
0000
0001
0000
0010
0000
0100
0000
0000
0000
0100
0000
,  // measure 32
0000
0000
0100
0000
0000
0000
0010
0000
0001
0010
0001
0010
0100
0010
0001
1000
,  // measure 33
0010
0100
0010
1000
0100
1000
0100
0010
0001
0010
0001
0100
0010
0100
0010
1000
,  // measure 34
0100
0010
0100
1000
0001
0010
0001
0100
0001
0100
0010
0100
0010
1000
0010
0100
,  // measure 35
0001
1000
0001
1000
0100
0010
0100
0010
0001
1000
0010
1000
0001
0100
0001
0010
,  // measure 36
0100
0010
0001
0010
0001
0100
0001
1000
0100
1000
0010
1000
0010
0100
0001
0100
,  // measure 37
0010
0100
0010
1000
0100
1000
0100
0010
0001
0010
0001
0100
0010
0100
0010
1000
,  // measure 38
0100
0010
0100
1000
0001
0010
0001
0100
0001
0100
0010
0100
0010
1000
0010
0100
,  // measure 39
0001
1000
0001
1000
0100
0010
0100
0010
0001
1000
0010
1000
0001
0100
0001
0010
,  // measure 40
0100
0010
0001
0010
0001
0100
0001
1000
0100
1000
0010
0000
0100
0000
0001
0000
,  // measure 41
0010
0000
0000
0100
1000
0000
0100
0000
0100
0000
0000
0010
0001
0000
1000
0000
,  // measure 42
1000
0000
0001
0000
0100
0000
0010
1000
0010
0000
0010
1000
0001
0000
1000
0000
,  // measure 43
0100
0000
0000
0010
0001
0000
0100
0000
0100
0000
0000
0010
1000
0000
0001
0000
,  // measure 44
0010
0000
0001
0000
1000
0000
0100
0010
0001
0000
0001
0000
0001
0000
1000
0000
,  // measure 45
0010
0000
1000
0100
0001
0000
0100
1000
,  // measure 46
0010
0000
0000
0000
0100
0000
0001
0010
0001
0000
0001
0000
0001
0000
0100
0000
,  // measure 47
1000
0000
1000
0100
0001
0000
0010
0100
,  // measure 48
1000
0000
0010
0000
0000
0000
0100
0010
1000
0000
1000
0000
1000
0000
0000
0000
,  // measure 49
0100
0000
0000
0010
0000
0001
0100
0000
0000
0010
0000
1000
0100
0000
0000
0010
,  // measure 50
0000
0001
0000
0010
0000
0001
0100
0000
0010
0000
1000
0000
0001
0010
0000
0100
,  // measure 51
1000
1000
0001
0100
0010
0100
0001
0001
,  // measure 52
0100
0010
0010
1000
0010
0100
0001
0001
0010
0100
0010
0010
,  // measure 53
0001
1000
0001
0010
0001
1000
0010
1000
0100
1000
0100
0010
0100
1000
0001
0100
,  // measure 54
0010
0100
0001
1000
0001
0010
0100
0010
0100
1000
0001
0100
0010
0100
0001
1000
,  // measure 55
0100
0010
0100
1000
0001
1000
0001
0100
0010
0100
0010
1000
0100
1000
0100
0010
,  // measure 56
0100
0010
0001
1000
0001
0000
0011
0000
0110
0000
0000
1100
0000
0100
0010
0000
,  // measure 57
0100
0010
0100
1000
0001
1000
0010
0100
0001
1000
0001
0010
0001
1000
0010
1000
,  // measure 58
0100
1000
0100
0010
0100
1000
0001
0100
0010
0100
0001
1000
0001
0010
0100
0010
,  // measure 59
0100
1000
0001
0100
0010
0100
0001
1000
0100
0010
0100
1000
0001
1000
0001
0100
,  // measure 60
0010
0100
0010
1000
0100
0000
0110
0000
0011
0000
0000
1001
0000
1000
0100
0000
,  // measure 61
0100
0010
0001
1000
0001
0100
0001
0010
0100
0010
0100
1000
0001
1000
0010
0100
,  // measure 62
0001
0100
0010
1000
0100
1000
0100
0010
0100
1000
0100
1000
0001
1000
0001
0100
,  // measure 63
0010
0100
0001
0010
0100
0010
0001
1000
0010
1000
0010
0100
0001
0100
0001
0010
,  // measure 64
0001
0010
0100
1000
0001
0000
0101
0000
1010
0000
0000
1001
0000
0001
0010
0000
,  // measure 65
0100
0010
0100
1000
0001
1000
0010
0100
0001
1000
0001
0010
0001
1000
0010
1000
,  // measure 66
0100
1000
0100
0010
0100
1000
0001
0100
0010
0100
0001
1000
0001
0010
0100
0010
,  // measure 67
0100
1000
0001
0100
0010
0100
0001
1000
0100
0010
0100
1000
0001
1000
0001
0100
,  // measure 68
0010
0100
0010
1000
0100
0000
0110
0000
0011
0000
0000
1001
0000
1000
0100
0000
,  // measure 69
1000
0001
0101
0100
0001
0010
0011
0001
,  // measure 70
1000
0100
1100
1000
0010
0100
0110
0010
,  // measure 71
1000
0001
0101
0001
0010
0100
1100
1000
,  // measure 72
0001
0000
0100
0001
1000
0000
0001
0000
0010
0000
0100
0000
1001
0000
M00M
0000
;
