#TITLE:Miami Sunset Drive;
#SUBTITLE:;
#ARTIST:Dirty Androids;
#TITLETRANSLIT:;
#SUBTITLETRANSLIT:;
#ARTISTTRANSLIT:;
#GENRE:;
#CREDIT:;
#BANNER:Miami Sunset Drive-bn.png;
#BACKGROUND:Miami Sunset Drive-bg.png;
#LYRICSPATH:;
#CDTITLE:GazeboCD.png;
#MUSIC:Miami Sunset Drive.ogg;
#OFFSET:-0.003;
#SAMPLESTART:91.605;
#SAMPLELENGTH:29.302;
#SELECTABLE:YES;
#BPMS:0.000=131.000,128.000=65.500,164.000=131.000;
#STOPS:;
#BGCHANGES:;
#KEYSOUNDS:;

//---------------dance-single - Gazebo----------------
#NOTES:
     dance-single:
     Gazebo:
     Challenge:
     11:
     0.809,0.000,0.007,0.196,1.000:
0000
0000
0000
0000
,
0000
0000
0000
0000
,
0000
0000
0000
0000
,
0000
0000
0000
0000
,
2000
0000
0000
0010
0000
0000
0010
0000
0000
0010
0000
0000
0010
0000
3010
0000
,
0200
0000
0000
0001
0000
0000
0001
0000
0000
0001
0000
0000
0001
0000
0301
0000
,
2000
0000
0000
0010
0000
0000
0010
0000
0000
0010
0000
0000
0010
0000
3010
0000
,
0200
0000
0000
0001
0000
0000
0001
0000
0300
0000
0000
0000
1MM1
0000
0000
0000
,
1000
0100
0010
0001
0000
1000
0001
0010
0000
0100
1000
0010
0000
0100
0001
1000
,
0000
0010
0100
0010
0000
0100
0001
1000
0000
0001
0100
0010
0000
1000
0100
0010
,
0000
0001
1000
0001
0000
0010
0001
0100
0000
0001
1000
0010
0000
1000
0100
0010
,
0000
0001
1000
0001
0000
1000
0010
0100
0000
0100
0001
0010
M00M
0010
1000
0001
,
0010
0001
0100
0010
0000
1000
0001
0100
0000
0010
1000
0100
0000
0010
0001
1000
,
0000
0100
0010
0100
0000
0010
0001
1000
0000
0001
0010
0100
0000
1000
0001
0100
,
0000
0001
0010
0100
0000
1000
0001
0010
0000
0001
1000
0001
0000
0010
0001
0100
,
0000
0000
0000
0000
0000
0000
0000
0000
0000
0000
0000
0000
0010
0000
0000
0000
0000
0000
0000
0000
0000
0000
0000
0000
1000
0000
0000
0000
0000
0000
0000
0000
0000
0000
0000
0000
0001
0000
0000
0000
0000
0000
0000
0000
0000
0000
0000
0000
0000
0000
0000
0000
0000
0000
0000
0000
0000
0000
0000
0000
0100
0000
0000
0000
0000
0000
0000
0000
0000
0000
0000
0000
0010
0000
0000
0000
0000
0000
0000
0000
0000
0000
0000
0000
1000
0000
0000
0000
0000
0000
0000
0000
0000
0000
0000
0000
0000
0000
0000
0000
0000
0000
0000
0000
0000
0000
0000
0000
1000
0000
0000
0000
0000
0000
0000
0000
0000
0000
0000
0000
0100
0000
0000
0000
0000
0000
0000
0000
0000
0000
0000
0000
1000
0000
0000
0000
0000
0000
0000
0000
0000
0000
0000
0000
0MM2
0000
0000
0000
0000
0000
0000
0000
0000
0000
0000
0000
0000
0000
0000
0000
0000
0000
0000
0000
0000
0000
0003
0000
0001
0000
0000
0000
0000
0000
0000
0000
0000
0000
0000
0000
1000
0000
0000
0000
0000
0000
0000
0000
0000
0000
0000
0000
,
0010
0100
0001
0000
1000
0000
0100
0001
0000
0100
0000
1000
0000
0001
1000
0001
,
0010
0100
1000
0000
0001
0000
0100
1000
0000
0100
0000
0001
0000
1000
0001
1000
,
0010
0100
0001
0000
1000
0000
0100
0001
0000
0100
0000
1000
0000
0001
1000
0001
,
0010
0100
1000
0000
0001
0000
0100
1000
0000
0100
0001
0010
M00M
0010
1000
0001
,
0100
0010
1000
0000
0001
0000
0010
1000
0000
0010
0000
0001
0000
1000
0001
1000
,
0100
0010
0001
0000
1000
0000
0010
0001
0000
0010
0000
1000
0000
0001
1000
0001
,
0100
0010
1000
0000
0001
0000
0010
1000
0000
0010
0000
0001
0000
1000
0001
1000
,
0100
0000
0000
0000
0000
0000
0000
0000
0000
0000
0000
0000
0010
0000
0000
0000
0000
0000
0000
0000
0000
0000
0000
0000
0001
0000
0000
0000
0000
0000
0000
0000
0000
0000
0000
0000
0000
0000
0000
0000
0000
0000
0000
0000
0000
0000
0000
0000
1000
0000
0000
0000
0000
0000
0000
0000
0000
0000
0000
0000
0000
0000
0000
0000
0000
0000
0000
0000
0000
0000
0000
0000
0010
0000
0000
0000
0000
0000
0000
0000
0000
0000
0000
0000
0001
0000
0000
0000
0000
0000
0000
0000
0000
0000
0000
0000
0000
0000
0000
0000
0000
0000
0000
0000
0000
0000
0000
0000
0010
0000
0000
0000
0000
0000
0000
0000
0000
0000
0000
0000
0100
0000
0000
0000
0000
0000
0000
0000
0000
0000
0000
0000
0001
0000
0000
0000
0000
0000
0000
0000
0000
0000
0000
0000
2MM0
0000
0000
0000
0000
0000
0000
0000
0000
0000
0000
0000
0000
0000
0000
0000
0000
0000
0000
0000
0000
0000
3000
0000
1000
0000
0000
0000
0000
0000
0000
0000
0000
0000
0000
0000
0001
0000
0000
0000
0000
0000
0000
0000
0000
0000
0000
0000
,
0010
0001
0100
0001
1000
0010
1000
0100
1000
0001
0010
0001
1000
0010
0100
0001
,
1000
0010
1000
0001
0100
0001
1000
0100
1000
0010
1000
0001
0100
0010
1000
0001
,
0100
0001
0010
0001
1000
0100
1000
0010
1000
0001
0100
0001
1000
0100
0010
0001
,
1000
0100
1000
0001
0010
0001
1000
0010
0100
0010
1000
0100
M01M
0100
1000
0001
,
0010
0001
0100
0001
1000
0010
1000
0100
1000
0001
0010
0001
1000
0010
0100
0001
,
1000
0010
1000
0001
0100
0001
1000
0100
1000
0010
1000
0001
0100
0010
1000
0001
,
0100
0001
0010
0001
1000
0100
1000
0010
1000
0001
0100
0001
1000
0100
0010
0001
,
1000
0000
0010
0000
0010
0000
0100
0010
0000
1000
0010
1000
0MM2
0000
1003
0000
,
0200
0000
0000
0000
0000
0310
0100
2000
0000
0000
0000
3002
0000
0000
0000
0000
,
0203
0000
0000
0000
0000
0310
0100
0002
0000
0000
0000
0023
0000
0000
0000
0000
,
0230
0000
0000
0000
0000
1300
0100
0020
0000
0000
0000
0032
0000
0000
0000
0000
,
0203
0000
0000
0000
0000
0310
0100
0002
0000
0000
0000
0000
0000
0000
0000
0000
,
1003
0000
0000
0000
0000
0000
0000
0000
0001
0000
0000
0000
0010
0000
0000
0000
0100
0000
0000
0000
0000
0000
1000
0000
0000
0000
0000
0000
0020
0000
0000
0000
0000
0000
0000
0000
0000
0000
0000
0000
0000
0000
0000
0000
0000
0000
0000
0000
0000
0000
0000
0000
0000
0000
0000
0000
1030
0001
1000
0000
0100
0000
0000
0000
,
0100
1000
0001
0100
0010
0000
1000
0200
0000
0000
0000
0320
0000
0000
0000
0000
,
0130
0000
0000
0000
1000
0000
0000
0000
0001
0000
0000
0000
0100
0000
0000
0000
0010
0000
0000
0000
0000
0000
1000
0000
0000
0000
0000
0000
0200
0000
0000
0000
0000
0000
0000
0000
0000
0000
0000
0000
0000
0000
0000
0000
0000
0000
0000
0000
0000
0000
0000
0000
0000
0000
0000
0000
1300
0001
1000
0000
0010
0000
0000
0000
,
0010
0000
0000
0000
1000
0000
0100
0000
0000
0010
0000
0001
0000
0000
0001
0000
0000
0001
0000
0000
1000
0000
0000
0010
0000
0100
0000
0001
0000
0000
0001
0000
,
0000
0000
1000
0000
0001
0000
0010
0000
0100
0000
0000
0000
1000
0000
0020
0000
0000
0000
0000
0000
0000
0000
1030
0100
0000
1000
0100
1000
0001
0000
0001
1000
,
0M01
1000
0010
1000
0100
0010
0100
1000
0001
0010
0001
1000
0100
1000
0010
0100
,
0010
0000
0100
0000
0010
0000
1000
0000
0100
0000
1000
0000
0001
0000
0100
0000
0001
0000
0010
0000
0001
0000
1000
0000
0100
0010
0100
0000
1000
0000
0000
0000
,
0001
1000
0100
1000
0010
0100
0010
1000
0001
0100
0001
1000
0010
1000
0100
0010
,
0100
0010
0100
1000
0010
1000
0001
0100
0001
0100
0001
0010
M10M
0010
0001
1000
,
0001
1000
0100
1000
0010
0100
0010
1000
0001
0100
0001
1000
0010
1000
0100
0010
,
0100
0000
0010
0000
0100
0000
1000
0000
0010
0000
1000
0000
0001
0000
0010
0000
0001
0000
0100
0000
0001
0000
1000
0000
0010
0100
0010
0000
1000
0000
0000
0000
,
0001
0100
0001
0100
0010
1000
0001
0010
0100
1000
0100
1000
0100
0010
0001
1000
,
0010
0000
0000
0000
0000
0000
0000
0000
0000
0000
0000
0000
1000
0000
0000
0000
0000
0000
0000
0000
0000
0000
0000
0000
0100
0000
0000
0000
0000
0000
0000
0000
0000
0000
0000
0000
1000
0000
0000
0000
0000
0000
0000
0000
0000
0000
0000
0000
0001
0000
0000
0000
0000
0000
0000
0000
0000
0000
0000
0000
0010
0000
0000
0000
0000
0000
0000
0000
0000
0000
0000
0000
0001
0000
0000
0000
0000
0000
0000
0000
0000
0000
0000
0000
0100
0000
0000
0000
0000
0000
0000
0000
0000
0000
0000
0000
0001
0000
0000
0000
0000
0000
0000
0000
0000
0000
0000
0000
1000
0000
0000
0000
0000
0000
0000
0000
0000
0000
0000
0000
0010
0000
0000
0000
0000
0000
0000
0000
0000
0000
0000
0000
1000
0000
0000
0000
0000
0000
0000
0000
0000
0000
0000
0000
0MM2
0000
0000
0000
0000
0000
0000
0000
0000
0000
0000
0000
0000
0000
0000
0000
0000
0000
0000
0000
0000
0000
0003
0000
0001
0000
0000
0000
0000
0000
0000
0000
0000
0000
0000
0000
1000
0000
0000
0000
0000
0000
0000
0000
0000
0000
0000
0000
,
0001
1000
0100
1000
0010
0100
0010
1000
0001
0100
0001
1000
0010
1000
0100
0010
,
0100
0000
0010
0000
0100
0000
1000
0000
0010
0000
1000
0000
0001
0000
0010
0000
0001
0000
0100
0000
0001
0000
1000
0000
0010
0100
0010
0000
1000
0000
0000
0000
,
0001
1000
0100
0010
0001
1000
0100
1000
0010
0100
0010
1000
0100
1000
0001
0010
,
0001
0010
0001
1000
0100
1000
0001
0100
0001
0100
0010
1000
0MM1
0000
0001
1000
,
0100
1000
0010
1000
0001
0100
0010
1000
0100
0010
0100
1000
0010
1000
0001
0010
,
0001
0000
0010
0000
0001
0000
1000
0000
0100
0000
1000
0000
0001
0000
0100
0000
0001
0000
0010
0000
0001
0000
1000
0000
0100
0010
0100
0000
1000
0000
0000
0000
,
0001
1000
0001
1000
0010
1000
0100
0010
0001
0100
0010
0100
0001
1000
0010
1000
,
0001
0000
0010
0000
0010
0000
0100
0010
0000
0001
0010
0001
2MM0
0000
3001
0000
,
1000
0010
0100
0001
0000
1000
0010
1000
0000
0001
0100
0001
0000
1000
0001
0010
,
0000
0100
0010
0001
0000
1000
0001
0100
0000
0010
1000
0010
0000
1000
0001
1000
,
0000
0100
1000
0001
0000
0010
0001
0100
0000
0010
1000
0001
0000
1000
0100
0010
,
0000
0001
1000
0001
0000
0010
0100
1000
0000
1000
0001
0100
M00M
0100
1000
0001
,
0010
0100
1000
0001
0000
1000
0100
1000
0000
0001
0100
0010
0000
1000
0001
0100
,
0000
0010
0100
0001
0000
1000
0001
0010
0000
0100
1000
0100
0000
1000
0020
0000
,
0130
0001
1000
0001
0000
1000
0100
0010
0000
0001
1000
0010
0000
1000
0200
0000
,
1300
0001
1000
0100
0000
0010
0001
0100
0000
0001
0100
0001
1MM0
0000
0001
1000
;

//---------------dance-single - Gazebo----------------
#NOTES:
     dance-single:
     Gazebo:
     Hard:
     9:
     0.575,0.000,0.007,0.436,0.868: // measure 1
0000
0000
0000
0000
,  // measure 2
0000
0000
0000
0000
,  // measure 3
0000
0000
0000
0000
,  // measure 4
0000
0000
0000
0000
,  // measure 5
2000
0000
0000
0010
0000
0000
0010
0000
0000
0010
0000
0000
0010
0000
3010
0000
,  // measure 6
0200
0000
0000
0001
0000
0000
0001
0000
0000
0001
0000
0000
0001
0000
0301
0000
,  // measure 7
2000
0000
0000
0010
0000
0000
0010
0000
0000
0010
0000
0000
0010
0000
3010
0000
,  // measure 8
0200
0000
0000
0001
0000
0000
0001
0000
0300
0000
0000
0000
1MM1
0000
0000
0000
,  // measure 9
1000
0100
0010
0001
0000
1000
0001
0010
0000
0100
1000
0010
0000
0100
0001
1000
,  // measure 10
0000
0010
0100
0010
0000
0100
0001
1000
0000
0001
0100
0010
0000
1000
0100
0010
,  // measure 11
0000
0001
1000
0001
0000
0010
0001
0100
0000
0001
1000
0010
0000
1000
0100
0010
,  // measure 12
0000
0001
1000
0001
0000
1000
0010
0100
0000
0100
0001
0010
0000
0001
1000
0001
,  // measure 13
0010
0001
0100
0010
0000
1000
0001
0100
0000
0010
1000
0100
0000
0010
0001
1000
,  // measure 14
0000
0100
0010
0100
0000
0010
0001
1000
0000
0001
0010
0100
0000
1000
0001
0100
,  // measure 15
0000
0001
0010
0100
0000
1000
0001
0010
0000
0001
1000
0001
0000
0010
0001
0100
,  // measure 16
0000
0000
0000
0000
0000
0000
0000
0000
0000
0000
0000
0000
0010
0000
0000
0000
0000
0000
0000
0000
0000
0000
0000
0000
1000
0000
0000
0000
0000
0000
0000
0000
0000
0000
0000
0000
0001
0000
0000
0000
0000
0000
0000
0000
0000
0000
0000
0000
0000
0000
0000
0000
0000
0000
0000
0000
0000
0000
0000
0000
0100
0000
0000
0000
0000
0000
0000
0000
0000
0000
0000
0000
0010
0000
0000
0000
0000
0000
0000
0000
0000
0000
0000
0000
1000
0000
0000
0000
0000
0000
0000
0000
0000
0000
0000
0000
0000
0000
0000
0000
0000
0000
0000
0000
0000
0000
0000
0000
1000
0000
0000
0000
0000
0000
0000
0000
0000
0000
0000
0000
0100
0000
0000
0000
0000
0000
0000
0000
0000
0000
0000
0000
1000
0000
0000
0000
0000
0000
0000
0000
0000
0000
0000
0000
0002
0000
0000
0000
0000
0000
0000
0000
0000
0000
0000
0000
0000
0000
0000
0000
0000
0000
0000
0000
0000
0000
0003
0000
0001
0000
0000
0000
0000
0000
0000
0000
0000
0000
0000
0000
1000
0000
0000
0000
0000
0000
0000
0000
0000
0000
0000
0000
,  // measure 17
0010
0100
0001
0000
1000
0000
0100
0010
0000
0100
0000
1000
0000
0001
1000
0001
,  // measure 18
0010
0100
1000
0000
0001
0000
0100
0010
0000
0100
0000
0001
0000
1000
0001
1000
,  // measure 19
0010
0100
0001
0000
1000
0000
0100
0010
0000
0100
0000
1000
0000
0001
1000
0001
,  // measure 20
0010
0100
1000
0000
0001
0000
0100
0010
0000
0100
0001
0010
0000
0001
1000
0001
,  // measure 21
0100
0010
1000
0000
0001
0000
0010
0100
0000
0010
0000
0001
0000
1000
0001
1000
,  // measure 22
0100
0010
0001
0000
1000
0000
0010
0100
0000
0010
0000
1000
0000
0001
1000
0001
,  // measure 23
0100
0010
1000
0000
0001
0000
0010
0100
0000
0010
0000
0001
0000
1000
0001
1000
,  // measure 24
0100
0000
0000
0000
0000
0000
0000
0000
0000
0000
0000
0000
0010
0000
0000
0000
0000
0000
0000
0000
0000
0000
0000
0000
0001
0000
0000
0000
0000
0000
0000
0000
0000
0000
0000
0000
0000
0000
0000
0000
0000
0000
0000
0000
0000
0000
0000
0000
1000
0000
0000
0000
0000
0000
0000
0000
0000
0000
0000
0000
0000
0000
0000
0000
0000
0000
0000
0000
0000
0000
0000
0000
0010
0000
0000
0000
0000
0000
0000
0000
0000
0000
0000
0000
0100
0000
0000
0000
0000
0000
0000
0000
0000
0000
0000
0000
0000
0000
0000
0000
0000
0000
0000
0000
0000
0000
0000
0000
0010
0000
0000
0000
0000
0000
0000
0000
0000
0000
0000
0000
0100
0000
0000
0000
0000
0000
0000
0000
0000
0000
0000
0000
0001
0000
0000
0000
0000
0000
0000
0000
0000
0000
0000
0000
2000
0000
0000
0000
0000
0000
0000
0000
0000
0000
0000
0000
0000
0000
0000
0000
0000
0000
0000
0000
0000
0000
3000
0000
1000
0000
0000
0000
0000
0000
0000
0000
0000
0000
0000
0000
0001
0000
0000
0000
0000
0000
0000
0000
0000
0000
0000
0000
,  // measure 25
0020
0000
0000
0000
0000
0130
0010
0002
,  // measure 26
0000
0000
0000
2003
0000
0000
0000
0000
,  // measure 27
3020
0000
0000
0000
0000
0130
0010
2000
,  // measure 28
0000
0000
0000
3002
0000
0000
1000
0000
,  // measure 29
0203
0000
0000
0000
0000
0310
0100
0002
,  // measure 30
0000
0000
0000
2003
0000
0000
0000
0000
,  // measure 31
3200
0000
0000
0000
0000
0310
0100
1000
,  // measure 32
0001
0000
0100
0000
0100
0000
0010
0100
0000
0001
0100
0001
2MM0
0000
3001
0000
,  // measure 33
0020
0000
0000
0000
0000
0130
0010
0002
0000
0000
0000
2003
0000
0000
0000
0000
,  // measure 34
3020
0000
0000
0000
0000
0130
0010
2000
0000
0000
0000
3200
0000
0000
0000
0000
,  // measure 35
0320
0000
0000
0000
0000
0031
0010
0200
0000
0000
0000
2300
0000
0000
0000
0000
,  // measure 36
3020
0000
0000
0000
0000
0130
0010
2000
0000
0000
0000
0000
0000
0000
0000
0000
,  // measure 37
3001
0000
0000
0000
1000
0000
0100
0000
0010
0000
0000
0001
0000
0000
0200
0000
0000
0000
0000
0000
0000
0000
0000
0000
0000
0000
0000
0000
0301
0000
1000
0000
,  // measure 38
1000
0001
0100
0010
1000
0000
0001
0020
0000
0000
0000
0230
0000
0000
0000
0000
,  // measure 39
0310
0000
0001
0000
1000
0000
0010
0000
0100
0000
0000
0001
0000
0000
0020
0000
0000
0000
0000
0000
0000
0000
0000
0000
0000
0000
0000
0000
0031
0000
1000
0000
,  // measure 40
1000
0000
0000
0000
0001
0000
0010
0000
0000
0100
0000
1000
0000
0000
1000
0000
0000
1000
0000
0000
0001
0000
0000
0100
0000
0010
0000
1000
0000
0000
1000
0000
,  // measure 41
0000
0000
0001
0000
1000
0000
0100
0000
0010
0000
0000
0000
0001
0000
0200
0000
0000
0000
0000
0000
0000
0000
0301
0010
0000
0001
0010
0001
1000
0000
1000
0001
,  // measure 42
10M0
0000
0001
0000
0100
0000
0010
0000
2000
0000
0000
3002
0000
0000
0023
0000
,  // measure 43
0000
0000
0000
0000
0000
0000
0031
1000
,  // measure 44
1000
0010
0100
0001
0020
0000
0130
2000
,  // measure 45
0000
0000
0000
3002
0000
0000
1000
0000
,  // measure 46
0103
0000
0010
0000
1000
0000
0001
0000
0020
0000
0000
0230
0000
0000
2300
0000
,  // measure 47
0000
0000
0000
0000
0000
0000
3001
0100
,  // measure 48
0200
0000
0000
0000
0310
0000
1000
0000
0000
0001
0000
0000
0100
0000
0100
0000
,  // measure 49
0000
0000
0100
0000
0001
0000
0000
1000
0000
0100
0000
0000
0020
0000
0000
0000
,  // measure 50
0031
0000
1000
0000
0010
0000
0100
0000
0002
0000
0000
2003
0000
0000
3200
0000
,  // measure 51
0000
0000
0000
0000
0000
0000
0310
0001
,  // measure 52
0001
0000
1000
0010
0100
0000
0001
0000
2000
0000
0000
3200
0000
0000
0320
0000
,  // measure 53
0000
0000
0000
0032
0000
2003
0000
3002
,  // measure 54
0000
0000
0103
0000
0001
0000
0100
0000
0020
0000
0000
2030
0000
0000
3200
0000
,  // measure 55
0000
0000
0000
0000
0000
0000
0310
0001
,  // measure 56
0002
0000
0000
0000
1003
0000
0010
0000
0100
0001
1000
0001
0000
1000
0100
0000
,  // measure 57
0010
0000
0100
0000
0100
0000
0010
0100
0000
1000
0100
1000
0MM2
0000
1003
0000
,  // measure 58
0001
0100
0010
1000
0000
0001
0100
0001
0000
1000
0010
1000
0000
0001
1000
0100
,  // measure 59
0000
0010
0100
1000
0000
0001
1000
0010
0000
0100
0001
0100
0000
0001
1000
0001
,  // measure 60
0000
0010
0001
1000
0000
0100
1000
0010
0000
0100
0001
1000
0000
0001
0010
0100
,  // measure 61
0000
1000
0001
1000
0000
0100
0010
0001
0000
0001
1000
0010
0000
1000
0001
1000
,  // measure 62
0100
0010
0001
1000
0000
0001
0010
0001
0000
1000
0010
0100
0000
0001
1000
0010
,  // measure 63
0000
0100
0010
1000
0000
0001
1000
0100
0000
0010
0001
0010
0000
0001
0200
0000
,  // measure 64
0310
1000
0001
1000
0000
0001
0010
0100
0000
1000
0001
0100
0000
0001
0020
0000
,  // measure 65
0031
1000
0001
0010
0000
0100
1000
0010
0000
1000
0010
1000
0001
0000
1000
0001
;

//---------------dance-single - Gazebo----------------
#NOTES:
     dance-single:
     Gazebo:
     Medium:
     6:
     0.425,0.000,0.029,0.429,0.294: // measure 1
0000
0000
0000
0000
,  // measure 2
0000
0000
0000
0000
,  // measure 3
0000
0000
0000
0000
,  // measure 4
0000
0000
0000
0000
,  // measure 5
2000
0000
0000
0010
0000
0000
0010
0000
0000
0010
0000
0000
0010
0000
3010
0000
,  // measure 6
0200
0000
0000
0001
0000
0000
0001
0000
0000
0001
0000
0000
0001
0000
0301
0000
,  // measure 7
2000
0000
0000
0010
0000
0000
0010
0000
0000
0010
0000
0000
0010
0000
3010
0000
,  // measure 8
0200
0000
0000
0001
0000
0000
0001
0000
0300
0000
0000
0000
1MM1
0000
0000
0000
,  // measure 9
1000
0100
1000
0001
0000
0100
0010
1000
,  // measure 10
0000
0010
0100
0001
0000
1000
0100
0010
,  // measure 11
0000
0100
1000
0001
0000
0100
0010
1000
,  // measure 12
0000
0010
0100
0001
0000
1000
1001
0000
,  // measure 13
0001
0100
0010
1000
0000
0010
0100
0001
,  // measure 14
0000
1000
0100
1000
0000
0001
0010
0100
,  // measure 15
0000
0010
0001
1000
0000
0001
0100
0010
,  // measure 16
0000
1000
0001
0100
0000
0010
2000
0000
,  // measure 17
3001
0000
0010
0000
0001
0000
0000
1000
0000
0010
0000
0100
0000
0000
0100
0000
,  // measure 18
0001
0000
1000
0000
0100
0000
0000
0010
0000
0100
0000
1000
0000
0000
1000
0000
,  // measure 19
0001
0000
0100
0000
0010
0000
0000
1000
0000
0010
0000
0100
0000
0000
0100
0000
,  // measure 20
0001
0000
1000
0000
0100
0000
0000
0010
0000
0001
0000
1000
0000
0000
1000
0000
,  // measure 21
0010
0000
0100
0000
0001
0000
0000
1000
0000
0100
0000
0010
0000
0000
0010
0000
,  // measure 22
0001
0000
1000
0000
0010
0000
0000
0100
0000
0001
0000
1000
0000
0000
1000
0000
,  // measure 23
0100
0000
0010
0000
0001
0000
0000
1000
0000
0010
0000
0100
0000
0000
0100
0000
,  // measure 24
0001
0000
1000
0000
0100
0000
0000
0010
0000
0100
0000
1000
0002
0000
0000
0000
,  // measure 25
0023
0000
0000
0000
0000
0130
0010
0002
,  // measure 26
0000
0000
0000
2003
0000
0000
0000
0000
,  // measure 27
3020
0000
0000
0000
0000
0130
0010
2000
,  // measure 28
0000
0000
0000
3002
0000
0000
1000
0000
,  // measure 29
0203
0000
0000
0000
0000
0310
0100
0002
,  // measure 30
0000
0000
0000
2003
0000
0000
0000
0000
,  // measure 31
3200
0000
0000
0000
0000
0310
0100
1000
,  // measure 32
0001
0000
0100
0000
0100
0000
0010
0100
0000
0001
0100
0001
2MM0
0000
3001
0000
,  // measure 33
0020
0000
0000
0000
0000
0130
0010
0002
0000
0000
0000
2003
0000
0000
0000
0000
,  // measure 34
3020
0000
0000
0000
0000
0130
0010
2000
0000
0000
0000
3200
0000
0000
0000
0000
,  // measure 35
0320
0000
0000
0000
0000
0031
0010
0200
0000
0000
0000
2300
0000
0000
0000
0000
,  // measure 36
3020
0000
0000
0000
0000
0130
0010
2000
0000
0000
0000
0000
0000
0000
0000
0000
,  // measure 37
3001
0000
0000
0000
1000
0000
0100
0000
0010
0000
0000
0001
0000
0000
0200
0000
0000
0000
0000
0000
0000
0000
0000
0000
0000
0000
0000
0000
0301
0000
1000
0000
,  // measure 38
1000
0001
0100
0010
1000
0000
0001
0020
0000
0000
0000
0230
0000
0000
0000
0000
,  // measure 39
0310
0000
0001
0000
1000
0000
0010
0000
0100
0000
0000
0001
0000
0000
0020
0000
0000
0000
0000
0000
0000
0000
0000
0000
0000
0000
0000
0000
0031
0000
1000
0000
,  // measure 40
1000
0000
0000
0000
0001
0000
0010
0000
0000
0100
0000
1000
0000
0000
1000
0000
0000
1000
0000
0000
0001
0000
0000
0100
0000
0010
0000
1000
0000
0000
1000
0000
,  // measure 41
0000
0001
1000
0100
0010
0000
0001
0200
0000
0000
0000
0301
0000
0001
1000
0010
,  // measure 42
1M00
0000
0001
0000
0100
0000
0010
0000
2000
0000
0000
3002
0000
0000
0023
0000
,  // measure 43
0000
0000
0000
0000
0000
0000
0031
1000
,  // measure 44
1000
0010
0100
0001
0020
0000
0130
2000
,  // measure 45
0000
0000
0000
3002
0000
0000
1000
0000
,  // measure 46
0103
0000
0010
0000
1000
0000
0001
0000
0020
0000
0000
0230
0000
0000
2300
0000
,  // measure 47
0000
0000
0000
0000
0000
0000
3001
0100
,  // measure 48
0200
0000
0000
0000
0310
0000
1000
0000
0000
0001
0000
0000
0100
0000
0100
0000
,  // measure 49
0000
0000
0100
0000
0001
0000
0000
1000
0000
0100
0000
0000
0020
0000
0000
0000
,  // measure 50
0031
0000
1000
0000
0010
0000
0100
0000
0002
0000
0000
2003
0000
0000
3200
0000
,  // measure 51
0000
0000
0000
0000
0000
0000
0310
0001
,  // measure 52
0001
0000
0000
0000
0100
0000
0001
0000
2000
0000
0000
3200
0000
0000
0320
0000
,  // measure 53
0000
0000
0000
0032
0000
2003
0000
3002
,  // measure 54
0000
0000
0103
0000
0001
0000
0100
0000
0020
0000
0000
2030
0000
0000
3200
0000
,  // measure 55
0000
0000
0000
0000
0000
0000
0310
0001
,  // measure 56
0002
0000
1003
0010
0100
0001
1000
0200
,  // measure 57
0000
0310
0001
1000
0000
1000
0002
0000
,  // measure 58
1003
0010
1000
0001
0000
0100
0010
1000
,  // measure 59
0000
0001
0010
0001
0000
1000
0100
0010
,  // measure 60
0000
0001
1000
0001
0000
0100
0001
1000
,  // measure 61
0000
0010
0100
0001
0000
1000
1001
0000
,  // measure 62
0001
0010
0001
1000
0000
0100
0010
0001
,  // measure 63
0000
1000
0010
1000
0000
0001
0100
0010
,  // measure 64
0000
1000
0010
0100
0000
0001
1000
0100
,  // measure 65
0000
0010
0001
1000
0000
0001
1001
1000
;

//---------------dance-single - Gazebo----------------
#NOTES:
     dance-single:
     Gazebo:
     Easy:
     2:
     0.203,0.000,0.044,0.378,0.044: // measure 1
0000
0000
0000
0000
,  // measure 2
0000
0000
0000
0000
,  // measure 3
0000
0000
0000
0000
,  // measure 4
0000
0000
0000
0000
,  // measure 5
2000
0000
0000
0000
,  // measure 6
3002
0000
0000
0000
,  // measure 7
0203
0000
0000
0000
,  // measure 8
0320
0000
0030
1001
,  // measure 9
1000
0000
0001
0000
,  // measure 10
0010
0000
0001
0000
,  // measure 11
1000
0000
0010
0000
,  // measure 12
0100
0000
0001
1001
,  // measure 13
1000
0000
0100
0000
,  // measure 14
1000
0000
0001
0000
,  // measure 15
0010
0000
0100
0000
,  // measure 16
1000
0000
0001
0200
,  // measure 17
0301
0000
1000
0000
,  // measure 18
0010
0000
0100
0000
,  // measure 19
0010
0000
1000
0000
,  // measure 20
0001
0000
0010
0110
,  // measure 21
0100
0000
1000
0000
,  // measure 22
0001
0000
0100
0000
,  // measure 23
0010
0000
0100
0000
,  // measure 24
0001
0000
1000
0002
,  // measure 25
0023
0000
0000
0000
0000
0000
0000
0032
,  // measure 26
0000
0000
0000
2003
0000
0000
0000
0000
,  // measure 27
3020
0000
0000
0000
0000
0000
0000
2030
,  // measure 28
0000
0000
0000
3002
0000
0000
0000
0000
,  // measure 29
0203
0000
0000
0000
0000
0000
0000
0302
,  // measure 30
0000
0000
0000
2003
0000
0000
0000
0000
,  // measure 31
3200
0000
0000
0000
0000
0000
0000
2300
,  // measure 32
0000
0000
0000
3002
0000
0000
0000
0000
,  // measure 33
0203
0000
0000
0000
0000
0000
0000
0302
0000
0000
0000
2003
0000
0000
0000
0000
,  // measure 34
3200
0000
0000
0000
0000
0000
0000
0320
0000
0000
0000
0032
0000
0000
0000
0000
,  // measure 35
2003
0000
0000
0000
0000
0000
0000
3020
0000
0000
0000
0230
0000
0000
0000
0000
,  // measure 36
0302
0000
0000
0000
0000
0000
0000
2003
0000
0000
0000
0000
0000
0000
0000
0000
,  // measure 37
3001
0000
0000
0000
0010
0000
0000
0200
0000
0000
0000
0000
0000
0000
1300
0000
,  // measure 38
0001
0000
0000
0000
0100
0000
0000
0020
0000
0000
0000
0230
0000
0000
0000
0000
,  // measure 39
0301
0000
0000
0000
1000
0000
0000
0200
0000
0000
0000
0000
0000
0000
0310
0000
,  // measure 40
0001
0000
0001
0000
,  // measure 41
1000
0000
0000
0000
0010
0000
0000
0200
0000
0000
0000
0000
0000
0000
0000
0000
,  // measure 42
0301
0000
1000
0000
0002
0000
0000
0023
,  // measure 43
0000
0000
0000
0130
,  // measure 44
1000
0000
0000
0000
0001
0000
0000
0200
,  // measure 45
0000
0000
0000
0302
0000
0000
0000
0000
,  // measure 46
1003
0000
0100
0000
0010
0000
0000
0002
,  // measure 47
0000
0000
0000
1003
,  // measure 48
0002
0000
0000
0203
0000
0000
0000
0320
,  // measure 49
0000
0000
0000
2030
0000
0000
0000
0000
,  // measure 50
3001
0000
0010
0000
0200
0000
0000
2300
,  // measure 51
0000
0000
0000
3001
,  // measure 52
1000
0000
0010
0000
0200
0000
0000
0302
,  // measure 53
0000
0000
0000
2003
0000
3002
0000
2003
,  // measure 54
0000
0000
3001
0000
0020
0000
0000
0230
,  // measure 55
0000
0000
0000
1300
,  // measure 56
0001
0000
0100
0000
,  // measure 57
0010
0000
1000
1001
,  // measure 58
0001
0000
1000
0000
,  // measure 59
0001
0000
0010
0000
,  // measure 60
0100
0000
1000
0000
,  // measure 61
0001
0000
1000
1001
,  // measure 62
0001
0000
0100
0000
,  // measure 63
0010
0000
1000
0000
,  // measure 64
0010
0000
0100
0000
,  // measure 65
0001
0000
1000
1001
;

//---------------dance-single - Gazebo----------------
#NOTES:
     dance-single:
     Gazebo:
     Beginner:
     1:
     0.082,0.000,0.015,0.000,0.000: // measure 1
0000
0000
0000
0000
,  // measure 2
0000
0000
0000
0000
,  // measure 3
0000
0000
0000
0000
,  // measure 4
0000
0000
0000
0000
,  // measure 5
1000
0000
0000
0000
,  // measure 6
0001
0000
0000
0000
,  // measure 7
1000
0000
0000
0000
,  // measure 8
0001
0000
0000
0000
,  // measure 9
0110
0000
0000
0000
,  // measure 10
1000
0000
0000
0000
,  // measure 11
0010
0000
0000
0000
,  // measure 12
1000
0000
1000
0000
,  // measure 13
1000
0000
0000
0000
,  // measure 14
0001
0000
0000
0000
,  // measure 15
0010
0000
0000
0000
,  // measure 16
0100
0000
0100
0000
,  // measure 17
0100
0000
0000
0000
,  // measure 18
0010
0000
0000
0000
,  // measure 19
0001
0000
0000
0000
,  // measure 20
1000
0000
1000
0000
,  // measure 21
1000
0000
0000
0000
,  // measure 22
0001
0000
0000
0000
,  // measure 23
0100
0000
0000
0000
,  // measure 24
0010
0000
0010
0000
,  // measure 25
0010
0000
0000
0000
,  // measure 26
1000
0000
0000
0000
,  // measure 27
0010
0000
0000
0000
,  // measure 28
0100
0000
0000
0000
,  // measure 29
0001
0000
0000
0000
,  // measure 30
1000
0000
0000
0000
,  // measure 31
0100
0000
0000
0000
,  // measure 32
0010
0000
0010
0000
,  // measure 33
0010
0000
0001
0000
,  // measure 34
0010
0000
0100
0000
,  // measure 35
1000
0000
0001
0000
,  // measure 36
0100
0000
0010
0000
,  // measure 37
1000
0000
0000
0000
,  // measure 38
0001
0000
0000
0000
,  // measure 39
1000
0000
0000
0000
,  // measure 40
0100
0000
0000
0000
,  // measure 41
0010
0000
0010
0000
,  // measure 42
0010
0000
0000
0000
,  // measure 43
0001
0000
0000
0000
,  // measure 44
1000
0000
0000
0000
,  // measure 45
0010
0000
0010
0000
,  // measure 46
0010
0000
0000
0000
,  // measure 47
0100
0000
0000
0000
,  // measure 48
0001
0000
0000
0000
,  // measure 49
1000
0000
1000
0000
,  // measure 50
1000
0000
0000
0000
,  // measure 51
0100
0000
0000
0000
,  // measure 52
0010
0000
0000
0000
,  // measure 53
0001
0000
0001
0000
,  // measure 54
0001
0000
0000
0000
,  // measure 55
1000
0000
0000
0000
,  // measure 56
0010
0000
0000
0000
,  // measure 57
1000
0000
1000
0000
,  // measure 58
1000
0000
0000
0000
,  // measure 59
0001
0000
0000
0000
,  // measure 60
1000
0000
0000
0000
,  // measure 61
0100
0000
0100
0000
,  // measure 62
0100
0000
0000
0000
,  // measure 63
0010
0000
0000
0000
,  // measure 64
0001
0000
0000
0000
,  // measure 65
1000
0000
0000
1001
;
