#TITLE:MASCARADA;
#SUBTITLE:;
#ARTIST:Takajii;
#TITLETRANSLIT:;
#SUBTITLETRANSLIT:;
#ARTISTTRANSLIT:;
#GENRE:Acoustic;
#CREDIT:;
#BANNER:mascarada bn.png;
#BACKGROUND:mascarada bg.png;
#LYRICSPATH:;
#CDTITLE:;
#MUSIC:mascarada.ogg;
#OFFSET:-0.018;
#SAMPLESTART:96.000;
#SAMPLELENGTH:14.785;
#SELECTABLE:YES;
#BPMS:0.000=130.000;
#STOPS:;
#TIMESIGNATURES:0.000=4=4
;
#BGCHANGES:;
#KEYSOUNDS:;

//---------------dance-single - R. Uchima----------------
#NOTES:
     dance-single:
     R. Uchima:
     Challenge:
     12:
     0.968,1.000,0.268,0.320,1.000,830.000,36.000,43.000,0.000,0.000,0.000,0.968,1.000,0.268,0.320,1.000,830.000,36.000,43.000,0.000,0.000,0.000: // measure 1
0000
0000
0000
0000
,  // measure 2
0000
0000
0000
0000
0000
0000
0000
1100
,  // measure 3
0011
0000
0001
0000
0100
1000
0000
0100
0000
0001
0000
1000
0100
0000
1100
0000
,  // measure 4
0011
0000
0001
0000
0100
1000
0000
0100
0000
0001
0000
1000
0100
0000
1001
0000
,  // measure 5
1010
0000
1000
0000
0010
0001
0000
0010
0000
1000
0000
0001
1000
0000
1001
0000
,  // measure 6
1010
0000
1000
0000
0010
0001
0000
0010
0000
1000
0000
0001
1000
0000
1001
0000
,  // measure 7
1100
0000
0000
0000
0000
0000
0000
0000
0000
0000
0000
0000
0000
0000
0000
0000
1100
0000
0000
0000
0000
0000
0000
0000
0000
0000
0000
0000
0000
0000
0000
0000
1100
0000
0000
0000
0000
0000
0000
0000
0000
0000
0000
0000
0000
0000
0000
0000
0000
0000
0000
0000
0000
0000
0000
0000
0000
0000
0000
0000
0000
0000
0000
0000
1100
0000
0000
0000
0000
0000
0000
0000
0000
0000
0000
0000
0000
0000
0000
0000
1100
0000
0000
0000
0000
0000
0000
0000
0000
0000
0000
0000
0000
0000
0000
0000
1100
0000
0000
0000
0000
0000
0000
0000
0000
0000
0000
0000
0000
0000
0000
0000
0000
0000
0000
0000
0000
0000
0000
0000
0000
0000
0000
0000
0000
0000
0000
0000
0000
0000
0000
0000
1000
0000
0000
0000
0000
0000
0001
0000
0000
0000
0000
0000
1000
0000
0000
0000
0000
0000
0000
0000
0000
0000
0000
0000
0000
0000
0000
0000
0000
0000
0000
0000
0000
0000
0000
0000
0001
0000
0000
0000
0000
0000
0000
0000
0000
0000
0000
0000
0000
0000
0000
0000
0000
0000
0000
0000
0000
0000
0000
0000
,  // measure 8
0101
0000
0100
0001
1000
0010
1000
0100
0000
0010
0000
0001
0000
1000
0010
0000
,  // measure 9
1000
0010
0100
0001
0010
0100
0000
1000
0000
0001
1000
0010
0001
0010
0100
0001
,  // measure 10
0010
0000
0100
1000
0001
0010
0001
0100
0000
0010
0000
1000
0000
0001
0010
0000
,  // measure 11
0100
0010
0001
0100
0010
1000
0000
0200
0000
1300
0100
0000
0000
1000
0010
1000
,  // measure 12
0010
0000
1000
0100
0010
0001
0100
0010
0000
1000
0000
0001
0000
1000
0100
0000
,  // measure 13
1000
0010
0100
0001
0010
0001
0000
1000
0000
0100
1000
0100
0001
0100
0010
0001
,  // measure 14
0010
0000
0001
0100
0010
1000
0100
0010
0000
0100
0000
1000
0000
0001
0100
0000
,  // measure 15
0010
0000
0000
1000
0000
0000
0100
0000
0000
0010
0000
0000
0001
0000
0000
0010
0000
0000
0000
0000
0000
0002
0000
0000
0000
0000
0000
1003
0000
0000
0001
0000
0000
0000
0000
0000
1000
0000
0001
0000
1000
0000
0100
0000
0010
0000
0001
0000
,  // measure 16
2000
0000
0000
3010
1000
0010
1000
0001
0000
0020
0100
0000
0130
0000
0010
0000
,  // measure 17
0012
0000
0000
1003
0001
1000
0001
0100
0000
0020
1000
0000
1030
0000
0001
0000
,  // measure 18
0021
0000
0000
0130
1000
0100
1000
0000
0010
0000
0100
0010
0000
1000
0000
0100
,  // measure 19
0020
0000
0000
0031
0010
0001
0010
0001
0100
0000
1000
0000
0100
0000
0010
0000
,  // measure 20
0210
0000
0000
0301
0100
0001
1000
0000
0100
0000
0100
0001
0000
0100
0000
1000
,  // measure 21
0002
0000
0000
0103
0001
0100
0001
0000
0010
0000
0010
1000
0000
0010
0000
0100
,  // measure 22
2000
0000
0000
3001
0100
0001
0100
0000
0010
0000
0000
1000
0000
0000
0001
0000
,  // measure 23
0010
0000
0000
0000
0000
0000
0000
0000
0001
0000
0000
0000
0000
0000
0000
0000
0010
0000
0000
0000
0000
0000
0000
0000
0100
0000
0000
0000
0000
0000
0000
0000
0010
0000
0000
0000
0000
0000
0000
0000
0001
0000
0000
0000
0000
0000
0000
0000
1000
0000
0000
0000
0000
0000
0000
0000
0100
0000
0000
0000
0000
0000
0000
0000
0010
0000
0000
0000
0000
0000
0000
0000
0100
0000
0000
0000
0000
0000
0000
0000
1000
0000
0000
0000
0000
0000
0000
0000
0001
0000
0000
0000
0000
0000
0000
0000
0200
0000
0000
0000
0000
0000
0000
0000
0000
0000
0000
0000
0000
0000
0000
0000
0000
0000
0000
0000
0000
0000
0000
0000
0000
0000
0000
0000
0000
0000
0000
0000
0000
0000
0000
0000
0310
0000
0000
0000
0000
0000
0100
0000
0000
0000
0000
0000
0010
0000
0000
0000
0000
0000
0000
0000
0000
0000
0000
0000
0000
0000
0000
0000
0000
0000
0000
0000
0000
0000
0000
0000
1000
0000
0000
0000
0000
0000
0000
0000
0000
0000
0000
0000
0001
0000
0000
0000
0000
0000
0000
0000
0000
0000
0000
0000
,  // measure 24
0100
0000
0010
1000
0100
0010
0001
0100
0000
0001
0000
1000
0000
0100
1000
0000
,  // measure 25
0100
1000
0100
0010
0001
0100
0000
0010
0000
0100
0001
0100
1000
0100
0010
1000
,  // measure 26
0001
0000
0010
0001
0100
0010
1000
0100
0000
1000
0000
0001
0000
1000
0010
0000
,  // measure 27
0100
0001
0100
0010
1000
0100
0000
0020
0000
0031
0010
0000
0001
0000
0000
1002
,  // measure 28
0000
0000
1003
0001
0100
0000
0000
2000
0000
0000
3100
0001
1000
0000
0000
0200
,  // measure 29
0000
0000
1300
0100
0010
0000
0000
2000
0000
0000
3010
0100
1000
0000
0000
0002
,  // measure 30
0000
0000
0103
0001
0010
0000
0000
2000
0000
0000
3010
0001
0100
0000
0000
0020
,  // measure 31
0000
0000
1030
0001
0010
0100
1000
0010
0000
0100
0001
0000
0100
0001
1000
0001
,  // measure 32
0020
0000
0000
0000
0000
0000
0000
0000
0031
0000
0000
0000
1000
0001
1000
0000
0001
0000
0100
0010
0100
0000
0010
0000
1000
0000
0001
0000
1000
0000
0100
0000
,  // measure 33
0010
0000
0001
0010
0000
0001
1000
0000
0001
0100
0000
0020
0000
0000
1030
0100
,  // measure 34
0020
0000
0000
0031
0010
0001
0010
0001
0000
1000
0010
0000
0100
0010
1000
0100
,  // measure 35
0010
0001
1000
0100
0010
0100
1000
0010
1000
0000
0100
0010
0001
1000
0010
0000
,  // measure 36
0000
0000
0000
1000
0000
0000
0001
0000
1000
0000
0100
0000
0010
0000
0000
0200
0000
0000
0000
0000
0000
1000
0000
0000
0000
0000
0000
1300
0000
0000
0001
0000
0000
0000
0000
0000
0000
0000
0000
0100
0000
0000
0001
0000
0100
0000
0010
0000
,  // measure 37
1000
0000
0000
1000
0000
0000
1000
0000
0000
1000
0000
0000
1000
0000
0000
1000
0000
0000
1000
0000
0000
1000
0000
0000
1000
0000
0000
0001
0000
0000
0010
0000
,  // measure 38
0100
0000
1000
0100
0000
0010
0200
1000
0000
1300
0010
0000
0100
0000
0001
0000
,  // measure 39
0001
0000
1000
0000
0001
0000
0100
0000
0010
0000
1000
0000
0100
0000
0010
0000
0001
0000
0100
0000
0010
0000
0100
0000
0001
1000
0001
0000
1000
0000
0100
0000
,  // measure 40
0010
0001
0010
0100
1000
0001
0100
0001
0020
0000
0000
0000
0130
0000
0010
0001
,  // measure 41
1000
0010
0100
0001
0100
0010
1000
0001
0010
0100
0010
0001
1000
0010
1000
0001
0100
0010
0100
0001
1000
0100
1000
0001
,  // measure 42
0010
0001
1000
0010
0100
0001
1000
0100
0010
0001
0010
0100
0010
0001
1000
0010
0100
0010
1000
0001
0010
0100
1000
0001
,  // measure 43
0100
0000
0010
0100
0000
0001
0000
0001
0010
0001
0000
0001
1000
0001
0000
0001
,  // measure 44
0100
0000
0000
0010
0000
0000
1000
0000
0000
0100
0000
0000
0010
0000
0000
0100
0000
0000
1000
0000
0000
0001
0000
0000
0100
0000
0000
0000
0200
0000
0000
0000
0000
0000
0000
0000
0000
0000
0000
0001
0000
0000
0000
0000
0000
0000
0000
0000
,  // measure 45
0301
0000
0000
1100
0000
0000
0000
0000
0000
0100
1000
0100
0010
0001
1000
0010
0000
0000
0000
0000
0000
0110
0000
0000
,  // measure 46
0101
0000
0000
0000
0000
0000
0001
1000
0001
0010
0100
1000
0001
0010
0001
1000
0000
0000
0000
0000
0000
1001
0000
0000
,  // measure 47
0011
0000
0000
0000
0000
0000
0010
0100
1000
0100
0010
0001
1000
0010
0100
0001
0000
0000
0000
0000
0000
0000
0000
0000
,  // measure 48
1001
0000
1001
0000
1001
1001
0000
0021
0000
0000
0000
0000
0130
0000
0000
0000
,  // measure 49
0010
0000
0001
0100
0010
1000
0100
1000
0000
0001
0000
1000
0000
0010
1000
0000
,  // measure 50
0001
1000
0100
0010
0001
0010
0000
0001
0000
1000
0010
0100
1000
0100
0001
1000
,  // measure 51
0100
0000
1000
0010
0100
0001
0010
0100
0000
0010
0000
0001
0000
1000
0010
0000
,  // measure 52
0100
0001
0100
0010
1000
0100
0000
0020
0000
0031
0010
0001
0010
0001
1000
0010
,  // measure 53
0100
0000
0001
0010
0100
1000
0010
0100
0000
0010
0000
1000
0000
0001
0100
0000
,  // measure 54
0010
1000
0010
0100
0001
1000
0000
0001
0000
0010
0100
0010
1000
0010
0001
1000
,  // measure 55
0010
0000
1000
0100
0010
0001
0100
0010
0000
1000
0000
0010
0000
1000
0001
0000
,  // measure 56
1000
0000
0000
0100
0000
0000
1000
0000
0000
0001
0000
0000
0100
0000
0000
0010
0000
0000
0000
0000
0000
2000
0000
0000
0000
0000
0000
3001
0000
0000
1000
0000
0000
0000
0000
0000
0100
0000
1000
0000
0100
0000
0010
0000
0001
0000
1000
0000
,  // measure 57
0020
0000
0000
0130
0010
0100
0010
1000
0000
0002
0010
0000
0013
0000
0100
0000
,  // measure 58
0120
0000
0000
0031
1000
0001
1000
0010
0000
2000
0100
0000
3100
0000
0010
0000
,  // measure 59
0012
0000
0000
1003
0010
1000
0001
0000
0010
0000
0010
0100
0000
1000
0000
0010
,  // measure 60
0200
0000
0000
0000
0000
0000
0000
0000
0000
0301
0000
0000
0100
0000
0000
0001
0000
0000
0100
0000
0001
0000
0100
0000
0010
0000
0000
0000
0000
0000
0001
0000
0000
0000
0000
0000
0010
0000
0000
0000
0000
0000
1000
0000
0000
0000
0000
0000
,  // measure 61
2001
0000
0000
3001
1000
0001
0100
0000
0010
0000
0010
0001
0000
0010
0000
1000
,  // measure 62
0002
0000
0000
0013
0001
0010
0100
0000
1000
0000
0000
1020
0000
0130
0010
0100
,  // measure 63
0001
0000
0000
0000
0000
0000
0000
0000
0000
0000
0000
0000
1000
0000
0100
0000
0010
0000
0100
0000
0000
1000
0000
0000
0100
0000
0010
0000
0100
0000
1000
0000
0000
0001
0000
0000
1000
0000
0000
0010
0000
0000
1000
0000
0000
0100
0000
0000
,  // measure 64
0010
0000
0001
0000
0010
0000
0100
0000
1000
0000
0001
0000
0100
0000
0010
0000
1000
0000
0010
0000
0100
0000
0001
0000
0020
0000
0000
0000
0000
0000
0000
0000
0000
0000
0000
0000
0031
0000
0000
0000
0000
0000
1000
0000
0000
0001
0000
0000
,  // measure 65
1000
0000
0010
1000
0100
0010
0001
0100
0000
0001
0000
1000
0000
0100
0010
0000
,  // measure 66
0100
1000
0100
0010
0001
1000
0000
0010
0000
0100
0001
0100
1000
0100
0010
1000
,  // measure 67
0001
0000
0010
0001
0100
0010
1000
0100
0000
0010
0000
0100
0000
1000
0010
0000
,  // measure 68
0100
0001
0100
0010
1000
0001
0000
0020
0000
0031
0010
0000
0001
1000
0001
1000
,  // measure 69
0010
0000
1000
0100
0010
0001
0100
0001
0000
1000
0000
0001
0000
0010
0001
0000
,  // measure 70
1000
0010
0100
0010
1000
0001
0000
0010
0000
0100
1000
0100
0001
0100
0010
0001
,  // measure 71
0100
0000
0010
1000
0100
0010
0100
1000
0000
0001
0000
0100
0000
0010
0100
0000
,  // measure 72
0010
0100
0001
1000
0100
0010
0100
1000
0001
0100
0010
0100
0001
0000
0000
1100
0000
0000
0202
0000
0000
0000
0000
0000
,  // measure 73
0303
0000
0000
0000
;

//---------------dance-single - J. Berkowitz----------------
#NOTES:
     dance-single:
     J. Berkowitz:
     Hard:
     10:
     0.758,0.053,0.149,0.440,1.000: // measure 1
0000
0000
0000
0000
,  // measure 2
0000
0000
0000
0000
0000
0000
0000
1001
,  // measure 3
1001
0000
0000
0000
0000
0000
0000
0110
,  // measure 4
0110
0000
0000
0000
0000
0000
0000
1010
,  // measure 5
1010
0000
0000
0000
0000
0000
0000
0101
,  // measure 6
0101
0000
0000
0000
0000
0000
0000
0011
,  // measure 7
0001
0000
0000
0000
0001
0000
0000
0000
0001
0000
0000
0000
0000
0000
0000
0000
1000
0000
0000
0000
1000
0000
0000
0000
1000
0000
0000
0000
0000
0000
0000
0000
0000
0001
0000
0000
1000
0000
0000
0000
0000
0000
0100
0000
0000
0000
0000
0000
,  // measure 8
0010
0000
0001
0100
0001
0100
0001
0100
0000
0010
0000
1000
0000
0100
1000
0000
,  // measure 9
0001
0000
0100
0010
0100
0010
0000
1000
0000
0001
0010
0001
0010
0100
1000
0100
,  // measure 10
1000
0000
0001
0100
0001
0100
0001
0100
0000
0010
0000
1000
0000
0100
1000
0000
,  // measure 11
0010
0000
0100
0001
0100
0001
0000
2000
0000
0000
0000
0000
3100
0000
0000
0100
,  // measure 12
0010
0000
0001
1000
0010
1000
0001
1000
0000
0100
0000
0010
0000
0001
0100
0000
,  // measure 13
0010
1000
0100
1000
0010
1000
0000
0100
0000
0010
0001
0010
0100
0010
0001
0010
,  // measure 14
0100
0000
1000
0001
0100
0001
1000
0001
0000
0010
0000
0100
0000
1000
0001
0000
,  // measure 15
0100
0010
1000
0010
0100
0010
0000
2000
0000
0000
0000
0000
3002
0000
0000
0003
,  // measure 16
2010
0000
0000
0000
0000
0000
0000
0000
0000
3200
0000
0000
0320
0000
0032
0000
,  // measure 17
0203
0000
0000
0000
0000
0000
0000
0000
0000
0320
0000
0000
2030
0000
3002
0000
,  // measure 18
0203
0000
0000
0000
0000
0000
0302
0000
0023
0000
0000
0130
0000
1000
0000
0002
,  // measure 19
0000
0000
0000
0000
0000
0000
0000
1003
0010
0000
0100
0000
0001
0000
0010
0000
,  // measure 20
0200
0000
0000
0000
0000
0000
1300
0000
0002
0000
0000
0103
0000
0010
0000
2000
,  // measure 21
0000
0000
0000
0000
0000
0000
3100
0000
0010
0000
0010
0001
0000
0100
0000
0020
,  // measure 22
0000
0000
0000
0000
0000
0000
1030
0000
0001
0000
0000
0010
0000
0000
0100
0000
,  // measure 23
1000
0001
1000
0001
1000
0001
1000
0001
1000
0000
0000
0000
1001
0000
0000
0000
,  // measure 24
0001
0000
1000
0010
0100
0010
1000
0010
0000
0100
0000
0001
0000
0010
0100
0000
,  // measure 25
1000
0001
0100
0001
1000
0001
0000
0010
0000
0100
1000
0001
1000
0100
1000
0001
,  // measure 26
1000
0000
0010
0100
0001
0100
0010
0100
0000
0001
0000
0010
0000
0100
1000
0000
,  // measure 27
0001
1000
0100
1000
0001
1000
0000
0020
0000
0000
0000
0000
0000
0000
0000
1030
,  // measure 28
0000
0000
0100
0010
0001
0000
0000
0100
0000
0000
0010
1000
0001
0000
0000
0010
,  // measure 29
0000
0000
0100
1000
0010
0000
0000
0100
0000
0000
0001
1000
0100
0000
0000
0010
,  // measure 30
0000
0000
0100
1000
0010
0000
0000
0100
0000
0000
0001
1000
0100
0000
0000
0010
,  // measure 31
0000
0000
0001
1000
0010
1000
0001
0010
0000
0001
0010
0100
1000
0100
0010
0001
,  // measure 32
0200
0000
0010
0000
1000
0000
0010
0010
,  // measure 33
0301
0000
1000
0000
0000
0100
0000
0000
0010
0000
0000
0002
0000
0000
0103
0010
,  // measure 34
2000
0000
0000
0000
3001
0100
0000
0001
0000
0100
0001
0100
0001
0000
1000
0100
,  // measure 35
0010
0001
0010
0001
0010
0001
0010
0001
1000
0000
0001
0100
0010
1000
0020
0000
,  // measure 36
0000
1030
0100
0010
0001
2000
0000
0000
0000
0000
0000
0000
0000
0000
3010
0100
,  // measure 37
0004
0000
0000
0000
0000
0000
0000
0000
0000
0000
0000
0000
0000
0013
0000
0001
,  // measure 38
1000
0000
0010
1000
0000
0100
2000
0000
0000
0000
0000
0000
0000
0000
3001
0000
,  // measure 39
0100
0010
0100
0001
0100
0010
1000
0100
0010
0001
0010
0100
1000
0001
0100
0010
,  // measure 40
1000
0100
1000
0001
0100
0001
1000
0100
2000
0000
0000
0000
0000
0000
3010
0100
,  // measure 41
0001
0010
0100
1000
0001
0100
0010
1000
0001
0010
0100
1000
0001
0100
0010
1000
,  // measure 42
0010
0100
0001
0010
0100
1000
0100
0010
0001
1000
0010
0100
0001
0010
0100
1000
,  // measure 43
0010
0000
1000
0010
0000
0100
0000
0100
0001
1000
0000
1000
0100
0010
0000
0010
,  // measure 44
0001
0000
0000
0010
0000
0000
0001
0000
0000
1000
0000
0000
0001
0000
0000
0100
0000
0000
0001
0000
0000
1000
0000
0000
0001
0000
0000
0000
2000
0000
0000
0000
0000
0000
0000
0000
0000
0000
0000
0000
0000
0000
0000
0000
0000
0000
0000
0000
,  // measure 45
3000
0000
0110
0000
0000
0000
1000
0100
0010
0001
0010
0000
0000
0000
0100
0000
,  // measure 46
1000
0000
0000
0000
0001
0100
0010
1000
0010
0100
0001
0000
0000
0000
1100
0000
,  // measure 47
0101
0000
0000
0000
0001
1000
0010
0100
0010
1000
0001
0000
0000
0000
0000
0000
,  // measure 48
1100
0000
0110
0000
0010
0001
0000
0201
0000
0000
0000
0000
0310
0000
0000
0000
,  // measure 49
1000
0000
0001
0010
0001
1000
0001
0010
0000
0100
0000
1000
0000
0010
1000
0000
,  // measure 50
0100
0010
0100
1000
0100
0010
0000
0001
0000
1000
0010
1000
0100
1000
0010
1000
,  // measure 51
0100
0000
0010
0001
0010
0100
0010
0001
0000
1000
0000
0010
0000
0100
0001
0000
,  // measure 52
0010
0100
1000
0100
0010
0100
0000
1000
0000
1000
0001
0000
0100
0000
0010
0000
,  // measure 53
1000
0000
0100
0010
0001
0010
0100
0010
0000
0001
0000
0100
0000
0010
1000
0000
,  // measure 54
0100
0010
0100
1000
0100
0010
0000
0001
0000
1000
0010
0100
0010
1000
0010
0100
,  // measure 55
0010
0000
1000
0001
0010
0001
1000
0001
0000
0100
0000
0010
0000
1000
0100
0000
,  // measure 56
1000
0001
0100
0001
1000
0001
0000
0020
0000
0000
0000
0000
0032
0000
0000
0000
,  // measure 57
0203
0000
0000
0000
0000
0000
0000
0000
0000
0320
0000
0000
2030
0000
3002
0000
,  // measure 58
0023
0000
0000
0000
0000
0000
0000
0000
0000
0230
0000
0000
0320
0000
0032
0000
,  // measure 59
2003
0000
0000
0000
0000
0000
3002
0000
0203
0000
0000
0320
0000
2030
0000
3200
,  // measure 60
0000
0000
0000
0000
0000
0000
1300
0100
2000
0000
3020
0000
0230
0000
0302
0000
,  // measure 61
0023
0000
0000
0000
0000
0000
0032
0000
2003
3000
1000
0020
0000
0230
0000
0302
,  // measure 62
0000
0000
0000
0000
0000
0000
0203
0000
2300
3000
0000
0200
0300
0001
1000
0001
,  // measure 63
1000
0000
0000
0000
0100
0010
0001
0010
0100
1000
0100
0010
0001
1000
0010
0100
,  // measure 64
0001
0010
0100
1000
0100
0010
0001
0100
0010
1000
0000
0000
1001
0000
0000
0000
,  // measure 65
0001
0000
0010
0100
0010
0001
0010
0100
0000
1000
0000
0010
0000
0100
0001
0000
,  // measure 66
1000
0100
0010
0100
1000
0100
0000
0010
0000
0001
1000
0010
1000
0001
1000
0010
,  // measure 67
1000
0000
0001
0100
0001
0010
0001
0100
0000
0010
0000
1000
0000
0100
0010
0000
,  // measure 68
0100
1000
0001
1000
0100
1000
0000
0020
0000
0000
1000
0000
0000
1000
0000
0000
,  // measure 69
1030
0000
0010
0100
0001
0100
0010
0100
0000
0001
0000
1000
0000
0100
0010
0000
,  // measure 70
0001
0100
0010
0100
0001
0100
0000
0010
0000
1000
0100
1000
0010
1000
0100
1000
,  // measure 71
0010
0000
1000
0001
0010
0001
1000
0001
0000
0100
0000
0010
0000
0100
0001
0000
,  // measure 72
1000
0001
1000
0001
1000
0001
1000
0001
1000
0000
1001
0000
1001
0000
0000
0000
;

//---------------dance-single - Gazebo----------------
#NOTES:
     dance-single:
     Gazebo:
     Medium:
     8:
     0.550,0.508,0.082,0.343,0.548,460.000,11.000,46.000,15.000,0.000,1.000,0.550,0.508,0.082,0.343,0.548,460.000,11.000,46.000,15.000,0.000,1.000:
0000
0000
0000
0000
,
0000
0000
0000
0000
,
0000
0000
0000
0000
,
0000
0000
0000
0000
,
0000
0000
1000
0000
0001
0010
0000
0100
0000
1000
0000
0001
2000
0000
0100
0000
,
3100
0000
0010
0000
0001
1000
0000
0010
0000
0100
0000
0001
0200
0000
0001
0000
,
0301
0000
1000
0000
0001
0000
0000
0000
1000
0000
0001
0000
1000
0000
0000
0000
0000
0000
00MM
0000
0000
MM00
0000
0000
,
0001
0000
1000
0000
0100
0000
1000
0001
0000
0010
0000
0100
0000
0010
0001
0000
,
0001
0000
1000
0000
0010
0100
0000
0001
0000
1000
0010
0000
0001
0000
0010
0000
,
1000
0000
0001
0000
0100
0000
0001
1000
0000
0010
0000
0100
0000
0010
1000
0000
,
1000
0000
0001
0000
0010
0100
0000
2000
0000
0000
0000
0000
0000
0000
0000
0000
,
3001
0000
1000
0000
0010
0000
1000
0001
0000
0100
0000
0010
0000
0100
0001
0000
,
0001
0000
1000
0000
0100
0010
0000
0001
0000
1000
0100
0000
0001
0000
0100
0000
,
1000
0000
0001
0000
0010
0000
0001
1000
0000
0100
0000
0010
0000
0100
1000
0000
,
1000
0000
0001
0000
0100
0010
0000
2000
0000
0000
0000
0000
3001
0000
0100
0000
,
2000
0000
0000
0000
0000
0000
0000
0000
0000
3200
0000
0000
0310
0000
1000
0000
,
0002
0000
0000
0000
0000
0000
0000
0000
0000
2003
0000
0000
3001
0000
0010
0000
,
0200
0000
0000
0000
0000
0000
0310
0000
0001
0000
0001
1000
0000
0100
0000
0100
,
0020
0000
0000
0000
0000
0000
0000
0130
1000
0000
0001
0000
0100
0000
0010
0000
,
0002
0000
0000
0000
0000
0000
0013
0000
1000
0000
1000
0001
0000
0010
0000
0200
,
0000
0000
0000
0000
0000
0000
1300
0000
0001
0000
0001
0100
0000
0010
0000
2000
,
0000
0000
0000
0000
0000
0000
3001
0000
0020
0000
0000
0032
0000
0000
0103
0000
,
1000
0001
0010
1000
0001
0000
MM00
00MM
,
1000
0000
0001
0000
0100
0000
0001
1000
0000
0010
0000
0100
0000
0010
1000
0000
,
1000
0000
0001
0000
0010
0100
0000
1000
0000
0001
0010
0000
1000
0000
0010
0000
,
0001
0000
1000
0000
0100
0000
1000
0001
0000
0010
0000
0100
0000
0010
0001
0000
,
0001
0000
1000
0000
0010
0100
0000
0002
0000
0000
0000
0000
0000
0000
0000
2003
,
0000
0000
3100
0000
0001
0000
0000
0200
0000
0000
0310
0000
0001
0000
0000
0200
,
0000
0000
0310
0000
0001
0000
0000
0020
0000
0000
1030
0000
0001
0000
0000
2000
,
0000
0000
3100
0000
0001
0000
0000
0200
0000
0000
0310
0000
0001
0000
0000
2000
,
0000
0000
3010
0000
0100
0000
0000
0002
0000
0000
1003
0000
0100
0000
0001
0000
,
0200
00M0
M000
030M
,
1000
0000
0001
0000
0000
0100
0000
0000
0010
0000
0000
2000
0000
0000
3001
0000
,
0020
0000
0000
0000
0000
0000
0030
0001
,
1000
0010
0100
0001
0100
0010
1000
0002
,
0000
1003
0100
0000
0010
0002
0000
0000
0000
0000
0000
0000
0000
0000
1003
0000
,
0040
0000
0000
0000
0000
0000
0000
0000
0000
0000
0000
0000
0000
1030
0000
0001
,
0100
0000
0010
0100
0000
0000
0200
0000
0000
0000
0000
0000
0000
0000
0301
0000
,
0001
1000
0100
0001
0100
0010
0001
1000
,
0010
0100
0001
1000
0200
0000
0000
1300
,
0001
0100
0010
1000
0001
0010
0001
0100
,
0010
1000
0001
1000
0100
0010
0001
1000
,
0010
0000
0100
0010
0000
1000
0000
0001
1000
0000
0000
0001
0010
0000
0000
0001
,
1000
0000
0000
0010
0000
0000
0100
0000
0000
0001
0000
0000
1000
0000
2000
0000
0000
0000
0000
0000
0000
0000
0000
0000
,
3000
0011
0000
0001
1000
0010
0000
0110
,
0101
0000
0001
1000
0010
0100
0000
1010
,
1001
0000
1000
0100
0010
0001
0000
0000
,
1001
0000
1001
0000
1000
0001
0000
1020
0000
0000
0000
0000
0130
0000
0000
0000
,
0001
0000
1000
0000
0010
0000
1000
0001
0000
0100
0000
0010
0000
0100
0001
0000
,
0001
0000
1000
0000
0100
0010
0000
0001
0000
1000
0100
0000
0001
0000
0100
0000
,
1000
0000
0001
0000
0010
0000
0001
1000
0000
0100
0000
0010
0000
0100
1000
0000
,
1000
0000
0001
0000
0100
0010
0000
2000
0000
0000
0000
0000
0000
0000
0000
0000
,
3001
0000
1000
0000
0100
0000
1000
0001
0000
0010
0000
0100
0000
0010
0001
0000
,
0001
0000
1000
0000
0010
0100
0000
0001
0000
1000
0010
0000
0001
0000
0010
0000
,
1000
0000
0001
0000
0100
0000
0001
1000
0000
0010
0000
0100
0000
0010
1000
0000
,
1000
0000
0001
0000
0010
0100
0000
2000
0000
0000
0000
0000
3001
0000
0010
0000
,
2000
0000
0000
0000
0000
0000
0000
0000
0000
3020
0000
0000
0130
0000
1000
0000
,
0002
0000
0000
0000
0000
0000
0000
0000
0000
2003
0000
0000
3001
0000
0100
0000
,
0020
0000
0000
0000
0000
0000
0130
0000
0001
0000
0001
1000
0000
0010
0000
0010
,
0200
0000
0000
0000
0000
0000
0000
0310
1000
0000
0001
0000
0010
0000
0100
0000
,
0002
0000
0000
0000
0000
0000
0103
0000
1000
0000
1000
0001
0000
0100
0000
0020
,
0000
0000
0000
0000
0000
0000
1030
0000
0001
0000
0000
0022
0000
0000
0000
0000
,
0033
0000
0001
1000
0100
1000
0001
0100
,
1000
0001
0010
1000
0001
0000
MM00
00MM
,
1000
0000
0001
0000
0100
0000
0001
1000
0000
0010
0000
0100
0000
0010
1000
0000
,
1000
0000
0001
0000
0010
0100
0000
1000
0000
0001
0010
0000
1000
0000
0010
0000
,
0001
0000
1000
0000
0100
0000
1000
0001
0000
0010
0000
0100
0000
0010
0001
0000
,
0001
0000
1000
0000
0010
0100
0000
0002
0000
0000
0000
0000
0000
0000
0000
0000
,
1003
0000
0001
0000
0010
0000
0001
1000
0000
0100
0000
0010
0000
0100
1000
0000
,
1000
0000
0001
0000
0100
0010
0000
1000
0000
0001
0100
0000
1000
0000
0100
0000
,
0001
0000
1000
0000
0010
0000
1000
0001
0000
0100
0000
0010
0000
1000
0010
0000
,
0001
1000
0100
0001
1000
0110
1001
0000
;

//---------------dance-single - Gazebo----------------
#NOTES:
     dance-single:
     Gazebo:
     Easy:
     6:
     0.413,0.428,0.134,0.410,0.313,315.000,18.000,55.000,0.000,0.000,1.000,0.413,0.428,0.134,0.410,0.313,315.000,18.000,55.000,0.000,0.000,1.000:
0000
0000
0000
0000
,
0000
0000
0000
0000
,
0000
0000
0000
0000
,
0000
0000
0000
0000
0000
0000
0000
1100
,
1100
0000
0000
0000
0000
0000
0000
0101
,
0101
0000
0000
0000
,
1001
0000
1001
0000
,
0001
0000
0100
0000
0001
0000
0000
1000
0000
0100
0000
0010
0000
0000
0000
0000
,
0010
0000
0001
0000
1000
0000
0000
0001
0000
0000
0100
0000
0010
0000
0000
0000
,
1000
0000
0100
0000
1000
0000
0000
0001
0000
0100
0000
0010
0000
0000
0000
0000
,
0010
0000
1000
0000
0001
0000
0000
2000
0000
0000
0000
0000
0000
0000
0000
0000
,
3001
0000
0010
0000
0001
0000
0000
1000
0000
0010
0000
0100
0000
0000
0000
0000
,
0100
0000
0001
0000
1000
0000
0000
0001
0000
0000
0010
0000
0100
0000
0000
0000
,
1000
0000
0010
0000
1000
0000
0000
0001
0000
0010
0000
0100
0000
0000
0000
0000
,
0100
0000
1000
0000
0001
0000
0000
2000
0000
0000
0000
0000
0000
0000
0000
0000
,
3020
0000
0000
0000
0000
0000
0000
0000
0000
0230
0000
0000
0301
0000
1000
0000
,
0200
0000
0000
0000
0000
0000
0000
0000
0000
0320
0000
0000
0130
0000
1000
0000
,
0002
0000
0203
0000
,
0320
0000
0000
0000
1030
0001
0010
0100
,
2000
0000
0000
0000
0000
0000
3001
0000
0200
0000
0000
0310
0000
1000
0000
0002
,
0000
0000
0000
0000
0000
0000
0013
0000
0200
0000
0000
0310
0000
0001
0000
2000
,
0000
0000
0000
0000
0000
0000
3010
0000
0200
0000
0000
0302
0000
0000
1003
0000
,
0100
0000
0000
0000
,
1000
0000
0100
0000
1000
0000
0000
0001
0000
0100
0000
0010
0000
0000
0000
0000
,
0010
0000
1000
0000
0001
0000
0000
1000
0000
0000
0100
0000
0010
0000
0000
0000
,
0001
0000
0100
0000
0001
0000
0000
1000
0000
0100
0000
0010
0000
0000
0000
0000
,
0010
0000
0001
0000
1000
0000
0000
0002
0000
0000
0000
0000
0000
0000
0000
0203
,
0000
0000
0310
0000
1000
0000
0000
0200
0000
0000
0310
0000
0001
0000
0000
2000
,
0000
0000
3001
0000
0100
0000
0000
0020
0000
0000
0130
0000
0001
0000
0000
2000
,
0000
0000
3100
0000
0010
0000
0000
0002
0000
0000
1003
0000
0010
0000
0000
0200
,
0000
0000
0000
0000
0301
0000
0000
2000
0000
0000
0000
0000
3100
0000
0000
0000
,
0020
0000
0000
0000
,
0031
0000
0100
0000
0000
0010
0000
0000
1000
0000
0000
0001
0000
0000
0001
0000
,
0020
0000
0000
0000
0000
0000
0000
0031
,
1000
0010
1000
0001
1000
0100
0010
0002
,
0000
2003
0000
0000
,
3040
0000
0000
0000
,
0230
0000
0000
0302
0000
0000
0203
0000
0000
0000
0000
0000
0000
0000
0310
0000
,
0010
1000
0001
0010
0100
0010
0001
1000
,
0001
0100
0010
1000
0002
0000
0000
0000
,
1003
0100
1000
0000
0001
0010
0001
0000
,
1000
0010
0100
0000
0001
0100
0010
0000
,
2000
0000
0000
3001
0000
0020
0000
0000
0032
0000
0000
0000
0203
0000
0000
0000
,
0310
1000
0001
0010
0200
0000
0000
0000
,
0300
1001
0000
0000
0001
0100
0000
1001
,
1010
0000
0000
0000
1000
0100
0000
1001
,
0011
0000
0000
0000
0001
1000
0000
0000
,
1010
0000
1010
0000
1010
0000
0000
2002
0000
0000
0000
0000
3003
0000
0000
0000
,
0001
0000
0010
0000
0001
0000
0000
1000
0000
0010
0000
0100
0000
0000
0000
0000
,
0100
0000
0001
0000
1000
0000
0000
0001
0000
0000
0010
0000
0100
0000
0000
0000
,
1000
0000
0010
0000
1000
0000
0000
0001
0000
0010
0000
0100
0000
0000
0000
0000
,
0100
0000
1000
0000
0001
0000
0000
2000
0000
0000
0000
0000
0000
0000
0000
0000
,
3001
0000
0100
0000
0001
0000
0000
1000
0000
0100
0000
0010
0000
0000
0000
0000
,
0010
0000
0001
0000
1000
0000
0000
0001
0000
0000
0100
0000
0010
0000
0000
0000
,
1000
0000
0100
0000
1000
0000
0000
0001
0000
0100
0000
0010
0000
0000
0000
0000
,
0010
0000
1000
0000
0001
0000
0000
2000
0000
0000
0000
0000
0000
0000
0000
0000
,
3200
0000
0000
0000
0000
0000
0000
0000
0000
0320
0000
0000
0031
0000
1000
0000
,
0020
0000
0000
0000
0000
0000
0000
0000
0000
0230
0000
0000
0310
0000
1000
0000
,
0002
0000
0023
0000
,
0230
0000
0000
0000
1300
0001
0100
0010
,
2000
0000
0000
0000
0000
0000
3001
0000
0020
0000
0000
0130
0000
1000
0000
0002
,
0000
0000
0000
0000
0000
0000
0103
0000
0010
0000
0000
2020
0000
0000
0000
0000
,
3030
0000
1000
0001
1000
0001
1000
0000
,
0010
0000
0000
0000
,
1000
0000
0010
0000
1000
0000
0000
0001
0000
0010
0000
0100
0000
0000
0000
0000
,
0100
0000
1000
0000
0001
0000
0000
1000
0000
0000
0010
0000
0100
0000
0000
0000
,
0001
0000
0010
0000
0001
0000
0000
1000
0000
0010
0000
0100
0000
0000
0000
0000
,
0100
0000
0001
0000
1000
0000
0000
0002
0000
0000
0000
0000
0000
0000
0000
0000
,
1003
0000
0100
0000
1000
0000
0000
0001
0000
0100
0000
0010
0000
0000
0000
0000
,
0010
0000
1000
0000
0001
0000
0000
1000
0000
0000
0100
0000
0010
0000
0000
0000
,
0001
0000
0100
0000
0001
0000
0000
1000
0000
0100
0000
0010
0000
0000
0000
0000
,
0001
0000
0000
0000
0000
0110
1001
0000
;

//---------------dance-single - Gazebo----------------
#NOTES:
     dance-single:
     Gazebo:
     Beginner:
     1:
     0.085,0.134,0.037,0.000,0.000,75.000,5.000,0.000,0.000,0.000,0.000,0.085,0.134,0.037,0.000,0.000,75.000,5.000,0.000,0.000,0.000,0.000:
0000
0000
0000
0000
,
0000
0000
0000
0000
,
0000
0000
0000
0000
,
0000
0000
0000
0000
,
0110
0000
0000
0000
,
0110
0000
0000
0000
,
1001
0000
1001
0000
,
0001
0000
0000
0000
,
1000
0000
0000
0000
,
0001
0000
0000
0000
,
1000
0000
0000
0000
,
0010
0000
0000
0000
,
0100
0000
0000
0000
,
0010
0000
0000
0000
,
0100
0000
0000
0000
,
0001
0000
0000
0000
,
1000
0000
0000
0000
,
0100
0000
0000
0000
,
0010
0000
0000
0000
,
0001
0000
0000
0000
,
1000
0000
0000
0000
,
0010
0000
0000
0000
,
0100
0000
0000
0000
,
0001
0000
0000
0000
,
1000
0000
0000
0000
,
0001
0000
0000
0000
,
1000
0000
0000
0000
,
0000
0010
0000
0010
,
0000
0100
0000
0100
,
0000
0001
0000
0001
,
0000
1000
0000
1000
,
0000
0000
0000
0000
,
0001
0000
0000
0000
,
0010
0000
0000
0000
,
0100
0000
0000
0000
,
0010
0000
0000
0000
,
0001
0000
0000
0000
,
1000
0000
0000
0000
,
0010
0000
0000
0000
,
0100
0000
0000
0000
,
0001
0000
0000
0000
,
0001
0000
0000
0000
,
1000
0000
0000
0000
,
0100
0000
0000
0000
,
0010
0000
0000
0000
,
0001
0000
0000
0000
,
1000
0000
0000
0000
,
0001
0001
0001
0000
,
0100
0000
0000
0000
,
0010
0000
0000
0000
,
0100
0000
0000
0000
,
0010
0000
0000
0000
,
1000
0000
0000
0000
,
0001
0000
0000
0000
,
1000
0000
0000
0000
,
0001
0000
0000
0000
,
0010
0000
0000
0000
,
0100
0000
0000
0000
,
1000
0000
0000
0000
,
0001
0000
0000
0000
,
0100
0000
0000
0000
,
0010
0000
0000
0000
,
1000
0000
0000
0000
,
0001
0000
0000
0000
,
0010
0000
0000
0000
,
0100
0000
0000
0000
,
0010
0000
0000
0000
,
0100
0000
0000
0000
,
1000
0000
0000
0000
,
0001
0000
0000
0000
,
1000
0000
0000
0000
,
0001
0000
0000
1001
;

//---------------dance-double - Insane Steve----------------
#NOTES:
     dance-double:
     Insane Steve:
     Challenge:
     12:
     0.937,0.053,0.268,0.417,1.000: // measure 1
00000000
00000000
00000000
00000000
,  // measure 2
00000000
00000000
00000000
00000000
00000000
00000000
00000000
10010000
,  // measure 3
10001000
00000000
00001000
00000000
01000000
00010000
00000000
10000000
00000000
01000000
00000000
00100000
00001000
00000000
00011000
00000000
,  // measure 4
00010001
00000000
00000001
00000000
00001000
00000010
00000000
00000100
00000000
00000001
00000000
00000010
00000100
00000000
00001001
00000000
,  // measure 5
00010001
00000000
00010000
00000000
00001000
01000000
00000000
00100000
00000000
01000000
00000000
00001000
00010000
00000000
00011000
00000000
,  // measure 6
00010001
00000000
00000001
00000000
00000100
00000010
00000000
00001000
00000000
00000100
00000000
00001000
00000010
00000000
00001010
00000000
,  // measure 7
00000101
00000000
00000000
00000000
00000000
00000000
00000000
00000000
00000000
00000000
00000000
00000000
00000000
00000000
00000000
00000000
00000101
00000000
00000000
00000000
00000000
00000000
00000000
00000000
00000000
00000000
00000000
00000000
00000000
00000000
00000000
00000000
00000101
00000000
00000000
00000000
00000000
00000000
00000000
00000000
00000000
00000000
00000000
00000000
00000000
00000000
00000000
00000000
00000000
00000000
00000000
00000000
00000000
00000000
00000000
00000000
00000000
00000000
00000000
00000000
00000000
00000000
00000000
00000000
00001010
00000000
00000000
00000000
00000000
00000000
00000000
00000000
00000000
00000000
00000000
00000000
00000000
00000000
00000000
00000000
00001010
00000000
00000000
00000000
00000000
00000000
00000000
00000000
00000000
00000000
00000000
00000000
00000000
00000000
00000000
00000000
00001010
00000000
00000000
00000000
00000000
00000000
00000000
00000000
00000000
00000000
00000000
00000000
00000000
00000000
00000000
00000000
00000000
00000000
00000000
00000000
00000000
00000000
00000000
00000000
00000000
00000000
00000000
00000000
00000000
00000000
00000000
00000000
00000000
00000000
00000000
00000000
00000010
00000000
00000000
00000000
00000000
00000000
00001000
00000000
00000000
00000000
00000000
00000000
00000001
00000000
00000000
00000000
00000000
00000000
00000000
00000000
00000000
00000000
00000000
00000000
00000000
00000000
00000000
00000000
00000000
00000000
00000000
00000000
00000000
00000000
00000000
00000000
00001000
00000000
00000000
00000000
00000000
00000000
00000000
00000000
00000000
00000000
00000000
00000000
00000000
00000000
00000000
00000000
00000000
00000000
00000000
00000000
00000000
00000000
00000000
00000000
,  // measure 8
00000100
00000000
00010000
00001000
00100000
00010000
01000000
00100000
00000000
01000000
00000000
00010000
00000000
00100000
01000000
00000000
,  // measure 9
00100000
00010000
10000000
01000000
00010000
00001000
00010000
00000100
00000000
00001000
00000010
00000100
00001000
00000100
00000010
00001000
,  // measure 10
00000001
00000000
00000010
00000100
00000001
00000100
00000010
00000100
00000000
00010000
00000000
00001000
00000000
01000000
00100000
00000000
,  // measure 11
10000000
00100000
01000000
00001000
00010000
00000010
00000100
00000001
00000000
00000010
00000001
00000000
00000000
00001000
00000100
00000010
,  // measure 12
00000001
00000100
00000010
00010000
00001000
00010000
01000000
00100000
00000000
00010000
00000000
01000000
00000000
10000000
01000000
00000000
,  // measure 13
00100000
10000000
01000000
00100000
00001000
00010000
00000000
00000100
00000000
00000010
00000100
00001000
00000010
00000100
00001000
00000100
,  // measure 14
00000001
00000010
00001000
00010000
00000010
00000100
00001000
00000100
00000000
00000001
00000000
00000010
00000000
00000100
00010000
00000000
,  // measure 15
00001000
00000000
00000000
01000000
00000000
00000000
00100000
00000000
00000000
01000000
00000000
00000000
10000000
00000000
00000000
01000000
00000000
00000000
00000000
00000000
00000000
00010000
00000000
00000000
00000000
00000000
00000000
00010000
00000000
00000000
00100000
00000000
00000000
00000000
00000000
00000000
00010000
00000000
00100000
00000000
01000000
00000000
10000000
00000000
01000000
00000000
00100000
00000000
,  // measure 16
00002000
00000000
00000000
00000000
10000000
00000000
00000000
00010000
00003000
00020000
00000000
00000000
00030020
00000000
00000230
00000000
,  // measure 17
00000302
00000000
00000000
00000000
00001000
00000000
00000000
00010000
00000003
00020000
00000000
00000000
00032000
00000000
02003000
00000000
,  // measure 18
03200000
00000000
00000000
00000000
01000000
00000000
02300000
00000000
03020000
00000000
00130000
00001000
00000000
00010000
00000000
00000020
,  // measure 19
00000000
00000000
00000000
00000000
00000000
00000000
00000100
00000000
00000000
00000030
00000000
00000010
00001000
00000000
00000000
00002000
00000000
00000000
00003200
00000000
00000000
00000302
00000000
00000000
,  // measure 20
00000203
00000000
00000000
00000000
00001000
00000000
00020300
00000000
00032000
00000000
01003000
00100000
00000000
10000000
00000000
02000000
,  // measure 21
00000000
00000000
00000000
00000000
00010000
00000000
03020000
00000000
00032000
00000000
00003010
00000100
00000000
00001000
00000000
00000020
,  // measure 22
00000000
00000000
00000000
00000000
00000100
00000000
00000230
00000000
00002300
00000000
00000000
00023000
00000000
00000000
00030100
00000000
,  // measure 23
00001000
00000000
00000000
00000000
00000000
00000000
00000000
00000000
00000100
00000000
00000000
00000000
00000000
00000000
00000000
00000000
00001000
00000000
00000000
00000000
00000000
00000000
00000000
00000000
00000100
00000000
00000000
00000000
00000000
00000000
00000000
00000000
00000010
00000000
00000000
00000000
00000000
00000000
00000000
00000000
00000100
00000000
00000000
00000000
00000000
00000000
00000000
00000000
00000010
00000000
00000000
00000000
00000000
00000000
00000000
00000000
00000001
00000000
00000000
00000000
00000000
00000000
00000000
00000000
00000010
00000000
00000000
00000000
00000000
00000000
00000000
00000000
00000001
00000000
00000000
00000000
00000000
00000000
00000000
00000000
00001000
00000000
00000000
00000000
00000000
00000000
00000000
00000000
00000001
00000000
00000000
00000000
00000000
00000000
00000000
00000000
00002000
00000000
00000000
00000000
00000000
00000000
00000000
00000000
00000000
00000000
00000000
00000000
00000000
00000000
00000000
00000000
00000000
00000000
00000000
00000000
00000000
00000000
00000000
00000000
00000000
00000000
00000000
00000000
00000000
00000000
00000000
00000000
00003000
00000000
00000000
00000000
00000001
00000000
00000000
00000000
00000000
00000000
00000010
00000000
00000000
00000000
00000000
00000000
00000100
00000000
00000000
00000000
00000000
00000000
00000000
00000000
00000000
00000000
00000000
00000000
00000000
00000000
00000000
00000000
00000000
00000000
00000000
00000000
00000000
00000000
00000000
00000000
00001000
00000000
00000000
00000000
00000000
00000000
00000000
00000000
00000000
00000000
00000000
00000000
00001000
00000000
00000000
00000000
00000000
00000000
00000000
00000000
00000000
00000000
00000000
00000000
,  // measure 24
00000001
00000000
00000100
00000010
00010000
00001000
00010000
00000100
00000000
00000010
00000000
00000100
00000000
00010000
00001000
00000000
,  // measure 25
01000000
00100000
10000000
01000000
00100000
00001000
00000000
00100000
00000000
00010000
00100000
01000000
10000000
00100000
01000000
00010000
,  // measure 26
00100000
00000000
00001000
00010000
00000010
00000100
00000010
00000001
00000000
00000010
00000000
00000100
00000000
00000001
00000010
00000000
,  // measure 27
00001000
00010000
00000100
00010000
00001000
01000000
00000000
00200000
00000000
01000000
01000000
00000000
01300000
00000000
00000000
10010000
,  // measure 28
00000000
00000000
10000000
01000000
00010000
00000000
00000000
00011000
00000000
00000000
00001000
00000100
00000001
00000000
00000000
00001001
,  // measure 29
00000000
00000000
00000001
00000010
00001000
00000000
00000000
00011000
00000000
00000000
00010000
00100000
10000000
00000000
00000000
10010000
,  // measure 30
00000000
00000000
10000000
01000000
00010000
00000000
00000000
00011000
00000000
00000000
00001000
00000100
00000001
00000000
00000000
00001001
,  // measure 31
00000000
00000000
00000001
00000010
00000100
00000010
00000001
00001000
00000000
00000100
00010000
00000100
00010000
00001000
00100000
00010000
,  // measure 32
20000000
00000000
00000000
00000000
00000000
00000000
00000000
00000000
31000000
00000000
00000000
00000000
00100000
01000000
00100000
00000000
01000000
00000000
10000000
00010000
10000000
00000000
00010000
00000000
00100000
00000000
01000000
00000000
00100000
00000000
00010000
00000000
,  // measure 33
10000000
00000000
01000000
00000000
01000000
00100000
00000000
00100000
00001000
00000000
00001000
00010000
00000000
00000100
00001000
00000010
,  // measure 34
00000100
00000000
00000001
00001000
00000100
00001000
00000000
00000100
00000000
00010000
00001000
00010000
00001000
01000000
00100000
01000000
,  // measure 35
00010000
00000000
00000000
00100000
00000000
00000000
01000000
00000000
00000000
10000000
00000000
00000000
01000000
00000000
00000000
00100000
00000000
00000000
00010000
00000000
00000000
01000000
00000000
00000000
00010000
00000000
00000000
00000000
00000000
00000000
00100000
00000000
00001000
00000000
00100000
00000000
00001000
00000000
00000000
00010000
00000000
00000000
00002000
00000000
00000000
00000000
00000000
00000000
,  // measure 36
00000000
00000000
00000000
00013000
00000000
00000000
00000100
00000000
00000010
00000000
00000100
00000000
00000010
00000000
00000000
00000002
00000000
00000000
00000000
00000000
00000000
00000000
00000000
00000000
00000000
00000000
00000000
00000000
00000000
00000000
00000003
00000000
00000000
00000000
00000000
00000000
00000000
00000000
00000000
00000000
00000000
00000000
00000001
00000000
00000010
00000000
00000001
00000000
,  // measure 37
00001000
00000000
00000000
00001000
00000000
00000000
00001000
00000000
00000000
00001000
00000000
00000000
00001000
00000000
00000000
00001000
00000000
00000000
00001000
00000000
00000000
00001000
00000000
00000000
00001000
00000000
00000000
00000010
00000000
00000000
00000100
00000000
,  // measure 38
00000000
00000001
00000000
00000000
00001000
00000000
00000100
00000000
00000000
00000000
00001000
00000000
00000100
00000000
00010000
00000000
00000000
00000000
00001000
00000000
00010000
00000000
00000000
00000000
00000000
00000000
00001000
00000000
00010000
00000000
00000000
00000000
,  // measure 39
00100000
00000000
00000000
01000000
00000000
00000000
00000000
00000000
00000000
00010000
00000000
00000000
10000000
00000000
00000000
00100000
00000000
00000000
01000000
00000000
00000000
00010000
00000000
00000000
00000000
00000000
00000000
00100000
00000000
00000000
01000000
00000000
00000000
10000000
00000000
00000000
00010000
00000000
00100000
00000000
00010000
00000000
10000000
00000000
00000000
01000000
00000000
00000000
,  // measure 40
00010000
00001000
00000010
00000100
00001000
00000010
00000100
00000001
00002000
00000000
00000000
00000000
00003001
00000000
00001000
00000000
,  // measure 41
00000001
00000010
00000001
00000010
00000100
00000010
00000100
00001000
00000100
00001000
00000100
00010000
00000100
00010000
00001000
00010000
00001000
00100000
00001000
00100000
00001000
00100000
00010000
00100000
,  // measure 42
00010000
10000000
00010000
10000000
00100000
10000000
00100000
01000000
00100000
01000000
00010000
01000000
00010000
01000000
00001000
01000000
00001000
00010000
00001000
00010000
00000100
00010000
00000100
00001000
,  // measure 43
00000100
00000000
00001000
00001000
00000000
00000001
00000000
00000001
00000001
00000100
00000000
00000010
00000010
00001000
00000000
00000001
,  // measure 44
00000010
00000000
00000000
00000100
00000000
00000000
00001000
00000000
00000000
00000010
00000000
00000000
00000100
00000000
00000000
00000001
00000000
00000000
00000010
00000000
00000000
00000100
00000000
00000000
00001000
00000000
00000000
00000000
00002000
00000000
00000000
00000000
00000000
00000000
00000000
00000000
00000000
00000000
00000000
00000000
00000000
00000000
00000000
00000000
00000000
00000000
00000000
00000000
,  // measure 45
00003000
00000000
00000000
00011000
00000000
00000000
00000000
00000000
00000000
00001000
00100000
01000000
10000000
01000000
00100000
00010000
00000000
00000000
00000000
00000000
00000000
00101000
00000000
00000000
,  // measure 46
00011000
00000000
00000000
00000000
00000000
00000000
00010000
00000100
00001000
00000100
00000010
00000001
00001000
00000001
00000010
00000001
00000000
00000000
00000000
00000000
00000000
00001100
00000000
00000000
,  // measure 47
00011000
00000000
00000000
00000000
00000000
00000000
00001000
00100000
01000000
00100000
00010000
10000000
00010000
10000000
00100000
10000000
00000000
00000000
00000000
00000000
00000000
00000000
00000000
00000000
,  // measure 48
10010000
00000000
10010000
00000000
10010000
10010000
00000000
10002000
00000000
00000000
00000000
00003000
00011000
00000000
00000000
00000000
,  // measure 49
00010000
00000000
00000100
00000010
00000001
00000100
00000010
00001000
00000000
00000100
00000000
00000001
00000000
00000100
00001000
00000000
,  // measure 50
00000010
00000100
00001000
00010000
00001000
00010000
00000000
00001000
00000000
01000000
00100000
10000000
01000000
00100000
00001000
00010000
,  // measure 51
00001000
00000000
00010000
00000100
00000010
00000001
00001000
00000100
00000000
00000001
00000000
00000100
00000000
00001000
00000010
00000000
,  // measure 52
00000001
00000010
00000100
00000001
00000010
00001000
00000000
00010000
00000000
00001000
00010000
00001000
00010000
00000000
00001000
01000000
,  // measure 53
00001000
00000000
01000000
00100000
10000000
01000000
00010000
00001000
00000000
00000100
00000000
00000001
00000000
00000010
00000100
00000000
,  // measure 54
00001000
00000010
00000100
00000001
00001000
00000100
00000000
00010000
00000000
00001000
01000000
00100000
00010000
00100000
01000000
00010000
,  // measure 55
00100000
00000000
00010000
01000000
00100000
10000000
00010000
00100000
00000000
10000000
00000000
00100000
00000000
00010000
01000000
00000000
,  // measure 56
00001000
00000000
00000000
00010000
00000000
00000000
00000010
00000000
00000000
00000100
00000000
00000000
00000001
00000000
00000000
00000010
00000000
00000000
00000000
00000000
00000000
00000002
00000000
00000000
00000000
00000000
00000000
00000100
00000000
00000000
00000100
00000000
00000000
00000003
00000000
00000000
00000100
00000000
00000001
00000000
00001000
00000000
00000010
00000000
00001000
00000000
00000001
00000000
,  // measure 57
00000200
00000000
00000000
00000000
00000010
00000000
00000000
00000001
00000000
00000302
00000000
00000000
00000203
00000000
00002300
00000000
,  // measure 58
00023000
00000000
00000000
00000000
00000000
00000000
00000000
00031000
00000000
00002000
00000000
00000000
02003000
00000000
03200000
00000000
,  // measure 59
20300000
00000000
00000000
00000000
01000000
00000000
32000000
00000000
03200000
00000000
00301000
00010000
00000000
00000010
00000000
00000200
,  // measure 60
00000000
00000000
00000000
00000000
00000000
00000000
00000301
00000000
00000000
00000100
00000010
00000100
00000020
00000000
00000000
00020030
00000000
00000000
00032000
00000000
00000000
00203000
00000000
00000000
,  // measure 61
02300000
00000000
00000000
00000000
13000000
00000000
20000000
00000000
30200000
00000000
00310000
00001000
00000000
00010000
00000000
00200000
,  // measure 62
00000000
00000000
00000000
00000000
01300000
00000000
00020000
00000000
00130000
00000000
00000000
00101000
00000000
00000000
00001000
00010000
,  // measure 63
00001000
00000000
00000000
00000000
00000000
00000000
00000000
00000000
00000000
00000000
00000000
00000000
00010000
00000000
00001000
00000000
00010000
00000000
00001000
00000000
00000000
00100000
00000000
00000000
00001000
00000000
00010000
00000000
00001000
00000000
00010000
00000000
00000000
00000010
00000000
00000000
00010000
00000000
00001000
00000000
00010000
00000000
00001000
00000000
00000000
00010000
00000000
00000000
,  // measure 64
00000100
00000000
00000010
00000000
00000001
00000000
00000010
00000000
00000100
00000000
00001000
00000000
00000001
00000000
00001000
00000000
00000001
00000000
00001000
00000000
00000010
00000000
00000100
00000000
00000001
00002000
00000000
00000000
00000000
00000000
00000000
00000000
00000000
00003100
00000000
00000000
00000010
00000000
00000000
00000000
00000000
00000000
00000100
00000000
00000000
00000010
00000000
00000000
,  // measure 65
00000001
00000000
00000100
00000010
00000100
00000001
00000100
00001000
00000000
00010000
00000000
00001000
00000000
00000100
00000010
00000000
,  // measure 66
00001000
00000100
00010000
00001000
00100000
00010000
00000000
01000000
00000000
10000000
01000000
00100000
01000000
00010000
10000000
01000000
,  // measure 67
00100000
00000000
00001000
00010000
00000100
00000010
00000100
00001000
00000000
00000010
00000000
00000001
00000000
00000010
00000100
00000000
,  // measure 68
00000001
00000010
00000100
00000010
00000001
00001000
00000000
00000100
00000000
00010000
00001000
00000000
00010000
00001000
00000000
00010000
,  // measure 69
00001000
00000000
01000000
00100000
01000000
00010000
00100000
01000000
00000000
00010000
00000000
01000000
00000000
10000000
00100000
00000000
,  // measure 70
01000000
00100000
00010000
00001000
00010000
00000100
00000000
00001000
00000000
00000010
00000100
00001000
00000100
00000010
00001000
00000001
,  // measure 71
00000010
00000000
00000100
00010000
00001000
00010000
00000100
00010000
00000000
00001000
00000000
01000000
00000000
00100000
10000000
00000000
,  // measure 72
00100000
01000000
00100000
01000000
00010000
01000000
00010000
10000000
00010000
10000000
01000000
10000000
01000000
00000000
00000000
10010000
00000000
00000000
10001000
00000000
00000000
00000000
00000000
00000000
;

//---------------dance-double - NIQ9----------------
#NOTES:
     dance-double:
     NIQ9:
     Hard:
     11:
     0.803,0.920,0.120,0.301,1.000:
00000000
00000000
10000000
00000000
00100000
01000000
00000000
10000000
00000000
01000000
00000000
00010000
00200000
00000000
00000000
00000000
,
00300000
00000000
00010000
00000000
00100000
00001000
00000000
00010000
00000000
00100000
00000000
00010000
00002000
00000000
00000000
00000000
,
00003000
00000000
00010000
00000000
00000100
00000010
00000000
00001000
00000000
00010000
00000000
00001000
00000020
00000000
00000000
00000000
,
00000030
00000000
00000001
00000000
00000100
00001000
00000000
00000100
00000000
00000010
00000000
00001000
00000001
00000000
00000101
00000000
,
00001100
00000000
00001000
00000000
00000100
00000010
00000000
00001000
00000000
00010000
00000000
01000000
00100000
00000000
11000000
00000000
,
01010000
00000000
10000000
00000000
00100000
00010000
00000000
00001000
00000000
00000100
00000000
00000001
00001000
00000000
00001001
00000000
,
00000001
00000000
00000000
00000000
00000100
00000000
00000000
00000000
00000010
00000000
00000000
00000000
00000000
00000000
00000000
00000000
00001000
00000000
00000000
00000000
00000001
00000000
00000000
00000000
00000010
00000000
00000000
00000000
00000000
00000000
00000000
00000000
00000000
00000100
00000000
00000000
00000100
00000000
00000000
00000000
00000000
00000000
00000000
00000000
00000000
00000000
00000000
00000000
,
00002000
00000000
00003100
00010000
00001000
00010000
00000100
00001000
00000000
00000100
00000000
00010000
00000000
00001000
00100000
00000000
,
00010000
00100000
01000000
10000000
00010000
01000000
00000000
00020000
00000000
01030000
00010000
10000000
01000000
00100000
00010000
00100000
,
00001000
00000000
00010000
00001000
00010000
00000100
00001000
00000001
00000000
00000100
00000000
00000010
00000000
00001000
00000001
00000000
,
00001000
00000100
00000010
00000001
00000010
00000100
00000000
00002000
00000000
00000000
00000000
00000000
00003000
00000000
00000000
00000000
,
00002000
00000000
00003010
00001000
00000001
00000100
00000010
00001000
00000000
00000100
00000000
00010000
00000000
00001000
00010000
00000000
,
00001000
00100000
00010000
00100000
00001000
00010000
00000000
00000100
00000000
00010000
00001000
00100000
00010000
01000000
00100000
10000000
,
00020000
00000000
01030000
00100000
10000000
00010000
00100000
01000000
00000000
00100000
00000000
00001000
00000000
00010000
00001000
00000000
,
00010000
00000000
00000000
00000100
00000000
00000000
00001000
00000000
00000000
00000010
00000000
00000000
00000100
00000000
00000000
00000001
00000000
00000000
00000000
00000000
00000000
00002000
00000000
00000000
00000000
00000000
00000000
00000000
00000000
00000000
00000000
00000000
00000000
00000000
00000000
00000000
00003100
00000000
00001000
00000000
00000100
00000000
00010000
00000000
00001000
00000000
00010000
00000000
,
00000020
00000000
00000000
00000000
00000000
00000000
00000000
00000000
00000030
00000100
00000000
00000000
00000010
00000000
00001000
00000000
,
00000100
00002000
00000000
00000000
00000000
00000000
00000000
00000000
00003000
00000000
00000000
00000000
00000000
00000000
00000000
00000000
00000000
00000000
00000100
00000000
00000000
00000000
00000000
00000000
00010000
00000000
00000000
00000000
00001000
00000000
00000000
00000000
,
00200000
00000000
00000000
00000000
00300000
00000000
01000000
00000000
10000000
00000000
00010000
01000000
00000000
00100000
00000000
00020000
,
00000000
00000000
00000000
00000000
00000000
00000000
00000000
00000000
00000000
00000000
00000000
00000000
00030000
00000000
00000000
00000000
00000000
00000000
00000000
00000000
00000000
00000000
00000000
00000000
00000000
00000000
00000000
00000000
00000000
00100000
00000000
00000000
00010000
00000000
00000000
00000000
00000000
00000000
00000000
00000000
10000000
00000000
00000000
00000000
00000000
00000000
00000000
00000000
01000000
00000000
00000000
00000000
00000000
00000000
00000000
00000000
00010000
00000000
00000000
00000000
00000000
00000000
00000000
00000000
,
00200000
00000000
00000000
00000000
00300000
00000000
00001000
00000000
00010000
00000000
00000100
00000010
00000000
00000001
00000000
00002000
,
00000000
00000000
00000000
00000000
00003000
00000000
00000010
00000000
00000100
00000000
00001000
00010000
00000000
00001000
00000000
00000200
,
00000000
00000000
00000000
00000000
00000300
00000000
00000010
00000000
00002000
00000000
00000000
00003200
00000000
00000000
00010300
00000000
,
00001000
00000000
00000000
00000000
00000000
00000000
00000000
00000000
00000000
00000000
00000000
00000000
00000000
00000000
00010000
00001000
,
00100000
00000000
00010000
00100000
01000000
10000000
01000000
00010000
00000000
00001000
00000000
00010000
00000000
00000100
00001000
00000000
,
00000001
00000100
00000010
00001000
00000001
00000100
00000000
00001000
00000000
00000100
00000010
00001000
00000010
00010000
00001000
00000100
,
00000010
00000000
00001000
00000010
00010000
00001000
00100000
00010000
00000000
00100000
00000000
01000000
00000000
00100000
10000000
00000000
,
00100000
01000000
10000000
01000000
00010000
01000000
00000000
00020000
00000000
00000000
00000000
00000000
00030000
00000000
00000000
01010000
,
00000000
00000000
01000000
10000000
00100000
00000000
00000000
10100000
00000000
00000000
00100000
01000000
10000000
00000000
00000000
11000000
,
00000000
00000000
00100000
00010000
00001000
00000000
00000000
00011000
00000000
00000000
00010000
00000100
00000001
00000000
00000000
00000101
,
00000000
00000000
00000100
00000010
00000001
00000000
00000000
00000011
00000000
00000000
00000001
00000100
00001000
00000000
00000000
00001100
,
00000000
00000000
00000010
00001000
00000010
00010000
00001000
00010000
00000000
00001000
00010000
00001000
00100000
00010000
01000000
00100000
,
20000000
00000000
00000000
00000000
00000000
00000000
00000000
00000000
00000000
00000000
00000000
00000000
30010000
00000000
00000000
00000000
00000000
00000000
00000000
00000000
00000000
00000000
00010000
00000000
00100000
00000000
00000000
00000000
00100000
00000000
00000000
00000000
00100000
00000000
00000000
00000000
00100000
00000000
00000000
00010000
00000000
00000000
10000000
00000000
00000000
10000000
00000000
00000000
,
10000000
00000000
00100000
00000000
00000000
01000000
00000000
00000000
00010000
00000000
00000000
00100000
00000000
00000000
00001000
00010000
,
00000200
00000000
00000000
00000000
00000000
00000000
00000000
00000000
00000000
00000000
00000000
00000000
00000300
00000000
00001000
00000100
,
00000001
00000100
00001000
00000100
00010000
00001000
00010000
01000000
10000000
01000000
00010000
00001000
00010000
01000000
00100000
00000000
,
00000000
00000000
00000000
10000000
00000000
00000000
00100000
00000000
00000000
00010000
00000000
00000000
10000000
00000000
00000000
00020000
00000000
00000000
00000000
00000000
00000000
00000000
00000000
00000000
00000000
00000000
00000000
00000000
00000000
00000000
00000000
00000000
00000000
00030000
00000000
00000000
00000000
00000000
00000000
00000000
00000000
00000000
10000000
00000000
00010000
00000000
01000000
00000000
,
00010000
00000000
00000000
00010000
00000000
00000000
00010000
00000000
00000000
00010000
00000000
00000000
00010000
00000000
00000000
00010000
00000000
00000000
00010000
00000000
00000000
00010000
00000000
00000000
00010000
00000000
00000000
10000000
00000000
00000000
00100000
00000000
,
00000000
01000000
00000000
00000000
00010000
00000000
00100000
00000000
00000000
00000000
00000000
00000000
00001000
00000000
00000000
00000000
00001000
00000000
00000000
00000000
00000000
00000000
00000000
00000000
00000000
00000000
00000000
00000000
00010000
00000000
00001000
00000000
,
00010000
00000100
00000000
00001000
00000100
00000000
00001000
00000001
00000000
00000100
00000001
00001000
00000100
00000010
00000001
00001000
,
00000100
00010000
00001000
00100000
00010000
10000000
01000000
00100000
00010000
00000000
00000000
00000000
00000000
00000000
10000000
00010000
,
01000000
00010000
01000000
00010000
10000000
01000000
10000000
01000000
00100000
00010000
00100000
00010000
00100000
00001000
00100000
00001000
,
00010000
00000000
00000000
00001000
00000000
00000000
00010000
00000000
00000000
00001000
00000000
00000000
00010000
00000000
00000000
00000100
00000000
00000000
00010000
00000000
00000000
00000100
00000000
00000000
00001000
00000000
00000000
00000100
00000000
00000000
00001000
00000000
00000000
00000010
00000000
00000000
00001000
00000000
00000010
00000000
00000100
00000000
00000001
00000000
00001000
00000000
00000001
00000000
,
00000010
00000000
00000001
00000010
00000000
00000100
00000000
00001000
00000100
00010000
00000000
00001000
00100000
00010000
00000000
00100000
,
00010000
00000000
00000000
01000000
00000000
00000000
00100000
00000000
00000000
01000000
00000000
00000000
10000000
00000000
00000000
01000000
00000000
00000000
00100000
00000000
00000000
01000000
00000000
00000000
00010000
00000000
00000000
00000000
10000000
00000000
00000000
00000000
00000000
00000000
00000000
00000000
00000000
00000000
00000000
00000000
00000000
00000000
00000000
00000000
00000000
00000000
00000000
00000000
,
00000000
00000000
00000000
10010000
00000000
00000000
00000000
00000000
00000000
10000000
01000000
00100000
00010000
10000000
01000000
00100000
00000000
00000000
00000000
00000000
00000000
00001000
00000000
00000000
,
00010000
00000000
00000000
00000000
00000000
00000000
00000100
00001000
00000100
00010000
00001000
00010000
00000100
00001000
00000001
00000010
00000000
00000000
00000000
00000000
00000000
00000001
00000000
00000000
,
00000100
00000000
00000000
00000000
00000000
00000000
00000001
00000100
00000010
00001000
00000001
00000100
00000010
00001000
00000001
00001000
00000000
00000000
00000000
00000000
00000000
00000000
00000000
00000000
,
00001100
00000000
00001100
00000000
00000100
00010000
00000000
00022000
00000000
00000000
00000000
00000000
00033000
00000000
00000000
00000000
,
00001000
00000000
00100000
00010000
00100000
01000000
10000000
00010000
00000000
01000000
00000000
00100000
00000000
00010000
00001000
00000000
,
00010000
00001000
00010000
00000100
00001000
00000100
00000000
00000020
00000000
00000031
00000010
00000100
00001000
00000001
00000100
00000010
,
00001000
00000000
00000100
00010000
00001000
00010000
00000100
00010000
00000000
00001000
00000000
00100000
00000000
00010000
00100000
00000000
,
00010000
00100000
01000000
00100000
00010000
10000000
00000000
00020000
00000000
00000000
00000000
00000000
00030000
00000000
00000000
00000000
,
01000000
00000000
00100000
10000000
00100000
01000000
00100000
00010000
00000000
00100000
00000000
01000000
00000000
00010000
01000000
00000000
,
00001000
01000000
00100000
01000000
00010000
00100000
00000000
00002000
00000000
00013000
00001000
00010000
00000010
00001000
00000001
00000100
,
00000010
00000000
00001000
00000100
00010000
00001000
00010000
00000100
00000000
00010000
00000000
00001000
00000000
00100000
00010000
00000000
,
00100000
00000000
00000000
01000000
00000000
00000000
00100000
00000000
00000000
00010000
00000000
00000000
00100000
00000000
00000000
00001000
00000000
00000000
00000000
00000000
00000000
00200000
00000000
00000000
00000000
00000000
00000000
00000000
00000000
00000000
00300000
00000000
00000000
00000000
00000000
00000000
00100000
00000000
00010000
00000000
00100000
00000000
00001000
00000000
00010000
00000000
00001000
00000000
,
00200000
00000000
00000000
00000000
00000000
00000000
00300000
00000000
00000000
00010000
00000000
00000000
01000000
00000000
00010000
00000000
,
00100000
00020000
00000000
00000000
00000000
00000000
00000000
00000000
00000000
00000000
00000000
00000000
00000000
00000000
00030000
00000000
00000000
00000000
00100000
00000000
00000000
00000000
00000000
00000000
00001000
00000000
00000000
00000000
00010000
00000000
00000000
00000000
,
00000200
00000000
00000000
00000000
00000300
00000000
00000010
00000000
00000001
00000000
00001000
00000010
00000000
00000100
00000000
00002000
,
00000000
00000000
00000000
00000000
00000000
00000000
00000000
00000000
00000000
00000000
00000000
00000000
00003000
00000000
00000000
00000000
00000000
00000000
00000000
00000000
00000000
00000000
00000000
00000000
00000000
00000000
00000000
00000000
00000000
00000100
00000000
00000000
00001000
00000000
00000000
00000000
00000000
00000000
00000000
00000000
00000100
00000000
00000000
00000000
00000000
00000000
00000000
00000000
00000010
00000000
00000000
00000000
00000000
00000000
00000000
00000000
00001000
00000000
00000000
00000000
00000000
00000000
00000000
00000000
,
00000200
00000000
00000000
00000000
00000300
00000000
00010000
00000000
00001000
00000000
00100000
01000000
00000000
10000000
00000000
00020000
,
00000000
00000000
00000000
00000000
00030000
00000000
10000000
00000000
00100000
00000000
00000000
00100000
00000000
00000000
01000000
00001000
,
00010000
00000000
00000000
00000000
00000000
00000000
00000000
00000000
00000000
00000000
00000000
00000000
00001000
00000000
00000000
00000000
00000000
00000000
00010000
00000000
00000000
00001000
00000000
00000000
00100000
00000000
00000000
00000000
00000000
00000000
00001000
00000000
00000000
00010000
00000000
00000000
00000100
00000000
00001000
00000000
00000100
00000000
00001000
00000000
00000000
00000100
00000000
00000000
,
00010000
00000000
00001000
00000000
00010000
00000000
00000100
00000000
00001000
00000000
00000100
00000000
00010000
00000000
00001000
00000000
00100000
00000000
00010000
00000000
00100000
00000000
00002000
00000000
00020000
00000000
00000000
00000000
00000000
00000000
00000000
00000000
00000000
00003000
00000000
00000000
00030000
00000000
00000000
00000000
00000000
00000000
00001000
00000000
00000000
00010000
00000000
00000000
,
00000100
00000000
00001000
00000100
00000010
00000001
00000010
00001000
00000000
00010000
00000000
00001000
00000000
00100000
00010000
00000000
,
10000000
00100000
01000000
00010000
10000000
00100000
00000000
00010000
00000000
00100000
01000000
00010000
01000000
00001000
00010000
00100000
,
01000000
00000000
00010000
01000000
00001000
00010000
00000100
00001000
00000000
00000100
00000000
00000010
00000000
00000100
00000001
00000000
,
00000100
00000010
00000001
00000010
00001000
00000010
00000000
00000200
00000000
00000000
00000000
00000000
00000300
00000000
00000000
00000000
,
00001000
00000000
00000001
00000100
00001000
00010000
00001000
00000100
00000000
00000010
00000000
00001000
00000000
00000100
00001000
00000000
,
00000100
00001000
00000100
00010000
00001000
00010000
00000000
00002000
00000000
00103000
00010000
00100000
00001000
00010000
00100000
00010000
,
00001000
00000000
00010000
00000100
00001000
00000010
00000100
00000010
00000000
00000100
00000000
00001000
00000000
00010000
00001000
00000000
,
00010000
00001000
00010000
00000100
00001000
00000100
00010000
00001000
00100000
00001000
00010000
00001000
00100000
00000000
00000000
02000000
00000000
00000000
00020000
00000000
00000000
00000000
00000000
00000000
,
03030000
00000000
00000000
00000000
;

//---------------dance-double - C. C. Tam----------------
#NOTES:
     dance-double:
     C. C. Tam:
     Medium:
     6:
     0.375,0.374,0.328,0.022,0.115,305.000,44.000,3.000,0.000,0.000,0.000,0.375,0.374,0.328,0.022,0.115,305.000,44.000,3.000,0.000,0.000,0.000:
00000000
00000000
00000000
00000000
,
00000000
00000000
00000000
00000000
,
00000000
00000000
00000000
00000000
,
00000000
00000000
00000000
00000000
00000000
00000000
00000000
00001000
,
00001001
00000000
00000000
00000000
00000000
00000000
00000000
00010000
,
10010000
00000000
00000000
00000000
00000000
00000000
00000000
00010000
,
00011000
00000000
00000110
00000000
,
00000001
00000000
00000000
00000000
00000100
00000000
00000000
00000010
00000000
00000000
00010000
00000000
00001000
00000000
00000000
00000000
,
00000100
00000000
00000000
00000000
00000001
00000000
00000000
00000100
00000000
00000000
00001000
00000000
00010000
00000000
00000000
00000000
,
00001000
00000000
00000000
00000000
00100000
00000000
00000000
01000000
00000000
00000000
10000000
00000000
00010000
00000000
00000000
00000000
,
00100000
00000000
00000000
00000000
10000000
00000000
00000000
00100000
00000000
00000000
00001000
00000000
00010000
00000000
00000000
00000000
,
00000010
00000000
00000000
00000000
00000100
00000000
00000000
00001000
00000000
00000000
00000100
00000000
00000001
00000000
00000000
00000000
,
00001000
00000000
00000000
00000000
00000100
00000000
00000000
00010000
00000000
00000000
01000000
00000000
00100000
00000000
00000000
00000000
,
00010000
00000000
00000000
00000000
10000000
00000000
00000000
00001000
00000000
00000000
01000000
00000000
00010000
00000000
00000000
00000000
,
00100000
00000000
00000000
00000000
00001000
00000000
00000000
00000010
00000000
00000000
00000100
00000000
00001000
00000000
00000000
00000000
,
00000001
00000100
00000010
00000000
00010000
00000100
00000010
00000000
,
00000001
00000100
00000010
00000000
00010000
00001000
00100000
00000000
,
01000000
10000000
00100000
00000000
01000000
00001000
00100000
00000000
,
00000010
00010000
00000100
00000000
00000010
00000100
00000001
00000000
,
00001100
00000000
00000001
00000000
00000100
00000010
00010000
00000000
,
00001000
01000000
00100000
00000000
10000000
01000000
00100000
00000000
,
00001000
01000000
00100000
00000000
01000000
00100000
00010000
00000000
,
00001100
00000000
00000000
00000000
,
00000101
00000000
00000000
00000000
00001000
00000000
00000000
00000010
00000000
00000000
00001000
00000000
00010000
00000000
00000000
00000000
,
01000000
00000000
00000000
00000000
00001000
00000000
00000000
00010000
00000000
00000000
00100000
00000000
01000000
00000000
00000000
00000000
,
00001000
00000000
00000000
00000000
00100000
00000000
00000000
00010000
00000000
00000000
00001000
00000000
00000100
00000000
00000000
00000000
,
00010000
00000000
00000000
00000000
00001000
00000000
00000000
00000010
00000000
00000000
00000001
00000000
00001000
00000000
00000000
00001100
,
00000000
00000000
00000000
00000000
00000001
00000000
00000000
00000100
00000000
00000000
00000000
00000000
00010000
00000000
00000000
01000000
,
00000000
00000000
00000000
00000000
00001000
00000000
00000000
00100000
00000000
00000000
00000000
00000000
01000000
00000000
00000000
10000000
,
00000000
00000000
00000000
00000000
00010000
00000000
00000000
00001000
00000000
00000000
00000000
00000000
00000001
00000000
00000000
00000100
,
00000000
00000000
00000000
00000000
00001000
00000000
00000000
00000100
00000000
00000000
00000000
00000000
00000010
00000000
00000000
00000000
,
00012000
00010000
00010000
00013000
,
10100000
01000000
00001000
00100000
,
00011000
00000100
00010000
00000010
,
00001001
00000100
00010000
00001000
,
10010000
01000000
00001000
00010000
,
00000110
00000001
00000100
00001000
,
00010010
00001000
00010000
00100000
,
01001000
00010000
10000000
01000000
,
00011000
00000010
00000100
00001000
,
00000011
00001000
00100000
10000000
,
00110000
00001000
00000010
00000001
,
00001100
00000001
00000100
00010000
,
01001000
10000000
01000000
00010000
,
00001100
00000010
00001000
00100000
,
00011000
00000100
00010000
01000000
,
10010000
00001000
00010000
00000010
,
00001001
00000000
00000000
00000000
00000000
00000000
00000000
00002002
00000000
00000000
00003003
00000000
00000110
00000000
00000000
00000000
,
00011000
00000000
00000000
00000000
01000000
00000000
00000000
00100000
00000000
00000000
10000000
00000000
01000000
00000000
00000000
00000000
,
00010000
00000000
00000000
00000000
00001000
00000000
00000000
00000010
00000000
00000000
00000100
00000000
00001000
00000000
00000000
00000000
,
00000001
00000000
00000000
00000000
00000100
00000000
00000000
00000010
00000000
00000000
00000001
00000000
00000010
00000000
00000000
00000000
,
00001000
00000000
00000000
00000000
00010000
00000000
00000000
01000000
00000000
00000000
00001000
00000000
00010000
00000000
00000000
00000000
,
01000000
00000000
00000000
00000000
10000000
00000000
00000000
01000000
00000000
00000000
00100000
00000000
10000000
00000000
00000000
00000000
,
00100000
00000000
00000000
00000000
00010000
00000000
00000000
00001000
00000000
00000000
00000100
00000000
00001000
00000000
00000000
00000000
,
00000001
00000000
00000000
00000000
00000100
00000000
00000000
00000010
00000000
00000000
00010000
00000000
00000100
00000000
00000000
00000000
,
00001000
00000000
00000000
00000000
00010000
00000000
00000000
00100000
00000000
00000000
00001000
00000000
00010000
00000000
00000000
00000000
,
01100000
00000000
10000000
00000000
00100000
00010000
00001000
00000000
,
00010000
00001000
00000100
00000000
00000010
00000100
00000001
00000000
,
00001000
00000100
00000010
00000000
00000100
00000010
00000001
00000000
,
00000010
00001000
00010000
00000000
00001000
00010000
01000000
00000000
,
00110000
00000000
00001000
00000000
01000000
00100000
10000000
00000000
,
01000000
00000000
00100000
00000000
00010000
00000000
00000000
00000000
00100000
00000000
00011000
00000000
00000000
00010010
00000000
00000000
,
00001000
00000010
00000001
00000000
00000010
00001000
00000001
00000000
,
00000110
00000000
00000000
00000000
,
00011000
00100000
01000000
00010000
,
00011000
00000010
00000100
00001000
,
00000101
00000010
00001000
00010000
,
01100000
00000000
00000000
00000000
00010000
00000000
00000000
00000000
10000000
00000000
10010000
00000000
00000000
11000000
00000000
00000000
,
00110000
00001000
01000000
00100000
,
00011000
00000010
00001000
00000100
,
00000011
00000100
00010000
01000000
,
10100000
00000000
00000000
00000000
00000000
00001000
00011000
00000000
;

//---------------dance-double - X. Ythar----------------
#NOTES:
     dance-double:
     X. Ythar:
     Easy:
     3:
     0.227,0.241,0.007,0.045,0.004,206.000,1.000,6.000,0.000,0.000,0.000,0.227,0.241,0.007,0.045,0.004,206.000,1.000,6.000,0.000,0.000,0.000:
00000000
00000000
00000000
00000000
,
10000000
00000000
00000000
00000000
,
00010000
00000000
00000000
00000000
,
01000000
00000000
00000000
00000000
,
00001000
00000000
00000000
00000000
,
00010000
00000000
00000000
00000000
,
00000100
00000000
00001000
00000000
,
00000001
00000100
00000010
00001000
,
00000001
00001000
00000100
00010000
,
00000100
00001000
00000001
00000100
,
00000010
00010000
00001000
00000000
,
00100000
01000000
00100000
00010000
,
01000000
00100000
01000000
00001000
,
00010000
01000000
00100000
00010000
,
01000000
00010000
00100000
00000000
,
00001000
00000000
00000000
00010000
,
00000100
00000000
00000000
00001000
,
00000010
00000000
00010000
00001000
,
00100000
00000000
00001000
00010000
,
00000100
00000000
00001000
00000001
,
00000100
00000000
00000010
00001000
,
00000100
00000000
00010000
00001000
,
02000000
00000000
03100000
00000000
,
01000000
00010000
00100000
00001000
,
00010000
00000100
00010000
00001000
,
00100000
01000000
00100000
00010000
,
01000000
00001000
00010000
00000000
,
00000000
00000100
00000000
00000010
,
00000000
00000100
00000000
00010000
,
00000000
00001000
00000000
01000000
,
00000000
00100000
00000000
01000000
,
00010000
00000000
00000000
00000000
,
00100000
00100000
00001000
00010000
,
00000100
00000000
00000000
00000000
,
00010000
00000000
00000100
00001000
,
00000010
00000000
00000000
00000000
,
00002000
00000000
00003002
00000000
,
00000203
00000000
00000300
00000000
,
00000010
00001000
00000100
00010000
,
00001000
00100000
01000000
00000000
,
10000000
00010000
01000000
00100000
,
01000000
00001000
00010000
00000100
,
00000010
00000000
00000001
00000100
,
00000010
00010000
00001000
00000000
,
00010000
00000000
00000100
00000000
,
00010000
00000000
00001000
00000000
,
01000000
00000000
00010000
00000000
,
00100000
00000000
00000000
00000000
00001000
00000000
00000000
00010000
00000000
00000000
00000000
00000000
00000000
00000000
00000000
00000000
,
00001000
00100000
00010000
01000000
,
00100000
10000000
01000000
00100000
,
00001000
00010000
00000010
00000100
,
00000001
00000010
00000100
00000000
,
00010000
00001000
01000000
00100000
,
01000000
00001000
00010000
00000100
,
00000010
00000100
00010000
00001000
,
01000000
00000000
00100000
00000000
,
10000000
00000000
01000000
00100000
,
00001000
00000000
00010000
00000010
,
00000100
00000000
00000001
00001000
,
00000100
00000000
00010000
00001000
,
01000000
00000000
00100000
10000000
,
01000000
00000000
00100000
00001000
,
00010000
00000000
00000010
00000100
,
00000002
00000000
00001003
00000000
,
00000010
00010000
00001000
00010000
,
00000010
00000100
00000010
00010000
,
00001000
00100000
01000000
00100000
,
00001000
00010000
00001000
00000000
,
01000000
00100000
10000000
01000000
,
00100000
00001000
00010000
00000100
,
00010000
00000010
00000100
00000001
,
00000020
00000000
00000130
00010100
;
